  0
SECTION
  2
HEADER
  9
$ACADVER
  1
AC1027
  9
$ACADMAINTVER
 70
    55
  9
$DWGCODEPAGE
  3
ANSI_932
  9
$LASTSAVEDBY
  1
石井
  9
$REQUIREDVERSIONS
160
                 0
  9
$INSBASE
 10
0.0
 20
0.0
 30
0.0
  9
$EXTMIN
 10
2749.45043881207
 20
7535.766035664415
 30
0.0
  9
$EXTMAX
 10
3158.450438833177
 20
7816.766041329995
 30
0.0
  9
$LIMMIN
 10
0.0
 20
0.0
  9
$LIMMAX
 10
42000.0
 20
29700.0
  9
$ORTHOMODE
 70
     1
  9
$REGENMODE
 70
     1
  9
$FILLMODE
 70
     1
  9
$QTEXTMODE
 70
     0
  9
$MIRRTEXT
 70
     1
  9
$LTSCALE
 40
1.0
  9
$ATTMODE
 70
     1
  9
$TEXTSIZE
 40
0.2
  9
$TRACEWID
 40
0.05
  9
$TEXTSTYLE
  7
白抜
  9
$CLAYER
  8
1-0_本体
  9
$CELTYPE
  6
CONTINUOUS
  9
$CECOLOR
 62
     7
  9
$CELTSCALE
 40
1.0
  9
$DISPSILH
 70
     0
  9
$DIMSCALE
 40
1.0
  9
$DIMASZ
 40
1.0
  9
$DIMEXO
 40
3.0
  9
$DIMDLI
 40
3.75
  9
$DIMRND
 40
0.0
  9
$DIMDLE
 40
0.0
  9
$DIMEXE
 40
1.0
  9
$DIMTP
 40
0.0
  9
$DIMTM
 40
0.0
  9
$DIMTXT
 40
3.0
  9
$DIMCEN
 40
1.5
  9
$DIMTSZ
 40
0.0
  9
$DIMTOL
 70
     0
  9
$DIMLIM
 70
     0
  9
$DIMTIH
 70
     0
  9
$DIMTOH
 70
     0
  9
$DIMSE1
 70
     0
  9
$DIMSE2
 70
     0
  9
$DIMTAD
 70
     1
  9
$DIMZIN
 70
     8
  9
$DIMBLK
  1
Dot
  9
$DIMASO
 70
     1
  9
$DIMSHO
 70
     1
  9
$DIMPOST
  1

  9
$DIMAPOST
  1

  9
$DIMALT
 70
     0
  9
$DIMALTD
 70
     3
  9
$DIMALTF
 40
0.03937007874016
  9
$DIMLFAC
 40
1.0
  9
$DIMTOFL
 70
     1
  9
$DIMTVP
 40
0.0
  9
$DIMTIX
 70
     0
  9
$DIMSOXD
 70
     0
  9
$DIMSAH
 70
     0
  9
$DIMBLK1
  1

  9
$DIMBLK2
  1

  9
$DIMSTYLE
  2
ISO-25
  9
$DIMCLRD
 70
     3
  9
$DIMCLRE
 70
     3
  9
$DIMCLRT
 70
     3
  9
$DIMTFAC
 40
1.0
  9
$DIMGAP
 40
0.625
  9
$DIMJUST
 70
     0
  9
$DIMSD1
 70
     0
  9
$DIMSD2
 70
     0
  9
$DIMTOLJ
 70
     0
  9
$DIMTZIN
 70
     8
  9
$DIMALTZ
 70
     0
  9
$DIMALTTZ
 70
     0
  9
$DIMUPT
 70
     0
  9
$DIMDEC
 70
     2
  9
$DIMTDEC
 70
     2
  9
$DIMALTU
 70
     2
  9
$DIMALTTD
 70
     3
  9
$DIMTXSTY
  7
明朝
  9
$DIMAUNIT
 70
     0
  9
$DIMADEC
 70
     0
  9
$DIMALTRND
 40
0.0
  9
$DIMAZIN
 70
     0
  9
$DIMDSEP
 70
    46
  9
$DIMATFIT
 70
     3
  9
$DIMFRAC
 70
     0
  9
$DIMLDRBLK
  1

  9
$DIMLUNIT
 70
     2
  9
$DIMLWD
 70
    -2
  9
$DIMLWE
 70
    -2
  9
$DIMTMOVE
 70
     0
  9
$DIMFXL
 40
1.0
  9
$DIMFXLON
 70
     0
  9
$DIMJOGANG
 40
0.7853981633974483
  9
$DIMTFILL
 70
     0
  9
$DIMTFILLCLR
 70
     0
  9
$DIMARCSYM
 70
     0
  9
$DIMLTYPE
  6

  9
$DIMLTEX1
  6

  9
$DIMLTEX2
  6

  9
$DIMTXTDIRECTION
 70
     0
  9
$LUNITS
 70
     2
  9
$LUPREC
 70
     4
  9
$SKETCHINC
 40
0.1
  9
$FILLETRAD
 40
0.0
  9
$AUNITS
 70
     0
  9
$AUPREC
 70
     0
  9
$MENU
  1
.
  9
$ELEVATION
 40
0.0
  9
$PELEVATION
 40
0.0
  9
$THICKNESS
 40
0.0
  9
$LIMCHECK
 70
     0
  9
$CHAMFERA
 40
0.0
  9
$CHAMFERB
 40
0.0
  9
$CHAMFERC
 40
0.0
  9
$CHAMFERD
 40
0.0
  9
$SKPOLY
 70
     0
  9
$TDCREATE
 40
2453535.375353912
  9
$TDUCREATE
 40
2453535.000353912
  9
$TDUPDATE
 40
2457815.581076805
  9
$TDUUPDATE
 40
2457815.206076805
  9
$TDINDWG
 40
5.8082878704
  9
$TDUSRTIMER
 40
5.8082878704
  9
$USRTIMER
 70
     1
  9
$ANGBASE
 50
0.0
  9
$ANGDIR
 70
     0
  9
$PDMODE
 70
     0
  9
$PDSIZE
 40
0.0
  9
$PLINEWID
 40
0.0
  9
$SPLFRAME
 70
     0
  9
$SPLINETYPE
 70
     6
  9
$SPLINESEGS
 70
 30000
  9
$HANDSEED
  5
3E373
  9
$SURFTAB1
 70
     6
  9
$SURFTAB2
 70
     6
  9
$SURFTYPE
 70
     6
  9
$SURFU
 70
     6
  9
$SURFV
 70
     6
  9
$UCSBASE
  2

  9
$UCSNAME
  2

  9
$UCSORG
 10
0.0
 20
0.0
 30
0.0
  9
$UCSXDIR
 10
1.0
 20
0.0
 30
0.0
  9
$UCSYDIR
 10
0.0
 20
1.0
 30
0.0
  9
$UCSORTHOREF
  2

  9
$UCSORTHOVIEW
 70
     0
  9
$UCSORGTOP
 10
0.0
 20
0.0
 30
0.0
  9
$UCSORGBOTTOM
 10
0.0
 20
0.0
 30
0.0
  9
$UCSORGLEFT
 10
0.0
 20
0.0
 30
0.0
  9
$UCSORGRIGHT
 10
0.0
 20
0.0
 30
0.0
  9
$UCSORGFRONT
 10
0.0
 20
0.0
 30
0.0
  9
$UCSORGBACK
 10
0.0
 20
0.0
 30
0.0
  9
$PUCSBASE
  2

  9
$PUCSNAME
  2

  9
$PUCSORG
 10
0.0
 20
0.0
 30
0.0
  9
$PUCSXDIR
 10
1.0
 20
0.0
 30
0.0
  9
$PUCSYDIR
 10
0.0
 20
1.0
 30
0.0
  9
$PUCSORTHOREF
  2

  9
$PUCSORTHOVIEW
 70
     0
  9
$PUCSORGTOP
 10
0.0
 20
0.0
 30
0.0
  9
$PUCSORGBOTTOM
 10
0.0
 20
0.0
 30
0.0
  9
$PUCSORGLEFT
 10
0.0
 20
0.0
 30
0.0
  9
$PUCSORGRIGHT
 10
0.0
 20
0.0
 30
0.0
  9
$PUCSORGFRONT
 10
0.0
 20
0.0
 30
0.0
  9
$PUCSORGBACK
 10
0.0
 20
0.0
 30
0.0
  9
$USERI1
 70
     0
  9
$USERI2
 70
     0
  9
$USERI3
 70
     0
  9
$USERI4
 70
     0
  9
$USERI5
 70
     0
  9
$USERR1
 40
0.0
  9
$USERR2
 40
0.0
  9
$USERR3
 40
0.0
  9
$USERR4
 40
0.0
  9
$USERR5
 40
0.0
  9
$WORLDVIEW
 70
     1
  9
$SHADEDGE
 70
     3
  9
$SHADEDIF
 70
    70
  9
$TILEMODE
 70
     1
  9
$MAXACTVP
 70
    48
  9
$PINSBASE
 10
0.0
 20
0.0
 30
0.0
  9
$PLIMCHECK
 70
     0
  9
$PEXTMIN
 10
-11.45606450302114
 20
-7.038343525048844
 30
-0.0000000000112498
  9
$PEXTMAX
 10
420.7744103806057
 20
297.3359490236088
 30
0.0000000000002956
  9
$PLIMMIN
 10
-8.773990472843097
 20
-3.607948133029188
  9
$PLIMMAX
 10
415.7602958731588
 20
296.5617609194883
  9
$UNITMODE
 70
     0
  9
$VISRETAIN
 70
     1
  9
$PLINEGEN
 70
     0
  9
$PSLTSCALE
 70
     1
  9
$TREEDEPTH
 70
  3020
  9
$CMLSTYLE
  2
Standard
  9
$CMLJUST
 70
     0
  9
$CMLSCALE
 40
1.0
  9
$PROXYGRAPHICS
 70
     1
  9
$MEASUREMENT
 70
     0
  9
$CELWEIGHT
370
    35
  9
$ENDCAPS
280
     0
  9
$JOINSTYLE
280
     0
  9
$LWDISPLAY
290
     1
  9
$INSUNITS
 70
     0
  9
$HYPERLINKBASE
  1

  9
$STYLESHEET
  1
monochrome.ctb
  9
$XEDIT
290
     1
  9
$CEPSNTYPE
380
     0
  9
$PSTYLEMODE
290
     1
  9
$FINGERPRINTGUID
  2
{9EDDDDE4-70DF-410C-B5FF-732209A9D3A9}
  9
$VERSIONGUID
  2
{2E44E482-C645-42DA-B630-6BBBC37EC528}
  9
$EXTNAMES
290
     1
  9
$PSVPSCALE
 40
0.0
  9
$OLESTARTUP
290
     0
  9
$SORTENTS
280
    96
  9
$INDEXCTL
280
     0
  9
$HIDETEXT
280
     0
  9
$XCLIPFRAME
280
     2
  9
$HALOGAP
280
     0
  9
$OBSCOLOR
 70
   257
  9
$OBSLTYPE
280
     0
  9
$INTERSECTIONDISPLAY
280
     0
  9
$INTERSECTIONCOLOR
 70
   257
  9
$DIMASSOC
280
     1
  9
$PROJECTNAME
  1

  9
$CAMERADISPLAY
290
     0
  9
$LENSLENGTH
 40
50.0
  9
$CAMERAHEIGHT
 40
0.0
  9
$STEPSPERSEC
 40
2.0
  9
$STEPSIZE
 40
6.0
  9
$3DDWFPREC
 40
2.0
  9
$PSOLWIDTH
 40
0.25
  9
$PSOLHEIGHT
 40
4.0
  9
$LOFTANG1
 40
1.570796326794896
  9
$LOFTANG2
 40
1.570796326794896
  9
$LOFTMAG1
 40
0.0
  9
$LOFTMAG2
 40
0.0
  9
$LOFTPARAM
 70
     7
  9
$LOFTNORMALS
280
     1
  9
$LATITUDE
 40
37.795
  9
$LONGITUDE
 40
-122.394
  9
$NORTHDIRECTION
 40
0.0
  9
$TIMEZONE
 70
 -8000
  9
$LIGHTGLYPHDISPLAY
280
     1
  9
$TILEMODELIGHTSYNCH
280
     1
  9
$CMATERIAL
347
3E185
  9
$SOLIDHIST
280
     0
  9
$SHOWHIST
280
     1
  9
$DWFFRAME
280
     2
  9
$DGNFRAME
280
     0
  9
$REALWORLDSCALE
290
     1
  9
$INTERFERECOLOR
 62
     1
  9
$INTERFEREOBJVS
345
3E1A7
  9
$INTERFEREVPVS
346
3E1A4
  9
$CSHADOW
280
     0
  9
$SHADOWPLANELOCATION
 40
0.0
  0
ENDSEC
  0
SECTION
  2
CLASSES
  0
CLASS
  1
ACDBDICTIONARYWDFLT
  2
AcDbDictionaryWithDefault
  3
ObjectDBX Classes
 90
        0
 91
        1
280
     0
281
     0
  0
CLASS
  1
DICTIONARYVAR
  2
AcDbDictionaryVar
  3
ObjectDBX Classes
 90
        0
 91
       11
280
     0
281
     0
  0
CLASS
  1
MATERIAL
  2
AcDbMaterial
  3
ObjectDBX Classes
 90
     1153
 91
        3
280
     0
281
     0
  0
CLASS
  1
VISUALSTYLE
  2
AcDbVisualStyle
  3
ObjectDBX Classes
 90
     4095
 91
       24
280
     0
281
     0
  0
CLASS
  1
TABLESTYLE
  2
AcDbTableStyle
  3
ObjectDBX Classes
 90
     4095
 91
        1
280
     0
281
     0
  0
CLASS
  1
SCALE
  2
AcDbScale
  3
ObjectDBX Classes
 90
     1153
 91
       17
280
     0
281
     0
  0
CLASS
  1
MLEADERSTYLE
  2
AcDbMLeaderStyle
  3
ACDB_MLEADERSTYLE_CLASS
 90
     4095
 91
        1
280
     0
281
     0
  0
CLASS
  1
ACDBSECTIONVIEWSTYLE
  2
AcDbSectionViewStyle
  3
ObjectDBX Classes
 90
     1025
 91
        1
280
     0
281
     0
  0
CLASS
  1
ACDBDETAILVIEWSTYLE
  2
AcDbDetailViewStyle
  3
ObjectDBX Classes
 90
     1025
 91
        1
280
     0
281
     0
  0
CLASS
  1
SORTENTSTABLE
  2
AcDbSortentsTable
  3
ObjectDBX Classes
 90
        0
 91
        1
280
     0
281
     0
  0
CLASS
  1
CELLSTYLEMAP
  2
AcDbCellStyleMap
  3
ObjectDBX Classes
 90
     1152
 91
        1
280
     0
281
     0
  0
ENDSEC
  0
SECTION
  2
TABLES
  0
TABLE
  2
VPORT
  5
8
330
0
100
AcDbSymbolTable
 70
     1
  0
VPORT
  5
3E182
330
8
100
AcDbSymbolTableRecord
100
AcDbViewportTableRecord
  2
*Active
 70
     0
 10
0.0
 20
0.0
 11
1.0
 21
1.0
 12
2988.717870469131
 22
7901.588960524605
 13
0.0
 23
0.0
 14
1.0
 24
1.0
 15
10.0
 25
10.0
 16
0.0
 26
0.0
 36
1.0
 17
0.0
 27
0.0
 37
0.0
 40
754.136154727311
 41
0.9001663893510814
 42
50.0
 43
0.0
 44
0.0
 50
0.0
 51
0.0
 71
     0
 72
   100
 73
     1
 74
     1
 75
     0
 76
     0
 77
     0
 78
     0
281
     0
 65
     1
110
0.0
120
0.0
130
0.0
111
1.0
121
0.0
131
0.0
112
0.0
122
1.0
132
0.0
 79
     0
146
0.0
348
3E1A3
 60
     3
 61
     5
292
     1
282
     1
141
0.0
142
0.0
 63
   250
421
  3355443
1001
ACAD_NAV_VCDISPLAY
1070
     3
  0
ENDTAB
  0
TABLE
  2
LTYPE
  5
5
330
0
100
AcDbSymbolTable
 70
     4
  0
LTYPE
  5
13
330
5
100
AcDbSymbolTableRecord
100
AcDbLinetypeTableRecord
  2
ByBlock
 70
     0
  3

 72
    65
 73
     0
 40
0.0
  0
LTYPE
  5
14
330
5
100
AcDbSymbolTableRecord
100
AcDbLinetypeTableRecord
  2
ByLayer
 70
     0
  3

 72
    65
 73
     0
 40
0.0
  0
LTYPE
  5
15
330
5
100
AcDbSymbolTableRecord
100
AcDbLinetypeTableRecord
  2
CONTINUOUS
 70
     0
  3
実線
 72
    65
 73
     0
 40
0.0
  0
LTYPE
  5
3C555
330
5
100
AcDbSymbolTableRecord
100
AcDbLinetypeTableRecord
  2
かくれ線
 70
     0
  3
ISO dash __ __ __ __ __ __ __ __ __ __ __
 72
    65
 73
     2
 40
8.0
 49
6.0
 74
     0
 49
-2.0
 74
     0
  0
LTYPE
  5
3C556
330
5
100
AcDbSymbolTableRecord
100
AcDbLinetypeTableRecord
  2
中心線
 70
     0
  3
ISO long-dash dot ____ . ____ . ____ . ____ . _
 72
    65
 73
     4
 40
38.0
 49
30.0
 74
     0
 49
-2.0
 74
     0
 49
4.0
 74
     0
 49
-2.0
 74
     0
  0
LTYPE
  5
3C557
330
5
100
AcDbSymbolTableRecord
100
AcDbLinetypeTableRecord
  2
想像線
 70
     0
  3
ISO long-dash double-dot ____ .. ____ .. ____ .
 72
    65
 73
     6
 40
40.0
 49
26.0
 74
     0
 49
-2.0
 74
     0
 49
4.0
 74
     0
 49
-2.0
 74
     0
 49
4.0
 74
     0
 49
-2.0
 74
     0
  0
ENDTAB
  0
TABLE
  2
LAYER
  5
2
102
{ACAD_XDICTIONARY
360
39DD2
102
}
330
0
100
AcDbSymbolTable
 70
    13
  0
LAYER
  5
10
102
{ACAD_XDICTIONARY
360
3E1E7
102
}
330
2
100
AcDbSymbolTableRecord
100
AcDbLayerTableRecord
  2
0
 70
     0
 62
     7
  6
CONTINUOUS
370
    18
390
F
347
3E195
348
0
  0
LAYER
  5
CA7
330
2
100
AcDbSymbolTableRecord
100
AcDbLayerTableRecord
  2
Defpoints
 70
     0
 62
     7
  6
CONTINUOUS
290
     0
370
    18
390
F
347
3E195
348
0
  0
LAYER
  5
1175
102
{ACAD_XDICTIONARY
360
3E1E9
102
}
330
2
100
AcDbSymbolTableRecord
100
AcDbLayerTableRecord
  2
印刷されない線
 70
     0
 62
   110
  6
CONTINUOUS
290
     0
370
    18
390
F
347
3E195
348
0
  0
LAYER
  5
1178
102
{ACAD_XDICTIONARY
360
3E1EB
102
}
330
2
100
AcDbSymbolTableRecord
100
AcDbLayerTableRecord
  2
図枠
 70
     0
 62
   110
  6
CONTINUOUS
370
    35
390
F
347
3E195
348
0
  0
LAYER
  5
3C558
102
{ACAD_XDICTIONARY
360
3E1ED
102
}
330
2
100
AcDbSymbolTableRecord
100
AcDbLayerTableRecord
  2
1-0_本体
 70
     0
 62
     7
  6
CONTINUOUS
370
    35
390
F
347
3E195
348
0
  0
LAYER
  5
3C559
102
{ACAD_XDICTIONARY
360
3E1EF
102
}
330
2
100
AcDbSymbolTableRecord
100
AcDbLayerTableRecord
  2
1-A_中心
 70
     0
 62
     6
  6
中心線
370
    18
390
F
347
3E195
348
0
  0
LAYER
  5
3C55A
102
{ACAD_XDICTIONARY
360
3E1F1
102
}
330
2
100
AcDbSymbolTableRecord
100
AcDbLayerTableRecord
  2
1-4_ビス
 70
     0
 62
     7
  6
CONTINUOUS
370
    35
390
F
347
3E195
348
0
  0
LAYER
  5
3C55B
102
{ACAD_XDICTIONARY
360
3E1F3
102
}
330
2
100
AcDbSymbolTableRecord
100
AcDbLayerTableRecord
  2
1-2_扉･枠
 70
     0
 62
     4
  6
想像線
370
    18
390
F
347
3E195
348
0
  0
LAYER
  5
3C55C
102
{ACAD_XDICTIONARY
360
3E1F5
102
}
330
2
100
AcDbSymbolTableRecord
100
AcDbLayerTableRecord
  2
1-B_寸法
 70
     0
 62
     3
  6
CONTINUOUS
370
    18
390
F
347
3E195
348
0
  0
LAYER
  5
3C55D
102
{ACAD_XDICTIONARY
360
3E1F7
102
}
330
2
100
AcDbSymbolTableRecord
100
AcDbLayerTableRecord
  2
1-C_文字
 70
     0
 62
     3
  6
CONTINUOUS
370
    18
390
F
347
3E195
348
0
  0
LAYER
  5
3C55E
102
{ACAD_XDICTIONARY
360
3E1F9
102
}
330
2
100
AcDbSymbolTableRecord
100
AcDbLayerTableRecord
  2
1-1_本体2
 70
     0
 62
     7
  6
かくれ線
370
    18
390
F
347
3E195
348
0
  0
LAYER
  5
3C55F
102
{ACAD_XDICTIONARY
360
3E1FB
102
}
330
2
100
AcDbSymbolTableRecord
100
AcDbLayerTableRecord
  2
1-5_ビス2
 70
     0
 62
     7
  6
かくれ線
370
    18
390
F
347
3E195
348
0
  0
LAYER
  5
3C560
102
{ACAD_XDICTIONARY
360
3E1FD
102
}
330
2
100
AcDbSymbolTableRecord
100
AcDbLayerTableRecord
  2
1-3_付属
 70
     0
 62
     7
  6
CONTINUOUS
370
    18
390
F
347
3E195
348
0
  0
ENDTAB
  0
TABLE
  2
STYLE
  5
3
330
0
100
AcDbSymbolTable
 70
     4
  0
STYLE
  5
11
330
3
100
AcDbSymbolTableRecord
100
AcDbTextStyleTableRecord
  2
STANDARD
 70
     0
 40
0.0
 41
1.0
 50
0.0
 71
     0
 42
0.2
  3
simplex.shx
  4
bigfont.shx
  0
STYLE
  5
D84A
330
3
100
AcDbSymbolTableRecord
100
AcDbTextStyleTableRecord
  2
明朝
 70
     0
 40
3.0
 41
1.0
 50
0.0
 71
     0
 42
0.2
  3

  4

1001
ACAD
1000
MS Gothic
1071
    32817
  0
STYLE
  5
17D06
330
3
100
AcDbSymbolTableRecord
100
AcDbTextStyleTableRecord
  2
白抜
 70
     0
 40
3.0
 41
1.0
 50
0.0
 71
     0
 42
0.2
  3
HGPGothicE.ttf
  4

1001
ACAD
1000
HGPGothicE
1071
    32818
  0
STYLE
  5
3883D
330
3
100
AcDbSymbolTableRecord
100
AcDbTextStyleTableRecord
  2
丸ゴシック
 70
     0
 40
3.0
 41
0.5
 50
0.0
 71
     0
 42
0.2
  3
HGRSMP.TTF
  4

1001
ACAD
1000
HGMaruGothicMPRO
1071
    32818
  0
ENDTAB
  0
TABLE
  2
VIEW
  5
6
330
0
100
AcDbSymbolTable
 70
     0
  0
ENDTAB
  0
TABLE
  2
UCS
  5
7
330
0
100
AcDbSymbolTable
 70
     0
  0
ENDTAB
  0
TABLE
  2
APPID
  5
9
330
0
100
AcDbSymbolTable
 70
     5
  0
APPID
  5
12
330
9
100
AcDbSymbolTableRecord
100
AcDbRegAppTableRecord
  2
ACAD
 70
     0
  0
APPID
  5
3E1DF
330
9
100
AcDbSymbolTableRecord
100
AcDbRegAppTableRecord
  2
ACAD_NAV_VCDISPLAY
 70
     0
  0
APPID
  5
3E28B
330
9
100
AcDbSymbolTableRecord
100
AcDbRegAppTableRecord
  2
GradientColor1ACI
 70
     0
  0
APPID
  5
3E28C
330
9
100
AcDbSymbolTableRecord
100
AcDbRegAppTableRecord
  2
GradientColor2ACI
 70
     0
  0
APPID
  5
3E2CD
330
9
100
AcDbSymbolTableRecord
100
AcDbRegAppTableRecord
  2
ACAD_EXEMPT_FROM_CAD_STANDARDS
 70
     0
  0
ENDTAB
  0
TABLE
  2
DIMSTYLE
  5
A
330
0
100
AcDbSymbolTable
 70
     2
100
AcDbDimStyleTable
 71
     2
340
CAD
340
268
  0
DIMSTYLE
105
268
330
A
100
AcDbSymbolTableRecord
100
AcDbDimStyleTableRecord
  2
Standard
 70
     0
340
11
  0
DIMSTYLE
105
CAD
102
{ACAD_REACTORS
330
37F63
330
38BA7
330
38C43
330
38C44
330
38C46
330
38C7B
330
38C7C
330
38CBA
330
38CBB
330
38CBD
330
38CBE
330
38CC9
330
38CCA
330
38CCB
330
39A59
330
39A58
330
37F2F
330
3C239
102
}
330
A
100
AcDbSymbolTableRecord
100
AcDbDimStyleTableRecord
  2
ISO-25
 70
     0
 41
1.0
 42
3.0
 43
3.75
 44
1.0
 73
     0
 74
     0
 77
     1
 78
     8
140
3.0
141
1.5
143
0.03937007874016
147
0.625
171
     3
172
     1
176
     3
177
     3
178
     3
271
     2
272
     2
274
     3
283
     0
284
     8
340
D84A
342
91D9
  0
ENDTAB
  0
TABLE
  2
BLOCK_RECORD
  5
1
330
0
100
AcDbSymbolTable
 70
    19
  0
BLOCK_RECORD
  5
1E
102
{ACAD_XDICTIONARY
360
1198
102
}
330
1
100
AcDbSymbolTableRecord
100
AcDbBlockTableRecord
  2
*Model_Space
340
21
 70
     0
280
     1
281
     0
  0
BLOCK_RECORD
  5
1A
102
{ACAD_XDICTIONARY
360
119A
102
}
330
1
100
AcDbSymbolTableRecord
100
AcDbBlockTableRecord
  2
*Paper_Space
340
1D
 70
     0
280
     1
281
     0
  0
BLOCK_RECORD
  5
91D9
330
1
100
AcDbSymbolTableRecord
100
AcDbBlockTableRecord
  2
_Dot
340
0
102
{BLKREFS
331
3E0A7
331
3E0A8
331
3E0B0
331
3E0B1
331
3E0B9
331
3E0BA
331
3E0C2
331
3E0C3
331
3E0CB
331
3E0CC
331
3E0D4
331
3E0D5
331
3E0DD
331
3E0DE
331
3E0E6
331
3E0E7
331
3E0EF
331
3E0F0
331
3E0F8
331
3E0F9
331
3E101
331
3E102
331
3E10A
331
3E10B
331
3E113
331
3E114
331
3E11C
331
3E11D
331
3E125
331
3E126
331
3E12E
331
3E12F
331
3E166
331
3E167
331
3E16F
331
3E170
102
}
 70
     0
280
     1
281
     0
  0
BLOCK_RECORD
  5
380D5
330
1
100
AcDbSymbolTableRecord
100
AcDbBlockTableRecord
  2
*D1
340
0
 70
     0
280
     1
281
     0
  0
BLOCK_RECORD
  5
380ED
330
1
100
AcDbSymbolTableRecord
100
AcDbBlockTableRecord
  2
*D2
340
0
 70
     0
280
     1
281
     0
  0
BLOCK_RECORD
  5
38CDD
330
1
100
AcDbSymbolTableRecord
100
AcDbBlockTableRecord
  2
*D3
340
0
 70
     0
280
     1
281
     0
  0
BLOCK_RECORD
  5
38D01
330
1
100
AcDbSymbolTableRecord
100
AcDbBlockTableRecord
  2
*D4
340
0
 70
     0
280
     1
281
     0
  0
BLOCK_RECORD
  5
38D0D
330
1
100
AcDbSymbolTableRecord
100
AcDbBlockTableRecord
  2
*D5
340
0
 70
     0
280
     1
281
     0
  0
BLOCK_RECORD
  5
38D25
330
1
100
AcDbSymbolTableRecord
100
AcDbBlockTableRecord
  2
*D6
340
0
 70
     0
280
     1
281
     0
  0
BLOCK_RECORD
  5
38D31
330
1
100
AcDbSymbolTableRecord
100
AcDbBlockTableRecord
  2
*D7
340
0
 70
     0
280
     1
281
     0
  0
BLOCK_RECORD
  5
38D3D
330
1
100
AcDbSymbolTableRecord
100
AcDbBlockTableRecord
  2
*D8
340
0
 70
     0
280
     1
281
     0
  0
BLOCK_RECORD
  5
38D49
330
1
100
AcDbSymbolTableRecord
100
AcDbBlockTableRecord
  2
*D9
340
0
 70
     0
280
     1
281
     0
  0
BLOCK_RECORD
  5
38D55
330
1
100
AcDbSymbolTableRecord
100
AcDbBlockTableRecord
  2
*D10
340
0
 70
     0
280
     1
281
     0
  0
BLOCK_RECORD
  5
38D61
330
1
100
AcDbSymbolTableRecord
100
AcDbBlockTableRecord
  2
*D11
340
0
 70
     0
280
     1
281
     0
  0
BLOCK_RECORD
  5
38D6D
330
1
100
AcDbSymbolTableRecord
100
AcDbBlockTableRecord
  2
*D12
340
0
 70
     0
280
     1
281
     0
  0
BLOCK_RECORD
  5
38D85
330
1
100
AcDbSymbolTableRecord
100
AcDbBlockTableRecord
  2
*D13
340
0
 70
     0
280
     1
281
     0
  0
BLOCK_RECORD
  5
38D91
330
1
100
AcDbSymbolTableRecord
100
AcDbBlockTableRecord
  2
*D14
340
0
 70
     0
280
     1
281
     0
  0
BLOCK_RECORD
  5
38D9D
330
1
100
AcDbSymbolTableRecord
100
AcDbBlockTableRecord
  2
*D15
340
0
 70
     0
280
     1
281
     0
  0
BLOCK_RECORD
  5
39A5A
330
1
100
AcDbSymbolTableRecord
100
AcDbBlockTableRecord
  2
*D16
340
0
 70
     0
280
     1
281
     0
  0
BLOCK_RECORD
  5
39A66
330
1
100
AcDbSymbolTableRecord
100
AcDbBlockTableRecord
  2
*D17
340
0
 70
     0
280
     1
281
     0
  0
BLOCK_RECORD
  5
3C23A
330
1
100
AcDbSymbolTableRecord
100
AcDbBlockTableRecord
  2
*D18
340
0
 70
     0
280
     1
281
     0
  0
ENDTAB
  0
ENDSEC
  0
SECTION
  2
BLOCKS
  0
BLOCK
  5
1F
330
1E
100
AcDbEntity
  8
0
100
AcDbBlockBegin
  2
*Model_Space
 70
     0
 10
0.0
 20
0.0
 30
0.0
  3
*Model_Space
  1

  0
ENDBLK
  5
20
330
1E
100
AcDbEntity
  8
0
100
AcDbBlockEnd
  0
BLOCK
  5
1B
330
1A
100
AcDbEntity
 67
     1
  8
0
100
AcDbBlockBegin
  2
*Paper_Space
 70
     0
 10
0.0
 20
0.0
 30
0.0
  3
*Paper_Space
  1

  0
ENDBLK
  5
1C
330
1A
100
AcDbEntity
 67
     1
  8
0
100
AcDbBlockEnd
  0
BLOCK
  5
91DC
330
91D9
100
AcDbEntity
  8
0
 48
0.5
370
    13
100
AcDbBlockBegin
  2
_Dot
 70
     0
 10
0.0
 20
0.0
 30
0.0
  3
_Dot
  1

  0
LWPOLYLINE
  5
91DA
330
91D9
100
AcDbEntity
  8
0
  6
ByBlock
 62
     0
370
    13
100
AcDbPolyline
 90
        2
 70
     1
 43
0.5
 10
-0.25
 20
0.0
 42
1.0
 10
0.25
 20
0.0
 42
1.0
  0
LINE
  5
91DB
330
91D9
100
AcDbEntity
  8
0
  6
ByBlock
 62
     0
370
    -2
100
AcDbLine
 10
-0.5
 20
0.0
 30
0.0
 11
-1.0
 21
0.0
 31
0.0
  0
ENDBLK
  5
91DD
330
91D9
100
AcDbEntity
  8
0
 48
0.5
370
    13
100
AcDbBlockEnd
  0
BLOCK
  5
380DF
330
380D5
100
AcDbEntity
  8
0
 48
0.5
370
    13
100
AcDbBlockBegin
  2
*D1
 70
     1
 10
0.0
 20
0.0
 30
0.0
  3
*D1
  1

  0
LINE
  5
3E16C
330
380D5
100
AcDbEntity
  8
1-B_寸法
  6
Continuous
 62
     3
440
 16777216
370
    -2
100
AcDbLine
 10
2901.450438798551
 20
7642.670706487398
 30
0.0
 11
2914.450438798552
 21
7642.670706487398
 31
0.0
  0
LINE
  5
3E16D
330
380D5
100
AcDbEntity
  8
1-B_寸法
  6
Continuous
 62
     3
440
 16777216
370
    -2
100
AcDbLine
 10
2901.450438798551
 20
7592.670706487398
 30
0.0
 11
2914.450438798552
 21
7592.670706487398
 31
0.0
  0
LINE
  5
3E16E
330
380D5
100
AcDbEntity
  8
1-B_寸法
  6
Continuous
 62
     3
440
 16777216
370
    -2
100
AcDbLine
 10
2913.450438798552
 20
7641.670706487399
 30
0.0
 11
2913.450438798552
 21
7593.670706487398
 31
0.0
  0
INSERT
  5
3E16F
330
380D5
100
AcDbEntity
  8
1-B_寸法
  6
Continuous
 62
     3
440
 16777216
370
    -2
100
AcDbBlockReference
  2
_Dot
 10
2913.450438798552
 20
7642.670706487398
 30
0.0
 50
90.0
  0
INSERT
  5
3E170
330
380D5
100
AcDbEntity
  8
1-B_寸法
  6
Continuous
 62
     3
440
 16777216
370
    -2
100
AcDbBlockReference
  2
_Dot
 10
2913.450438798552
 20
7592.670706487398
 30
0.0
 50
270.0
  0
MTEXT
  5
3E171
330
380D5
100
AcDbEntity
  8
1-B_寸法
  6
Continuous
 62
     3
440
 16777216
370
    18
100
AcDbMText
 10
2911.325438798551
 20
7617.670706487401
 30
0.0
 40
3.0
 41
0.0
 46
0.0
 71
     5
 72
     1
  1
50
  7
明朝
 11
0.0000000000000001
 21
1.0
 31
0.0
 73
     1
 44
1.0
  0
POINT
  5
3E172
330
380D5
100
AcDbEntity
  8
Defpoints
  6
Continuous
 62
     0
440
 16777216
370
    35
100
AcDbPoint
 10
2898.450438798551
 20
7642.670706487398
 30
0.0
  0
POINT
  5
3E173
330
380D5
100
AcDbEntity
  8
Defpoints
  6
Continuous
 62
     0
440
 16777216
370
    35
100
AcDbPoint
 10
2898.450438798551
 20
7592.670706487398
 30
0.0
  0
POINT
  5
3E174
330
380D5
100
AcDbEntity
  8
Defpoints
  6
Continuous
 62
     0
440
 16777216
370
    35
100
AcDbPoint
 10
2913.450438798552
 20
7592.670706487398
 30
0.0
  0
ENDBLK
  5
380E0
330
380D5
100
AcDbEntity
  8
0
 48
0.5
370
    13
100
AcDbBlockEnd
  0
BLOCK
  5
380F7
330
380ED
100
AcDbEntity
  8
0
 48
0.5
370
    13
100
AcDbBlockBegin
  2
*D2
 70
     1
 10
0.0
 20
0.0
 30
0.0
  3
*D2
  1

  0
LINE
  5
3E163
330
380ED
100
AcDbEntity
  8
1-B_寸法
  6
Continuous
 62
     3
440
 16777216
370
    -2
100
AcDbLine
 10
2898.450438798551
 20
7645.670706487398
 30
0.0
 11
2898.450438798551
 21
7658.670706487398
 31
0.0
  0
LINE
  5
3E164
330
380ED
100
AcDbEntity
  8
1-B_寸法
  6
Continuous
 62
     3
440
 16777216
370
    -2
100
AcDbLine
 10
2848.450438798551
 20
7645.670706487398
 30
0.0
 11
2848.450438798551
 21
7658.670706487398
 31
0.0
  0
LINE
  5
3E165
330
380ED
100
AcDbEntity
  8
1-B_寸法
  6
Continuous
 62
     3
440
 16777216
370
    -2
100
AcDbLine
 10
2897.450438798551
 20
7657.670706487398
 30
0.0
 11
2849.450438798551
 21
7657.670706487398
 31
0.0
  0
INSERT
  5
3E166
330
380ED
100
AcDbEntity
  8
1-B_寸法
  6
Continuous
 62
     3
440
 16777216
370
    -2
100
AcDbBlockReference
  2
_Dot
 10
2898.450438798551
 20
7657.670706487398
 30
0.0
  0
INSERT
  5
3E167
330
380ED
100
AcDbEntity
  8
1-B_寸法
  6
Continuous
 62
     3
440
 16777216
370
    -2
100
AcDbBlockReference
  2
_Dot
 10
2848.450438798551
 20
7657.670706487398
 30
0.0
 50
180.0
  0
MTEXT
  5
3E168
330
380ED
100
AcDbEntity
  8
1-B_寸法
  6
Continuous
 62
     3
440
 16777216
370
    18
100
AcDbMText
 10
2873.450438798551
 20
7660.039361309734
 30
0.0
 40
3.0
 41
0.0
 46
0.0
 71
     5
 72
     1
  1
φ50
  7
明朝
 73
     1
 44
1.0
  0
POINT
  5
3E169
330
380ED
100
AcDbEntity
  8
Defpoints
  6
Continuous
 62
     0
440
 16777216
370
    35
100
AcDbPoint
 10
2898.450438798551
 20
7642.670706487398
 30
0.0
  0
POINT
  5
3E16A
330
380ED
100
AcDbEntity
  8
Defpoints
  6
Continuous
 62
     0
440
 16777216
370
    35
100
AcDbPoint
 10
2848.450438798551
 20
7642.670706487398
 30
0.0
  0
POINT
  5
3E16B
330
380ED
100
AcDbEntity
  8
Defpoints
  6
Continuous
 62
     0
440
 16777216
370
    35
100
AcDbPoint
 10
2848.450438798551
 20
7657.670706487398
 30
0.0
  0
ENDBLK
  5
380F8
330
380ED
100
AcDbEntity
  8
0
 48
0.5
370
    13
100
AcDbBlockEnd
  0
BLOCK
  5
38CE7
330
38CDD
100
AcDbEntity
  8
0
 48
0.5
370
    13
100
AcDbBlockBegin
  2
*D3
 70
     1
 10
0.0
 20
0.0
 30
0.0
  3
*D3
  1

  0
LINE
  5
3E12B
330
38CDD
100
AcDbEntity
  8
1-B_寸法
  6
Continuous
 62
     3
440
 16777216
370
    -2
100
AcDbLine
 10
3063.450438798551
 20
7657.6707064874
 30
0.0
 11
3076.450438798554
 21
7657.6707064874
 31
0.0
  0
LINE
  5
3E12C
330
38CDD
100
AcDbEntity
  8
1-B_寸法
  6
Continuous
 62
     3
440
 16777216
370
    -2
100
AcDbLine
 10
3063.450438798551
 20
7732.6707064874
 30
0.0
 11
3076.450438798554
 21
7732.6707064874
 31
0.0
  0
LINE
  5
3E12D
330
38CDD
100
AcDbEntity
  8
1-B_寸法
  6
Continuous
 62
     3
440
 16777216
370
    -2
100
AcDbLine
 10
3075.450438798553
 20
7658.6707064874
 30
0.0
 11
3075.450438798553
 21
7731.670706487399
 31
0.0
  0
INSERT
  5
3E12E
330
38CDD
100
AcDbEntity
  8
1-B_寸法
  6
Continuous
 62
     3
440
 16777216
370
    -2
100
AcDbBlockReference
  2
_Dot
 10
3075.450438798553
 20
7657.6707064874
 30
0.0
 50
270.0
  0
INSERT
  5
3E12F
330
38CDD
100
AcDbEntity
  8
1-B_寸法
  6
Continuous
 62
     3
440
 16777216
370
    -2
100
AcDbBlockReference
  2
_Dot
 10
3075.450438798553
 20
7732.6707064874
 30
0.0
 50
90.0
  0
MTEXT
  5
3E130
330
38CDD
100
AcDbEntity
  8
1-B_寸法
  6
Continuous
 62
     3
440
 16777216
370
    18
100
AcDbMText
 10
3073.325438798552
 20
7695.170706487401
 30
0.0
 40
3.0
 41
0.0
 46
0.0
 71
     5
 72
     1
  1
75
  7
明朝
 11
0.0000000000000001
 21
1.0
 31
0.0
 73
     1
 44
1.0
  0
POINT
  5
3E131
330
38CDD
100
AcDbEntity
  8
Defpoints
  6
Continuous
 62
     0
440
 16777216
370
    35
100
AcDbPoint
 10
3060.450438798551
 20
7657.6707064874
 30
0.0
  0
POINT
  5
3E132
330
38CDD
100
AcDbEntity
  8
Defpoints
  6
Continuous
 62
     0
440
 16777216
370
    35
100
AcDbPoint
 10
3060.450438798551
 20
7732.6707064874
 30
0.0
  0
POINT
  5
3E133
330
38CDD
100
AcDbEntity
  8
Defpoints
  6
Continuous
 62
     0
440
 16777216
370
    35
100
AcDbPoint
 10
3075.450438798553
 20
7732.6707064874
 30
0.0
  0
ENDBLK
  5
38CE8
330
38CDD
100
AcDbEntity
  8
0
 48
0.5
370
    13
100
AcDbBlockEnd
  0
BLOCK
  5
38D0B
330
38D01
100
AcDbEntity
  8
0
 48
0.5
370
    13
100
AcDbBlockBegin
  2
*D4
 70
     1
 10
0.0
 20
0.0
 30
0.0
  3
*D4
  1

  0
LINE
  5
3E122
330
38D01
100
AcDbEntity
  8
1-B_寸法
  6
Continuous
 62
     3
440
 16777216
370
    -2
100
AcDbLine
 10
3087.449885217513
 20
7670.1707064874
 30
0.0
 11
3081.950438798552
 21
7670.1707064874
 31
0.0
  0
LINE
  5
3E123
330
38D01
100
AcDbEntity
  8
1-B_寸法
  6
Continuous
 62
     3
440
 16777216
370
    -2
100
AcDbLine
 10
3087.449885217513
 20
7694.170706487399
 30
0.0
 11
3081.950438798552
 21
7694.170706487399
 31
0.0
  0
LINE
  5
3E124
330
38D01
100
AcDbEntity
  8
1-B_寸法
  6
Continuous
 62
     3
440
 16777216
370
    -2
100
AcDbLine
 10
3082.950438798552
 20
7671.170706487401
 30
0.0
 11
3082.950438798552
 21
7693.1707064874
 31
0.0
  0
INSERT
  5
3E125
330
38D01
100
AcDbEntity
  8
1-B_寸法
  6
Continuous
 62
     3
440
 16777216
370
    -2
100
AcDbBlockReference
  2
_Dot
 10
3082.950438798552
 20
7670.1707064874
 30
0.0
 50
270.0
  0
INSERT
  5
3E126
330
38D01
100
AcDbEntity
  8
1-B_寸法
  6
Continuous
 62
     3
440
 16777216
370
    -2
100
AcDbBlockReference
  2
_Dot
 10
3082.950438798552
 20
7694.170706487399
 30
0.0
 50
90.0
  0
MTEXT
  5
3E127
330
38D01
100
AcDbEntity
  8
1-B_寸法
  6
Continuous
 62
     3
440
 16777216
370
    18
100
AcDbMText
 10
3080.825438798551
 20
7682.170706487401
 30
0.0
 40
3.0
 41
0.0
 46
0.0
 71
     5
 72
     1
  1
24
  7
明朝
 11
0.0000000000000001
 21
1.0
 31
0.0
 73
     1
 44
1.0
  0
POINT
  5
3E128
330
38D01
100
AcDbEntity
  8
Defpoints
  6
Continuous
 62
     0
440
 16777216
370
    35
100
AcDbPoint
 10
3090.449885217513
 20
7670.1707064874
 30
0.0
  0
POINT
  5
3E129
330
38D01
100
AcDbEntity
  8
Defpoints
  6
Continuous
 62
     0
440
 16777216
370
    35
100
AcDbPoint
 10
3090.449885217513
 20
7694.170706487399
 30
0.0
  0
POINT
  5
3E12A
330
38D01
100
AcDbEntity
  8
Defpoints
  6
Continuous
 62
     0
440
 16777216
370
    35
100
AcDbPoint
 10
3082.950438798552
 20
7694.170706487399
 30
0.0
  0
ENDBLK
  5
38D0C
330
38D01
100
AcDbEntity
  8
0
 48
0.5
370
    13
100
AcDbBlockEnd
  0
BLOCK
  5
38D17
330
38D0D
100
AcDbEntity
  8
0
 48
0.5
370
    13
100
AcDbBlockBegin
  2
*D5
 70
     1
 10
0.0
 20
0.0
 30
0.0
  3
*D5
  1

  0
LINE
  5
3E119
330
38D0D
100
AcDbEntity
  8
1-B_寸法
  6
Continuous
 62
     3
440
 16777216
370
    -2
100
AcDbLine
 10
3087.449885217513
 20
7670.1707064874
 30
0.0
 11
3081.950438798552
 21
7670.1707064874
 31
0.0
  0
LINE
  5
3E11A
330
38D0D
100
AcDbEntity
  8
1-B_寸法
  6
Continuous
 62
     3
440
 16777216
370
    -2
100
AcDbLine
 10
3087.449885217513
 20
7657.6707064874
 30
0.0
 11
3081.950438798552
 21
7657.6707064874
 31
0.0
  0
LINE
  5
3E11B
330
38D0D
100
AcDbEntity
  8
1-B_寸法
  6
Continuous
 62
     3
440
 16777216
370
    -2
100
AcDbLine
 10
3082.950438798552
 20
7669.170706487399
 30
0.0
 11
3082.950438798552
 21
7658.6707064874
 31
0.0
  0
INSERT
  5
3E11C
330
38D0D
100
AcDbEntity
  8
1-B_寸法
  6
Continuous
 62
     3
440
 16777216
370
    -2
100
AcDbBlockReference
  2
_Dot
 10
3082.950438798552
 20
7670.1707064874
 30
0.0
 50
90.0
  0
INSERT
  5
3E11D
330
38D0D
100
AcDbEntity
  8
1-B_寸法
  6
Continuous
 62
     3
440
 16777216
370
    -2
100
AcDbBlockReference
  2
_Dot
 10
3082.950438798552
 20
7657.6707064874
 30
0.0
 50
270.0
  0
MTEXT
  5
3E11E
330
38D0D
100
AcDbEntity
  8
1-B_寸法
  6
Continuous
 62
     3
440
 16777216
370
    18
100
AcDbMText
 10
3080.825438798551
 20
7663.9207064874
 30
0.0
 40
3.0
 41
0.0
 46
0.0
 71
     5
 72
     1
  1
12.5
  7
明朝
 11
0.0000000000000001
 21
1.0
 31
0.0
 73
     1
 44
1.0
  0
POINT
  5
3E11F
330
38D0D
100
AcDbEntity
  8
Defpoints
  6
Continuous
 62
     0
440
 16777216
370
    35
100
AcDbPoint
 10
3090.449885217513
 20
7670.1707064874
 30
0.0
  0
POINT
  5
3E120
330
38D0D
100
AcDbEntity
  8
Defpoints
  6
Continuous
 62
     0
440
 16777216
370
    35
100
AcDbPoint
 10
3090.449885217513
 20
7657.6707064874
 30
0.0
  0
POINT
  5
3E121
330
38D0D
100
AcDbEntity
  8
Defpoints
  6
Continuous
 62
     0
440
 16777216
370
    35
100
AcDbPoint
 10
3082.950438798552
 20
7657.6707064874
 30
0.0
  0
ENDBLK
  5
38D18
330
38D0D
100
AcDbEntity
  8
0
 48
0.5
370
    13
100
AcDbBlockEnd
  0
BLOCK
  5
38D2F
330
38D25
100
AcDbEntity
  8
0
 48
0.5
370
    13
100
AcDbBlockBegin
  2
*D6
 70
     1
 10
0.0
 20
0.0
 30
0.0
  3
*D6
  1

  0
LINE
  5
3E110
330
38D25
100
AcDbEntity
  8
1-B_寸法
  6
Continuous
 62
     3
440
 16777216
370
    -2
100
AcDbLine
 10
3063.450438798551
 20
7651.6707064874
 30
0.0
 11
3076.450438798554
 21
7651.6707064874
 31
0.0
  0
LINE
  5
3E111
330
38D25
100
AcDbEntity
  8
1-B_寸法
  6
Continuous
 62
     3
440
 16777216
370
    -2
100
AcDbLine
 10
3087.449885217513
 20
7657.6707064874
 30
0.0
 11
3074.450438798554
 21
7657.6707064874
 31
0.0
  0
LINE
  5
3E112
330
38D25
100
AcDbEntity
  8
1-B_寸法
  6
Continuous
 62
     3
440
 16777216
370
    -2
100
AcDbLine
 10
3075.450438798553
 20
7652.670706487398
 30
0.0
 11
3075.450438798553
 21
7656.6707064874
 31
0.0
  0
INSERT
  5
3E113
330
38D25
100
AcDbEntity
  8
1-B_寸法
  6
Continuous
 62
     3
440
 16777216
370
    -2
100
AcDbBlockReference
  2
_Dot
 10
3075.450438798553
 20
7651.6707064874
 30
0.0
 50
270.0
  0
INSERT
  5
3E114
330
38D25
100
AcDbEntity
  8
1-B_寸法
  6
Continuous
 62
     3
440
 16777216
370
    -2
100
AcDbBlockReference
  2
_Dot
 10
3075.450438798553
 20
7657.6707064874
 30
0.0
 50
90.0
  0
MTEXT
  5
3E115
330
38D25
100
AcDbEntity
  8
1-B_寸法
  6
Continuous
 62
     3
440
 16777216
370
    18
100
AcDbMText
 10
3073.325438798552
 20
7654.6707064874
 30
0.0
 40
3.0
 41
0.0
 46
0.0
 71
     5
 72
     1
  1
6
  7
明朝
 11
0.0000000000000001
 21
1.0
 31
0.0
 73
     1
 44
1.0
  0
POINT
  5
3E116
330
38D25
100
AcDbEntity
  8
Defpoints
  6
Continuous
 62
     0
440
 16777216
370
    35
100
AcDbPoint
 10
3060.450438798551
 20
7651.6707064874
 30
0.0
  0
POINT
  5
3E117
330
38D25
100
AcDbEntity
  8
Defpoints
  6
Continuous
 62
     0
440
 16777216
370
    35
100
AcDbPoint
 10
3090.449885217513
 20
7657.6707064874
 30
0.0
  0
POINT
  5
3E118
330
38D25
100
AcDbEntity
  8
Defpoints
  6
Continuous
 62
     0
440
 16777216
370
    35
100
AcDbPoint
 10
3075.450438798553
 20
7657.6707064874
 30
0.0
  0
ENDBLK
  5
38D30
330
38D25
100
AcDbEntity
  8
0
 48
0.5
370
    13
100
AcDbBlockEnd
  0
BLOCK
  5
38D3B
330
38D31
100
AcDbEntity
  8
0
 48
0.5
370
    13
100
AcDbBlockBegin
  2
*D7
 70
     1
 10
0.0
 20
0.0
 30
0.0
  3
*D7
  1

  0
LINE
  5
3E107
330
38D31
100
AcDbEntity
  8
1-B_寸法
  6
Continuous
 62
     3
440
 16777216
370
    -2
100
AcDbLine
 10
3063.450438798551
 20
7642.670706487399
 30
0.0
 11
3068.950438798552
 21
7642.670706487399
 31
0.0
  0
LINE
  5
3E108
330
38D31
100
AcDbEntity
  8
1-B_寸法
  6
Continuous
 62
     3
440
 16777216
370
    -2
100
AcDbLine
 10
3063.450438798551
 20
7592.6707064874
 30
0.0
 11
3068.950438798552
 21
7592.6707064874
 31
0.0
  0
LINE
  5
3E109
330
38D31
100
AcDbEntity
  8
1-B_寸法
  6
Continuous
 62
     3
440
 16777216
370
    -2
100
AcDbLine
 10
3067.950438798552
 20
7641.6707064874
 30
0.0
 11
3067.950438798552
 21
7593.6707064874
 31
0.0
  0
INSERT
  5
3E10A
330
38D31
100
AcDbEntity
  8
1-B_寸法
  6
Continuous
 62
     3
440
 16777216
370
    -2
100
AcDbBlockReference
  2
_Dot
 10
3067.950438798552
 20
7642.670706487399
 30
0.0
 50
90.0
  0
INSERT
  5
3E10B
330
38D31
100
AcDbEntity
  8
1-B_寸法
  6
Continuous
 62
     3
440
 16777216
370
    -2
100
AcDbBlockReference
  2
_Dot
 10
3067.950438798552
 20
7592.6707064874
 30
0.0
 50
270.0
  0
MTEXT
  5
3E10C
330
38D31
100
AcDbEntity
  8
1-B_寸法
  6
Continuous
 62
     3
440
 16777216
370
    18
100
AcDbMText
 10
3065.825438798551
 20
7617.670706487401
 30
0.0
 40
3.0
 41
0.0
 46
0.0
 71
     5
 72
     1
  1
50
  7
明朝
 11
0.0000000000000001
 21
1.0
 31
0.0
 73
     1
 44
1.0
  0
POINT
  5
3E10D
330
38D31
100
AcDbEntity
  8
Defpoints
  6
Continuous
 62
     0
440
 16777216
370
    35
100
AcDbPoint
 10
3060.450438798551
 20
7642.670706487399
 30
0.0
  0
POINT
  5
3E10E
330
38D31
100
AcDbEntity
  8
Defpoints
  6
Continuous
 62
     0
440
 16777216
370
    35
100
AcDbPoint
 10
3060.450438798551
 20
7592.6707064874
 30
0.0
  0
POINT
  5
3E10F
330
38D31
100
AcDbEntity
  8
Defpoints
  6
Continuous
 62
     0
440
 16777216
370
    35
100
AcDbPoint
 10
3067.950438798552
 20
7592.6707064874
 30
0.0
  0
ENDBLK
  5
38D3C
330
38D31
100
AcDbEntity
  8
0
 48
0.5
370
    13
100
AcDbBlockEnd
  0
BLOCK
  5
38D47
330
38D3D
100
AcDbEntity
  8
0
 48
0.5
370
    13
100
AcDbBlockBegin
  2
*D8
 70
     1
 10
0.0
 20
0.0
 30
0.0
  3
*D8
  1

  0
LINE
  5
3E0FE
330
38D3D
100
AcDbEntity
  8
1-B_寸法
  6
Continuous
 62
     3
440
 16777216
370
    -2
100
AcDbLine
 10
3063.450438798551
 20
7651.6707064874
 30
0.0
 11
3076.450438798552
 21
7651.6707064874
 31
0.0
  0
LINE
  5
3E0FF
330
38D3D
100
AcDbEntity
  8
1-B_寸法
  6
Continuous
 62
     3
440
 16777216
370
    -2
100
AcDbLine
 10
3063.450438798551
 20
7592.6707064874
 30
0.0
 11
3076.450438798552
 21
7592.6707064874
 31
0.0
  0
LINE
  5
3E100
330
38D3D
100
AcDbEntity
  8
1-B_寸法
  6
Continuous
 62
     3
440
 16777216
370
    -2
100
AcDbLine
 10
3075.450438798553
 20
7650.670706487399
 30
0.0
 11
3075.450438798553
 21
7593.670706487398
 31
0.0
  0
INSERT
  5
3E101
330
38D3D
100
AcDbEntity
  8
1-B_寸法
  6
Continuous
 62
     3
440
 16777216
370
    -2
100
AcDbBlockReference
  2
_Dot
 10
3075.450438798553
 20
7651.6707064874
 30
0.0
 50
90.0
  0
INSERT
  5
3E102
330
38D3D
100
AcDbEntity
  8
1-B_寸法
  6
Continuous
 62
     3
440
 16777216
370
    -2
100
AcDbBlockReference
  2
_Dot
 10
3075.450438798553
 20
7592.6707064874
 30
0.0
 50
270.0
  0
MTEXT
  5
3E103
330
38D3D
100
AcDbEntity
  8
1-B_寸法
  6
Continuous
 62
     3
440
 16777216
370
    18
100
AcDbMText
 10
3073.325438798551
 20
7622.170706487399
 30
0.0
 40
3.0
 41
0.0
 46
0.0
 71
     5
 72
     1
  1
59
  7
明朝
 11
0.0000000000000001
 21
1.0
 31
0.0
 73
     1
 44
1.0
  0
POINT
  5
3E104
330
38D3D
100
AcDbEntity
  8
Defpoints
  6
Continuous
 62
     0
440
 16777216
370
    35
100
AcDbPoint
 10
3060.450438798551
 20
7651.6707064874
 30
0.0
  0
POINT
  5
3E105
330
38D3D
100
AcDbEntity
  8
Defpoints
  6
Continuous
 62
     0
440
 16777216
370
    35
100
AcDbPoint
 10
3060.450438798551
 20
7592.6707064874
 30
0.0
  0
POINT
  5
3E106
330
38D3D
100
AcDbEntity
  8
Defpoints
  6
Continuous
 62
     0
440
 16777216
370
    35
100
AcDbPoint
 10
3075.450438798553
 20
7592.6707064874
 30
0.0
  0
ENDBLK
  5
38D48
330
38D3D
100
AcDbEntity
  8
0
 48
0.5
370
    13
100
AcDbBlockEnd
  0
BLOCK
  5
38D53
330
38D49
100
AcDbEntity
  8
0
 48
0.5
370
    13
100
AcDbBlockBegin
  2
*D9
 70
     1
 10
0.0
 20
0.0
 30
0.0
  3
*D9
  1

  0
LINE
  5
3E0F5
330
38D49
100
AcDbEntity
  8
1-B_寸法
  6
Continuous
 62
     3
440
 16777216
370
    -2
100
AcDbLine
 10
3063.450438798551
 20
7804.59022767826
 30
0.0
 11
3083.950438798552
 21
7804.59022767826
 31
0.0
  0
LINE
  5
3E0F6
330
38D49
100
AcDbEntity
  8
1-B_寸法
  6
Continuous
 62
     3
440
 16777216
370
    -2
100
AcDbLine
 10
3063.450438798551
 20
7754.59022767826
 30
0.0
 11
3083.950438798552
 21
7754.59022767826
 31
0.0
  0
LINE
  5
3E0F7
330
38D49
100
AcDbEntity
  8
1-B_寸法
  6
Continuous
 62
     3
440
 16777216
370
    -2
100
AcDbLine
 10
3082.950438798552
 20
7803.59022767826
 30
0.0
 11
3082.950438798552
 21
7755.590227678259
 31
0.0
  0
INSERT
  5
3E0F8
330
38D49
100
AcDbEntity
  8
1-B_寸法
  6
Continuous
 62
     3
440
 16777216
370
    -2
100
AcDbBlockReference
  2
_Dot
 10
3082.950438798552
 20
7804.59022767826
 30
0.0
 50
90.0
  0
INSERT
  5
3E0F9
330
38D49
100
AcDbEntity
  8
1-B_寸法
  6
Continuous
 62
     3
440
 16777216
370
    -2
100
AcDbBlockReference
  2
_Dot
 10
3082.950438798552
 20
7754.59022767826
 30
0.0
 50
270.0
  0
MTEXT
  5
3E0FA
330
38D49
100
AcDbEntity
  8
1-B_寸法
  6
Continuous
 62
     3
440
 16777216
370
    18
100
AcDbMText
 10
3080.581783976216
 20
7779.59022767826
 30
0.0
 40
3.0
 41
0.0
 46
0.0
 71
     5
 72
     1
  1
φ50
  7
明朝
 11
0.0000000000000001
 21
1.0
 31
0.0
 73
     1
 44
1.0
  0
POINT
  5
3E0FB
330
38D49
100
AcDbEntity
  8
Defpoints
  6
Continuous
 62
     0
440
 16777216
370
    35
100
AcDbPoint
 10
3060.450438798551
 20
7804.59022767826
 30
0.0
  0
POINT
  5
3E0FC
330
38D49
100
AcDbEntity
  8
Defpoints
  6
Continuous
 62
     0
440
 16777216
370
    35
100
AcDbPoint
 10
3060.450438798551
 20
7754.59022767826
 30
0.0
  0
POINT
  5
3E0FD
330
38D49
100
AcDbEntity
  8
Defpoints
  6
Continuous
 62
     0
440
 16777216
370
    35
100
AcDbPoint
 10
3082.950438798552
 20
7754.59022767826
 30
0.0
  0
ENDBLK
  5
38D54
330
38D49
100
AcDbEntity
  8
0
 48
0.5
370
    13
100
AcDbBlockEnd
  0
BLOCK
  5
38D5F
330
38D55
100
AcDbEntity
  8
0
 48
0.5
370
    13
100
AcDbBlockBegin
  2
*D10
 70
     1
 10
0.0
 20
0.0
 30
0.0
  3
*D10
  1

  0
LINE
  5
3E0EC
330
38D55
100
AcDbEntity
  8
1-B_寸法
  6
Continuous
 62
     3
440
 16777216
370
    -2
100
AcDbLine
 10
3063.450438798551
 20
7800.590227678258
 30
0.0
 11
3076.450438798555
 21
7800.590227678258
 31
0.0
  0
LINE
  5
3E0ED
330
38D55
100
AcDbEntity
  8
1-B_寸法
  6
Continuous
 62
     3
440
 16777216
370
    -2
100
AcDbLine
 10
3063.450438798551
 20
7758.590227678261
 30
0.0
 11
3076.450438798555
 21
7758.590227678261
 31
0.0
  0
LINE
  5
3E0EE
330
38D55
100
AcDbEntity
  8
1-B_寸法
  6
Continuous
 62
     3
440
 16777216
370
    -2
100
AcDbLine
 10
3075.450438798555
 20
7799.590227678257
 30
0.0
 11
3075.450438798555
 21
7759.590227678261
 31
0.0
  0
INSERT
  5
3E0EF
330
38D55
100
AcDbEntity
  8
1-B_寸法
  6
Continuous
 62
     3
440
 16777216
370
    -2
100
AcDbBlockReference
  2
_Dot
 10
3075.450438798555
 20
7800.590227678258
 30
0.0
 50
90.0
  0
INSERT
  5
3E0F0
330
38D55
100
AcDbEntity
  8
1-B_寸法
  6
Continuous
 62
     3
440
 16777216
370
    -2
100
AcDbBlockReference
  2
_Dot
 10
3075.450438798555
 20
7758.590227678261
 30
0.0
 50
270.0
  0
MTEXT
  5
3E0F1
330
38D55
100
AcDbEntity
  8
1-B_寸法
  6
Continuous
 62
     3
440
 16777216
370
    18
100
AcDbMText
 10
3073.325438798554
 20
7779.61486594601
 30
0.0
 40
3.0
 41
0.0
 46
0.0
 71
     5
 72
     1
  1
42
  7
明朝
 11
0.0000000000000001
 21
1.0
 31
0.0
 73
     1
 44
1.0
  0
POINT
  5
3E0F2
330
38D55
100
AcDbEntity
  8
Defpoints
  6
Continuous
 62
     0
440
 16777216
370
    35
100
AcDbPoint
 10
3060.450438798551
 20
7800.590227678258
 30
0.0
  0
POINT
  5
3E0F3
330
38D55
100
AcDbEntity
  8
Defpoints
  6
Continuous
 62
     0
440
 16777216
370
    35
100
AcDbPoint
 10
3060.450438798551
 20
7758.590227678261
 30
0.0
  0
POINT
  5
3E0F4
330
38D55
100
AcDbEntity
  8
Defpoints
  6
Continuous
 62
     0
440
 16777216
370
    35
100
AcDbPoint
 10
3075.450438798555
 20
7758.590227678261
 30
0.0
  0
ENDBLK
  5
38D60
330
38D55
100
AcDbEntity
  8
0
 48
0.5
370
    13
100
AcDbBlockEnd
  0
BLOCK
  5
38D6B
330
38D61
100
AcDbEntity
  8
0
 48
0.5
370
    13
100
AcDbBlockBegin
  2
*D11
 70
     1
 10
0.0
 20
0.0
 30
0.0
  3
*D11
  1

  0
LINE
  5
3E0E3
330
38D61
100
AcDbEntity
  8
1-B_寸法
  6
Continuous
 62
     3
440
 16777216
370
    -2
100
AcDbLine
 10
3001.450438798551
 20
7792.590227678259
 30
0.0
 11
2995.550438798552
 21
7792.590227678259
 31
0.0
  0
LINE
  5
3E0E4
330
38D61
100
AcDbEntity
  8
1-B_寸法
  6
Continuous
 62
     3
440
 16777216
370
    -2
100
AcDbLine
 10
3001.450438798551
 20
7766.590227678259
 30
0.0
 11
2995.550438798552
 21
7766.590227678259
 31
0.0
  0
LINE
  5
3E0E5
330
38D61
100
AcDbEntity
  8
1-B_寸法
  6
Continuous
 62
     3
440
 16777216
370
    -2
100
AcDbLine
 10
2996.550438798552
 20
7791.590227678259
 30
0.0
 11
2996.550438798552
 21
7767.590227678259
 31
0.0
  0
INSERT
  5
3E0E6
330
38D61
100
AcDbEntity
  8
1-B_寸法
  6
Continuous
 62
     3
440
 16777216
370
    -2
100
AcDbBlockReference
  2
_Dot
 10
2996.550438798552
 20
7792.590227678259
 30
0.0
 50
90.0
  0
INSERT
  5
3E0E7
330
38D61
100
AcDbEntity
  8
1-B_寸法
  6
Continuous
 62
     3
440
 16777216
370
    -2
100
AcDbBlockReference
  2
_Dot
 10
2996.550438798552
 20
7766.590227678259
 30
0.0
 50
270.0
  0
MTEXT
  5
3E0E8
330
38D61
100
AcDbEntity
  8
1-B_寸法
  6
Continuous
 62
     3
440
 16777216
370
    18
100
AcDbMText
 10
2994.425438798551
 20
7779.590227678261
 30
0.0
 40
3.0
 41
0.0
 46
0.0
 71
     5
 72
     1
  1
26
  7
明朝
 11
0.0000000000000001
 21
1.0
 31
0.0
 73
     1
 44
1.0
  0
POINT
  5
3E0E9
330
38D61
100
AcDbEntity
  8
Defpoints
  6
Continuous
 62
     0
440
 16777216
370
    35
100
AcDbPoint
 10
3004.450438798551
 20
7792.590227678259
 30
0.0
  0
POINT
  5
3E0EA
330
38D61
100
AcDbEntity
  8
Defpoints
  6
Continuous
 62
     0
440
 16777216
370
    35
100
AcDbPoint
 10
3004.450438798551
 20
7766.590227678259
 30
0.0
  0
POINT
  5
3E0EB
330
38D61
100
AcDbEntity
  8
Defpoints
  6
Continuous
 62
     0
440
 16777216
370
    35
100
AcDbPoint
 10
2996.550438798552
 20
7766.590227678259
 30
0.0
  0
ENDBLK
  5
38D6C
330
38D61
100
AcDbEntity
  8
0
 48
0.5
370
    13
100
AcDbBlockEnd
  0
BLOCK
  5
38D77
330
38D6D
100
AcDbEntity
  8
0
 48
0.5
370
    13
100
AcDbBlockBegin
  2
*D12
 70
     1
 10
0.0
 20
0.0
 30
0.0
  3
*D12
  1

  0
LINE
  5
3E0DA
330
38D6D
100
AcDbEntity
  8
1-B_寸法
  6
Continuous
 62
     3
440
 16777216
370
    -2
100
AcDbLine
 10
3010.450438798551
 20
7735.6707064874
 30
0.0
 11
3010.450438798551
 21
7741.170706487399
 31
0.0
  0
LINE
  5
3E0DB
330
38D6D
100
AcDbEntity
  8
1-B_寸法
  6
Continuous
 62
     3
440
 16777216
370
    -2
100
AcDbLine
 10
3035.45043879855
 20
7735.6707064874
 30
0.0
 11
3035.45043879855
 21
7741.170706487399
 31
0.0
  0
LINE
  5
3E0DC
330
38D6D
100
AcDbEntity
  8
1-B_寸法
  6
Continuous
 62
     3
440
 16777216
370
    -2
100
AcDbLine
 10
3011.450438798551
 20
7740.170706487401
 30
0.0
 11
3034.45043879855
 21
7740.170706487401
 31
0.0
  0
INSERT
  5
3E0DD
330
38D6D
100
AcDbEntity
  8
1-B_寸法
  6
Continuous
 62
     3
440
 16777216
370
    -2
100
AcDbBlockReference
  2
_Dot
 10
3010.450438798551
 20
7740.170706487401
 30
0.0
 50
180.0
  0
INSERT
  5
3E0DE
330
38D6D
100
AcDbEntity
  8
1-B_寸法
  6
Continuous
 62
     3
440
 16777216
370
    -2
100
AcDbBlockReference
  2
_Dot
 10
3035.45043879855
 20
7740.170706487401
 30
0.0
  0
MTEXT
  5
3E0DF
330
38D6D
100
AcDbEntity
  8
1-B_寸法
  6
Continuous
 62
     3
440
 16777216
370
    18
100
AcDbMText
 10
3022.950438798551
 20
7742.2957064874
 30
0.0
 40
3.0
 41
0.0
 46
0.0
 71
     5
 72
     1
  1
25
  7
明朝
 73
     1
 44
1.0
  0
POINT
  5
3E0E0
330
38D6D
100
AcDbEntity
  8
Defpoints
  6
Continuous
 62
     0
440
 16777216
370
    35
100
AcDbPoint
 10
3010.450438798551
 20
7732.6707064874
 30
0.0
  0
POINT
  5
3E0E1
330
38D6D
100
AcDbEntity
  8
Defpoints
  6
Continuous
 62
     0
440
 16777216
370
    35
100
AcDbPoint
 10
3035.45043879855
 20
7732.6707064874
 30
0.0
  0
POINT
  5
3E0E2
330
38D6D
100
AcDbEntity
  8
Defpoints
  6
Continuous
 62
     0
440
 16777216
370
    35
100
AcDbPoint
 10
3035.45043879855
 20
7740.170706487401
 30
0.0
  0
ENDBLK
  5
38D78
330
38D6D
100
AcDbEntity
  8
0
 48
0.5
370
    13
100
AcDbBlockEnd
  0
BLOCK
  5
38D8F
330
38D85
100
AcDbEntity
  8
0
 48
0.5
370
    13
100
AcDbBlockBegin
  2
*D13
 70
     1
 10
0.0
 20
0.0
 30
0.0
  3
*D13
  1

  0
LINE
  5
3E0D1
330
38D85
100
AcDbEntity
  8
1-B_寸法
  6
Continuous
 62
     3
440
 16777216
370
    -2
100
AcDbLine
 10
3094.449885217512
 20
7735.6707064874
 30
0.0
 11
3094.449885217512
 21
7741.170706487401
 31
0.0
  0
LINE
  5
3E0D2
330
38D85
100
AcDbEntity
  8
1-B_寸法
  6
Continuous
 62
     3
440
 16777216
370
    -2
100
AcDbLine
 10
3136.449885217512
 20
7735.670706487401
 30
0.0
 11
3136.449885217512
 21
7741.170706487401
 31
0.0
  0
LINE
  5
3E0D3
330
38D85
100
AcDbEntity
  8
1-B_寸法
  6
Continuous
 62
     3
440
 16777216
370
    -2
100
AcDbLine
 10
3095.449885217512
 20
7740.170706487401
 30
0.0
 11
3135.449885217512
 21
7740.170706487401
 31
0.0
  0
INSERT
  5
3E0D4
330
38D85
100
AcDbEntity
  8
1-B_寸法
  6
Continuous
 62
     3
440
 16777216
370
    -2
100
AcDbBlockReference
  2
_Dot
 10
3094.449885217512
 20
7740.170706487401
 30
0.0
 50
180.0
  0
INSERT
  5
3E0D5
330
38D85
100
AcDbEntity
  8
1-B_寸法
  6
Continuous
 62
     3
440
 16777216
370
    -2
100
AcDbBlockReference
  2
_Dot
 10
3136.449885217512
 20
7740.170706487401
 30
0.0
  0
MTEXT
  5
3E0D6
330
38D85
100
AcDbEntity
  8
1-B_寸法
  6
Continuous
 62
     3
440
 16777216
370
    18
100
AcDbMText
 10
3115.449885217509
 20
7742.295706487401
 30
0.0
 40
3.0
 41
0.0
 46
0.0
 71
     5
 72
     1
  1
42
  7
明朝
 73
     1
 44
1.0
  0
POINT
  5
3E0D7
330
38D85
100
AcDbEntity
  8
Defpoints
  6
Continuous
 62
     0
440
 16777216
370
    35
100
AcDbPoint
 10
3094.449885217512
 20
7732.6707064874
 30
0.0
  0
POINT
  5
3E0D8
330
38D85
100
AcDbEntity
  8
Defpoints
  6
Continuous
 62
     0
440
 16777216
370
    35
100
AcDbPoint
 10
3136.449885217512
 20
7732.670706487401
 30
0.0
  0
POINT
  5
3E0D9
330
38D85
100
AcDbEntity
  8
Defpoints
  6
Continuous
 62
     0
440
 16777216
370
    35
100
AcDbPoint
 10
3136.449885217512
 20
7740.170706487401
 30
0.0
  0
ENDBLK
  5
38D90
330
38D85
100
AcDbEntity
  8
0
 48
0.5
370
    13
100
AcDbBlockEnd
  0
BLOCK
  5
38D9B
330
38D91
100
AcDbEntity
  8
0
 48
0.5
370
    13
100
AcDbBlockBegin
  2
*D14
 70
     1
 10
0.0
 20
0.0
 30
0.0
  3
*D14
  1

  0
LINE
  5
3E0C8
330
38D91
100
AcDbEntity
  8
1-B_寸法
  6
Continuous
 62
     3
440
 16777216
370
    -2
100
AcDbLine
 10
3102.449885217513
 20
7701.1707064874
 30
0.0
 11
3102.449885217513
 21
7710.1707064874
 31
0.0
  0
LINE
  5
3E0C9
330
38D91
100
AcDbEntity
  8
1-B_寸法
  6
Continuous
 62
     3
440
 16777216
370
    -2
100
AcDbLine
 10
3128.451023502753
 20
7701.170706325438
 30
0.0
 11
3128.451023502753
 21
7710.1707064874
 31
0.0
  0
LINE
  5
3E0CA
330
38D91
100
AcDbEntity
  8
1-B_寸法
  6
Continuous
 62
     3
440
 16777216
370
    -2
100
AcDbLine
 10
3103.449885217513
 20
7709.1707064874
 30
0.0
 11
3127.451023502753
 21
7709.1707064874
 31
0.0
  0
INSERT
  5
3E0CB
330
38D91
100
AcDbEntity
  8
1-B_寸法
  6
Continuous
 62
     3
440
 16777216
370
    -2
100
AcDbBlockReference
  2
_Dot
 10
3102.449885217513
 20
7709.1707064874
 30
0.0
 50
180.0
  0
INSERT
  5
3E0CC
330
38D91
100
AcDbEntity
  8
1-B_寸法
  6
Continuous
 62
     3
440
 16777216
370
    -2
100
AcDbBlockReference
  2
_Dot
 10
3128.451023502753
 20
7709.1707064874
 30
0.0
  0
MTEXT
  5
3E0CD
330
38D91
100
AcDbEntity
  8
1-B_寸法
  6
Continuous
 62
     3
440
 16777216
370
    18
100
AcDbMText
 10
3115.450454360133
 20
7711.295706487399
 30
0.0
 40
3.0
 41
0.0
 46
0.0
 71
     5
 72
     1
  1
26
  7
明朝
 73
     1
 44
1.0
  0
POINT
  5
3E0CE
330
38D91
100
AcDbEntity
  8
Defpoints
  6
Continuous
 62
     0
440
 16777216
370
    35
100
AcDbPoint
 10
3102.449885217513
 20
7698.1707064874
 30
0.0
  0
POINT
  5
3E0CF
330
38D91
100
AcDbEntity
  8
Defpoints
  6
Continuous
 62
     0
440
 16777216
370
    35
100
AcDbPoint
 10
3128.451023502753
 20
7698.170706325438
 30
0.0
  0
POINT
  5
3E0D0
330
38D91
100
AcDbEntity
  8
Defpoints
  6
Continuous
 62
     0
440
 16777216
370
    35
100
AcDbPoint
 10
3128.451023502753
 20
7709.1707064874
 30
0.0
  0
ENDBLK
  5
38D9C
330
38D91
100
AcDbEntity
  8
0
 48
0.5
370
    13
100
AcDbBlockEnd
  0
BLOCK
  5
38DA7
330
38D9D
100
AcDbEntity
  8
0
 48
0.5
370
    13
100
AcDbBlockBegin
  2
*D15
 70
     1
 10
0.0
 20
0.0
 30
0.0
  3
*D15
  1

  0
LINE
  5
3E0BF
330
38D9D
100
AcDbEntity
  8
1-B_寸法
  6
Continuous
 62
     3
440
 16777216
370
    -2
100
AcDbLine
 10
3140.449885217513
 20
7603.1707064874
 30
0.0
 11
3140.449885217513
 21
7608.670706487401
 31
0.0
  0
LINE
  5
3E0C0
330
38D9D
100
AcDbEntity
  8
1-B_寸法
  6
Continuous
 62
     3
440
 16777216
370
    -2
100
AcDbLine
 10
3090.449885217513
 20
7603.1707064874
 30
0.0
 11
3090.449885217513
 21
7608.670706487401
 31
0.0
  0
LINE
  5
3E0C1
330
38D9D
100
AcDbEntity
  8
1-B_寸法
  6
Continuous
 62
     3
440
 16777216
370
    -2
100
AcDbLine
 10
3139.449885217513
 20
7607.6707064874
 30
0.0
 11
3091.449885217512
 21
7607.6707064874
 31
0.0
  0
INSERT
  5
3E0C2
330
38D9D
100
AcDbEntity
  8
1-B_寸法
  6
Continuous
 62
     3
440
 16777216
370
    -2
100
AcDbBlockReference
  2
_Dot
 10
3140.449885217513
 20
7607.6707064874
 30
0.0
  0
INSERT
  5
3E0C3
330
38D9D
100
AcDbEntity
  8
1-B_寸法
  6
Continuous
 62
     3
440
 16777216
370
    -2
100
AcDbBlockReference
  2
_Dot
 10
3090.449885217513
 20
7607.6707064874
 30
0.0
 50
180.0
  0
MTEXT
  5
3E0C4
330
38D9D
100
AcDbEntity
  8
1-B_寸法
  6
Continuous
 62
     3
440
 16777216
370
    18
100
AcDbMText
 10
3115.449885217512
 20
7610.039361309735
 30
0.0
 40
3.0
 41
0.0
 46
0.0
 71
     5
 72
     1
  1
φ50
  7
明朝
 73
     1
 44
1.0
  0
POINT
  5
3E0C5
330
38D9D
100
AcDbEntity
  8
Defpoints
  6
Continuous
 62
     0
440
 16777216
370
    35
100
AcDbPoint
 10
3140.449885217513
 20
7600.1707064874
 30
0.0
  0
POINT
  5
3E0C6
330
38D9D
100
AcDbEntity
  8
Defpoints
  6
Continuous
 62
     0
440
 16777216
370
    35
100
AcDbPoint
 10
3090.449885217513
 20
7600.1707064874
 30
0.0
  0
POINT
  5
3E0C7
330
38D9D
100
AcDbEntity
  8
Defpoints
  6
Continuous
 62
     0
440
 16777216
370
    35
100
AcDbPoint
 10
3090.449885217513
 20
7607.6707064874
 30
0.0
  0
ENDBLK
  5
38DA8
330
38D9D
100
AcDbEntity
  8
0
 48
0.5
370
    13
100
AcDbBlockEnd
  0
BLOCK
  5
39A64
330
39A5A
100
AcDbEntity
  8
0
 48
0.5
370
    13
100
AcDbBlockBegin
  2
*D16
 70
     1
 10
0.0
 20
0.0
 30
0.0
  3
*D16
  1

  0
LINE
  5
3E0AD
330
39A5A
100
AcDbEntity
  8
1-B_寸法
  6
Continuous
 62
     3
440
 16777216
370
    -2
100
AcDbLine
 10
3001.450438798551
 20
7670.170706415844
 30
0.0
 11
2995.550438798552
 21
7670.170706415844
 31
0.0
  0
LINE
  5
3E0AE
330
39A5A
100
AcDbEntity
  8
1-B_寸法
  6
Continuous
 62
     3
440
 16777216
370
    -2
100
AcDbLine
 10
3001.450438798551
 20
7694.170706487399
 30
0.0
 11
2995.550438798552
 21
7694.170706487399
 31
0.0
  0
LINE
  5
3E0AF
330
39A5A
100
AcDbEntity
  8
1-B_寸法
  6
Continuous
 62
     3
440
 16777216
370
    -2
100
AcDbLine
 10
2996.550438798552
 20
7671.170706415844
 30
0.0
 11
2996.550438798552
 21
7693.1707064874
 31
0.0
  0
INSERT
  5
3E0B0
330
39A5A
100
AcDbEntity
  8
1-B_寸法
  6
Continuous
 62
     3
440
 16777216
370
    -2
100
AcDbBlockReference
  2
_Dot
 10
2996.550438798552
 20
7670.170706415844
 30
0.0
 50
270.0
  0
INSERT
  5
3E0B1
330
39A5A
100
AcDbEntity
  8
1-B_寸法
  6
Continuous
 62
     3
440
 16777216
370
    -2
100
AcDbBlockReference
  2
_Dot
 10
2996.550438798552
 20
7694.170706487399
 30
0.0
 50
90.0
  0
MTEXT
  5
3E0B2
330
39A5A
100
AcDbEntity
  8
1-B_寸法
  6
Continuous
 62
     3
440
 16777216
370
    18
100
AcDbMText
 10
2994.425438798551
 20
7682.170706487401
 30
0.0
 40
3.0
 41
0.0
 46
0.0
 71
     5
 72
     1
  1
24
  7
明朝
 11
0.0000000000000001
 21
1.0
 31
0.0
 73
     1
 44
1.0
  0
POINT
  5
3E0B3
330
39A5A
100
AcDbEntity
  8
Defpoints
  6
Continuous
 62
     0
440
 16777216
370
    35
100
AcDbPoint
 10
3004.450438798551
 20
7670.170706415844
 30
0.0
  0
POINT
  5
3E0B4
330
39A5A
100
AcDbEntity
  8
Defpoints
  6
Continuous
 62
     0
440
 16777216
370
    35
100
AcDbPoint
 10
3004.450438798551
 20
7694.170706487399
 30
0.0
  0
POINT
  5
3E0B5
330
39A5A
100
AcDbEntity
  8
Defpoints
  6
Continuous
 62
     0
440
 16777216
370
    35
100
AcDbPoint
 10
2996.550438798552
 20
7694.170706487399
 30
0.0
  0
ENDBLK
  5
39A65
330
39A5A
100
AcDbEntity
  8
0
 48
0.5
370
    13
100
AcDbBlockEnd
  0
BLOCK
  5
39A70
330
39A66
100
AcDbEntity
  8
0
 48
0.5
370
    13
100
AcDbBlockBegin
  2
*D17
 70
     1
 10
0.0
 20
0.0
 30
0.0
  3
*D17
  1

  0
LINE
  5
3E0B6
330
39A66
100
AcDbEntity
  8
1-B_寸法
  6
Continuous
 62
     3
440
 16777216
370
    -2
100
AcDbLine
 10
3001.450438798551
 20
7670.170706340712
 30
0.0
 11
2995.550438798552
 21
7670.170706340712
 31
0.0
  0
LINE
  5
3E0B7
330
39A66
100
AcDbEntity
  8
1-B_寸法
  6
Continuous
 62
     3
440
 16777216
370
    -2
100
AcDbLine
 10
3001.450438798551
 20
7657.6707064874
 30
0.0
 11
2995.550438798552
 21
7657.6707064874
 31
0.0
  0
LINE
  5
3E0B8
330
39A66
100
AcDbEntity
  8
1-B_寸法
  6
Continuous
 62
     3
440
 16777216
370
    -2
100
AcDbLine
 10
2996.550438798552
 20
7669.170706340712
 30
0.0
 11
2996.550438798552
 21
7658.6707064874
 31
0.0
  0
INSERT
  5
3E0B9
330
39A66
100
AcDbEntity
  8
1-B_寸法
  6
Continuous
 62
     3
440
 16777216
370
    -2
100
AcDbBlockReference
  2
_Dot
 10
2996.550438798552
 20
7670.170706340712
 30
0.0
 50
90.0
  0
INSERT
  5
3E0BA
330
39A66
100
AcDbEntity
  8
1-B_寸法
  6
Continuous
 62
     3
440
 16777216
370
    -2
100
AcDbBlockReference
  2
_Dot
 10
2996.550438798552
 20
7657.6707064874
 30
0.0
 50
270.0
  0
MTEXT
  5
3E0BB
330
39A66
100
AcDbEntity
  8
1-B_寸法
  6
Continuous
 62
     3
440
 16777216
370
    18
100
AcDbMText
 10
2994.425438798551
 20
7663.920706487401
 30
0.0
 40
3.0
 41
0.0
 46
0.0
 71
     5
 72
     1
  1
12.5
  7
明朝
 11
0.0000000000000001
 21
1.0
 31
0.0
 73
     1
 44
1.0
  0
POINT
  5
3E0BC
330
39A66
100
AcDbEntity
  8
Defpoints
  6
Continuous
 62
     0
440
 16777216
370
    35
100
AcDbPoint
 10
3004.450438798551
 20
7670.170706340712
 30
0.0
  0
POINT
  5
3E0BD
330
39A66
100
AcDbEntity
  8
Defpoints
  6
Continuous
 62
     0
440
 16777216
370
    35
100
AcDbPoint
 10
3004.450438798551
 20
7657.6707064874
 30
0.0
  0
POINT
  5
3E0BE
330
39A66
100
AcDbEntity
  8
Defpoints
  6
Continuous
 62
     0
440
 16777216
370
    35
100
AcDbPoint
 10
2996.550438798552
 20
7657.6707064874
 30
0.0
  0
ENDBLK
  5
39A71
330
39A66
100
AcDbEntity
  8
0
 48
0.5
370
    13
100
AcDbBlockEnd
  0
BLOCK
  5
3C244
330
3C23A
100
AcDbEntity
  8
0
 48
0.5
370
    18
100
AcDbBlockBegin
  2
*D18
 70
     1
 10
0.0
 20
0.0
 30
0.0
  3
*D18
  1

  0
LINE
  5
3E0A4
330
3C23A
100
AcDbEntity
  8
1-B_寸法
  6
Continuous
 62
     3
440
 16777216
370
    -2
100
AcDbLine
 10
3035.45043879855
 20
7735.6707064874
 30
0.0
 11
3035.45043879855
 21
7741.170706487399
 31
0.0
  0
LINE
  5
3E0A5
330
3C23A
100
AcDbEntity
  8
1-B_寸法
  6
Continuous
 62
     3
440
 16777216
370
    -2
100
AcDbLine
 10
3050.450438798551
 20
7735.6707064874
 30
0.0
 11
3050.450438798551
 21
7741.170706487399
 31
0.0
  0
LINE
  5
3E0A6
330
3C23A
100
AcDbEntity
  8
1-B_寸法
  6
Continuous
 62
     3
440
 16777216
370
    -2
100
AcDbLine
 10
3036.45043879855
 20
7740.170706487401
 30
0.0
 11
3049.450438798551
 21
7740.170706487401
 31
0.0
  0
INSERT
  5
3E0A7
330
3C23A
100
AcDbEntity
  8
1-B_寸法
  6
Continuous
 62
     3
440
 16777216
370
    -2
100
AcDbBlockReference
  2
_Dot
 10
3035.45043879855
 20
7740.170706487401
 30
0.0
 50
180.0
  0
INSERT
  5
3E0A8
330
3C23A
100
AcDbEntity
  8
1-B_寸法
  6
Continuous
 62
     3
440
 16777216
370
    -2
100
AcDbBlockReference
  2
_Dot
 10
3050.450438798551
 20
7740.170706487401
 30
0.0
  0
MTEXT
  5
3E0A9
330
3C23A
100
AcDbEntity
  8
1-B_寸法
  6
Continuous
 62
     3
440
 16777216
370
    18
100
AcDbMText
 10
3042.950438798551
 20
7742.2957064874
 30
0.0
 40
3.0
 41
0.0
 46
0.0
 71
     5
 72
     1
  1
15
  7
明朝
 73
     1
 44
1.0
  0
POINT
  5
3E0AA
330
3C23A
100
AcDbEntity
  8
Defpoints
  6
Continuous
 62
     0
440
 16777216
370
    35
100
AcDbPoint
 10
3035.45043879855
 20
7732.6707064874
 30
0.0
  0
POINT
  5
3E0AB
330
3C23A
100
AcDbEntity
  8
Defpoints
  6
Continuous
 62
     0
440
 16777216
370
    35
100
AcDbPoint
 10
3050.450438798551
 20
7732.6707064874
 30
0.0
  0
POINT
  5
3E0AC
330
3C23A
100
AcDbEntity
  8
Defpoints
  6
Continuous
 62
     0
440
 16777216
370
    35
100
AcDbPoint
 10
3050.450438798551
 20
7740.170706487401
 30
0.0
  0
ENDBLK
  5
3C245
330
3C23A
100
AcDbEntity
  8
0
 48
0.5
370
    18
100
AcDbBlockEnd
  0
ENDSEC
  0
SECTION
  2
ENTITIES
  0
LINE
  5
37F24
330
1E
100
AcDbEntity
  8
1-0_本体
  6
Continuous
 62
     7
 48
0.5
370
    35
100
AcDbLine
 10
2898.450438798551
 20
7592.670706487398
 30
0.0
 11
2848.450438798551
 21
7592.670706487398
 31
0.0
  0
ARC
  5
37F26
102
{ACAD_REACTORS
330
3E28F
102
}
330
1E
100
AcDbEntity
  8
1-0_本体
  6
Continuous
 62
     7
 48
0.5
370
    35
100
AcDbCircle
 10
2895.450438798551
 20
7639.670706487398
 30
0.0
 40
3.0
100
AcDbArc
 50
0.0
 51
90.0
  0
ARC
  5
37F27
102
{ACAD_REACTORS
330
3E28F
102
}
330
1E
100
AcDbEntity
  8
1-0_本体
  6
Continuous
 62
     7
 48
0.5
370
    35
100
AcDbCircle
 10
2851.450438798551
 20
7639.670706487398
 30
0.0
 40
3.0
100
AcDbArc
 50
90.0
 51
180.0
  0
LINE
  5
37F28
102
{ACAD_REACTORS
330
3E28F
102
}
330
1E
100
AcDbEntity
  8
1-0_本体
  6
Continuous
 62
     7
 48
0.5
370
    35
100
AcDbLine
 10
2895.450438798551
 20
7642.670706487398
 30
0.0
 11
2851.450438798551
 21
7642.670706487398
 31
0.0
  0
DIMENSION
  5
37F2F
330
1E
100
AcDbEntity
  8
1-B_寸法
  6
Continuous
 62
     3
 48
0.5
370
    18
100
AcDbDimension
280
     0
  2
*D2
 10
2848.450438798551
 20
7657.670706487398
 30
0.0
 11
2873.450438798551
 21
7657.670706487398
 31
0.0
 70
   160
  1
φ50
 71
     5
 42
50.0
 73
     0
 74
     0
 75
     0
  3
ISO-25
100
AcDbAlignedDimension
 13
2898.450438798551
 23
7642.670706487398
 33
0.0
 14
2848.450438798551
 24
7642.670706487398
 34
0.0
100
AcDbRotatedDimension
  0
LINE
  5
37F30
330
1E
100
AcDbEntity
  8
1-2_扉･枠
  6
想像線
 62
     4
 48
0.25
370
    18
100
AcDbLine
 10
2848.450438798551
 20
7602.670706487399
 30
0.0
 11
2808.450438798551
 21
7602.670706487399
 31
0.0
  0
LINE
  5
37F31
330
1E
100
AcDbEntity
  8
1-2_扉･枠
  6
想像線
 62
     4
 48
0.25
370
    18
100
AcDbLine
 10
2808.450438798551
 20
7602.670706487399
 30
0.0
 11
2808.450438798551
 21
7753.568312169313
 31
0.0
  0
LINE
  5
37F32
330
1E
100
AcDbEntity
  8
1-2_扉･枠
  6
想像線
 62
     4
 48
0.25
370
    18
100
AcDbLine
 10
2808.450438798551
 20
7602.670706487399
 30
0.0
 11
2808.450438798551
 21
7753.568312169313
 31
0.0
  0
LINE
  5
37F33
330
1E
100
AcDbEntity
  8
1-2_扉･枠
  6
想像線
 62
     4
 48
0.25
370
    18
100
AcDbLine
 10
2848.450438798551
 20
7602.670706487399
 30
0.0
 11
2848.450438798551
 21
7748.090227678258
 31
0.0
  0
LINE
  5
37F46
330
1E
100
AcDbEntity
  8
1-3_付属
  6
かくれ線
 62
     7
 48
0.5
370
    18
100
AcDbLine
 10
2879.450438798551
 20
7590.670706487398
 30
0.0
 11
2867.450438798551
 21
7590.670706487398
 31
0.0
  0
LINE
  5
37F4B
330
1E
100
AcDbEntity
  8
1-3_付属
  6
かくれ線
 62
     7
 48
0.5
370
    18
100
AcDbLine
 10
2867.450438798551
 20
7570.670706487398
 30
0.0
 11
2867.450438798551
 21
7592.670706487398
 31
0.0
  0
LINE
  5
37F52
330
1E
100
AcDbEntity
  8
1-3_付属
  6
かくれ線
 62
     7
 48
0.5
370
    18
100
AcDbLine
 10
2879.450438798551
 20
7570.670706487398
 30
0.0
 11
2879.450438798551
 21
7592.670706487398
 31
0.0
  0
LINE
  5
37F5B
330
1E
100
AcDbEntity
  8
1-0_本体
  6
Continuous
 62
     7
 48
0.5
370
    35
100
AcDbLine
 10
2898.450438798551
 20
7592.6707064874
 30
0.0
 11
2848.450438798551
 21
7592.6707064874
 31
0.0
  0
LINE
  5
37F5C
102
{ACAD_REACTORS
330
3E28F
102
}
330
1E
100
AcDbEntity
  8
1-0_本体
  6
Continuous
 62
     7
 48
0.5
370
    35
100
AcDbLine
 10
2898.450438798551
 20
7592.670706487398
 30
0.0
 11
2898.450438798551
 21
7639.670706487398
 31
0.0
  0
LINE
  5
37F5D
102
{ACAD_REACTORS
330
3E28F
102
}
330
1E
100
AcDbEntity
  8
1-0_本体
  6
Continuous
 62
     7
 48
0.5
370
    35
100
AcDbLine
 10
2848.450438798551
 20
7592.670706487398
 30
0.0
 11
2848.450438798551
 21
7639.670706487398
 31
0.0
  0
LINE
  5
37F5E
330
1E
100
AcDbEntity
  8
1-3_付属
  6
かくれ線
 62
     7
 48
0.5
370
    18
100
AcDbLine
 10
2867.450438798551
 20
7592.670706487398
 30
0.0
 11
2867.450438798551
 21
7616.670706487399
 31
0.0
  0
LINE
  5
37F5F
330
1E
100
AcDbEntity
  8
1-3_付属
  6
かくれ線
 62
     7
 48
0.5
370
    18
100
AcDbLine
 10
2868.450438798551
 20
7592.670706487398
 30
0.0
 11
2868.450438798551
 21
7617.670706487398
 31
0.0
  0
LINE
  5
37F60
330
1E
100
AcDbEntity
  8
1-3_付属
  6
かくれ線
 62
     7
 48
0.5
370
    18
100
AcDbLine
 10
2879.450438798551
 20
7592.670706487398
 30
0.0
 11
2879.450438798551
 21
7616.670706487399
 31
0.0
  0
LINE
  5
37F61
330
1E
100
AcDbEntity
  8
1-3_付属
  6
かくれ線
 62
     7
 48
0.5
370
    18
100
AcDbLine
 10
2878.45043879855
 20
7592.670706487398
 30
0.0
 11
2878.45043879855
 21
7617.670706487398
 31
0.0
  0
LINE
  5
37F62
330
1E
100
AcDbEntity
  8
1-A_中心
  6
中心線
 62
     6
 48
0.25
370
    18
100
AcDbLine
 10
2873.450438798551
 20
7647.670706487398
 30
0.0
 11
2873.450438798551
 21
7566.362708571285
 31
0.0
  0
DIMENSION
  5
37F63
330
1E
100
AcDbEntity
  8
1-B_寸法
  6
Continuous
 62
     3
 48
0.5
370
    18
100
AcDbDimension
280
     0
  2
*D1
 10
2913.450438798552
 20
7592.670706487398
 30
0.0
 11
2913.450438798551
 21
7617.670706487401
 31
0.0
 70
   160
 71
     5
 42
50.0
 73
     0
 74
     0
 75
     0
  3
ISO-25
100
AcDbAlignedDimension
 13
2898.450438798551
 23
7642.670706487398
 33
0.0
 14
2898.450438798551
 24
7592.670706487398
 34
0.0
 50
270.0
100
AcDbRotatedDimension
  0
LINE
  5
37FA7
102
{ACAD_REACTORS
330
3E28F
102
}
330
1E
100
AcDbEntity
  8
1-2_扉･枠
  6
想像線
 62
     4
 48
0.25
370
    18
100
AcDbLine
 10
2928.450438798551
 20
7592.6707064874
 30
0.0
 11
2803.452142209842
 21
7592.6707064874
 31
0.0
  0
MTEXT
  5
38B1C
330
1E
100
AcDbEntity
  8
1-C_文字
  6
Continuous
 62
     3
 48
0.5
370
    18
100
AcDbMText
 10
2972.93259138389
 20
7707.610506705979
 30
0.0
 40
3.0
 41
34.287
 46
0.0
 71
     1
 72
     1
  1
４-Ｍ４×１０\P(ＳＵＳトラスビス)
  7
明朝
 73
     1
 44
1.0
  0
LINE
  5
38B1D
330
1E
100
AcDbEntity
  8
1-2_扉･枠
  6
想像線
 62
     4
 48
0.25
370
    18
100
AcDbLine
 10
3010.450438798551
 20
7602.675385952635
 30
0.0
 11
2970.450438798551
 21
7602.675385952635
 31
0.0
  0
LINE
  5
38B1E
102
{ACAD_REACTORS
330
3E293
102
}
330
1E
100
AcDbEntity
  8
1-2_扉･枠
  6
想像線
 62
     4
 48
0.25
370
    18
100
AcDbLine
 10
3158.450438798551
 20
7592.6707064874
 30
0.0
 11
2965.450438798551
 21
7592.6707064874
 31
0.0
  0
LINE
  5
38B26
330
1E
100
AcDbEntity
  8
1-2_扉･枠
  6
想像線
 62
     4
 48
0.25
370
    18
100
AcDbLine
 10
2970.450438798551
 20
7602.675385952635
 30
0.0
 11
2970.450438798551
 21
7753.568312169313
 31
0.0
  0
MTEXT
  5
38B2C
330
1E
100
AcDbEntity
  8
1-C_文字
  6
Continuous
 62
     3
 48
0.5
370
    18
100
AcDbMText
 10
3014.200438798551
 20
7728.956755887826
 30
0.0
 40
3.0
 41
20.01565807207543
 46
0.0
 71
     1
 72
     1
  1
{\Lステンレス}
  7
明朝
 73
     1
 44
1.0
  0
LINE
  5
38B31
330
1E
100
AcDbEntity
  8
1-5_ビス2
  6
かくれ線
 62
     7
 48
0.5
370
    18
100
AcDbLine
 10
3029.45043968483
 20
7644.670702338827
 30
0.0
 11
3029.450439335829
 21
7644.1707064874
 31
0.0
  0
LINE
  5
38B32
330
1E
100
AcDbEntity
  8
1-5_ビス2
  6
かくれ線
 62
     7
 48
0.5
370
    18
100
AcDbLine
 10
3041.45043968483
 20
7644.670698111383
 30
0.0
 11
3041.450439615024
 21
7644.170698111384
 31
0.0
  0
LINE
  5
38B35
330
1E
100
AcDbEntity
  8
1-5_ビス2
  6
かくれ線
 62
     7
 48
0.5
370
    18
100
AcDbLine
 10
3029.450439615027
 20
7644.1707064874
 30
0.0
 11
3032.45043968483
 21
7640.670719011939
 31
0.0
  0
LINE
  5
38B36
330
1E
100
AcDbEntity
  8
1-5_ビス2
  6
かくれ線
 62
     7
 48
0.5
370
    18
100
AcDbLine
 10
3041.450439335829
 20
7644.170698111384
 30
0.0
 11
3038.45043968483
 21
7640.670701070591
 31
0.0
  0
LINE
  5
38B37
330
1E
100
AcDbEntity
  8
1-5_ビス2
  6
かくれ線
 62
     7
 48
0.5
370
    18
100
AcDbLine
 10
3037.450444957245
 20
7640.670701070591
 30
0.0
 11
3032.450444957245
 21
7640.670701070591
 31
0.0
  0
LINE
  5
38B38
330
1E
100
AcDbEntity
  8
1-5_ビス2
  6
かくれ線
 62
     7
 48
0.5
370
    18
100
AcDbLine
 10
3032.450444957245
 20
7640.670701070591
 30
0.0
 11
3038.450444957245
 21
7640.670701070591
 31
0.0
  0
LINE
  5
38B39
330
1E
100
AcDbEntity
  8
1-5_ビス2
  6
かくれ線
 62
     7
 48
0.5
370
    18
100
AcDbLine
 10
3038.450439514753
 20
7624.670698034805
 30
0.0
 11
3032.450439514752
 21
7624.670698187964
 31
0.0
  0
LINE
  5
38B3A
330
1E
100
AcDbEntity
  8
1-5_ビス2
  6
かくれ線
 62
     7
 48
0.5
370
    18
100
AcDbLine
 10
3032.450439514752
 20
7624.670698187964
 30
0.0
 11
3032.450444957245
 21
7640.670701070591
 31
0.0
  0
LINE
  5
38B3D
330
1E
100
AcDbEntity
  8
1-5_ビス2
  6
かくれ線
 62
     7
 48
0.5
370
    18
100
AcDbLine
 10
3038.450439514753
 20
7624.670698034805
 30
0.0
 11
3038.450444957247
 21
7640.670698534126
 31
0.0
  0
LINE
  5
38B3F
330
1E
100
AcDbEntity
  8
1-5_ビス2
  6
かくれ線
 62
     7
 48
0.5
370
    18
100
AcDbLine
 10
3029.45043968483
 20
7644.670702338827
 30
0.0
 11
3041.45043968483
 21
7644.670698111383
 31
0.0
  0
ARC
  5
38B57
330
1E
100
AcDbEntity
  8
1-5_ビス2
  6
かくれ線
 62
     7
 48
0.5
370
    18
100
AcDbCircle
 10
3126.949885217513
 20
7668.6707064874
 30
0.0
 40
1.0
100
AcDbArc
 50
0.0
 51
90.0
  0
LINE
  5
38B58
330
1E
100
AcDbEntity
  8
1-5_ビス2
  6
かくれ線
 62
     7
 48
0.5
370
    18
100
AcDbLine
 10
3126.949885217513
 20
7669.670706487401
 30
0.0
 11
3126.449885217513
 21
7669.670706487401
 31
0.0
  0
LINE
  5
38B59
330
1E
100
AcDbEntity
  8
1-5_ビス2
  6
かくれ線
 62
     7
 48
0.5
370
    18
100
AcDbLine
 10
3127.949885217513
 20
7668.6707064874
 30
0.0
 11
3127.949885217513
 21
7668.1707064874
 31
0.0
  0
ARC
  5
38B5A
330
1E
100
AcDbEntity
  8
1-5_ビス2
  6
かくれ線
 62
     7
 48
0.5
370
    18
100
AcDbCircle
 10
3129.949885217513
 20
7668.6707064874
 30
0.0
 40
1.0
100
AcDbArc
 50
90.0
 51
180.0
  0
LINE
  5
38B5B
330
1E
100
AcDbEntity
  8
1-5_ビス2
  6
かくれ線
 62
     7
 48
0.5
370
    18
100
AcDbLine
 10
3128.949885217513
 20
7668.6707064874
 30
0.0
 11
3128.949885217513
 21
7668.1707064874
 31
0.0
  0
LINE
  5
38B5C
330
1E
100
AcDbEntity
  8
1-5_ビス2
  6
かくれ線
 62
     7
 48
0.5
370
    18
100
AcDbLine
 10
3129.949885217513
 20
7669.670706487401
 30
0.0
 11
3130.449885217513
 21
7669.670706487401
 31
0.0
  0
ARC
  5
38B5D
330
1E
100
AcDbEntity
  8
1-5_ビス2
  6
かくれ線
 62
     7
 48
0.5
370
    18
100
AcDbCircle
 10
3129.949885217513
 20
7671.6707064874
 30
0.0
 40
1.0
100
AcDbArc
 50
180.0
 51
270.0
  0
LINE
  5
38B5E
330
1E
100
AcDbEntity
  8
1-5_ビス2
  6
かくれ線
 62
     7
 48
0.5
370
    18
100
AcDbLine
 10
3129.949885217513
 20
7670.670706487399
 30
0.0
 11
3130.449885217513
 21
7670.670706487399
 31
0.0
  0
LINE
  5
38B5F
330
1E
100
AcDbEntity
  8
1-5_ビス2
  6
かくれ線
 62
     7
 48
0.5
370
    18
100
AcDbLine
 10
3128.949885217513
 20
7671.6707064874
 30
0.0
 11
3128.949885217513
 21
7672.170706487399
 31
0.0
  0
ARC
  5
38B60
330
1E
100
AcDbEntity
  8
1-5_ビス2
  6
かくれ線
 62
     7
 48
0.5
370
    18
100
AcDbCircle
 10
3126.949885217513
 20
7671.6707064874
 30
0.0
 40
1.0
100
AcDbArc
 50
270.0
 51
0.0
  0
LINE
  5
38B61
330
1E
100
AcDbEntity
  8
1-5_ビス2
  6
かくれ線
 62
     7
 48
0.5
370
    18
100
AcDbLine
 10
3127.949885217513
 20
7671.6707064874
 30
0.0
 11
3127.949885217513
 21
7672.170706487399
 31
0.0
  0
LINE
  5
38B62
330
1E
100
AcDbEntity
  8
1-5_ビス2
  6
かくれ線
 62
     7
 48
0.5
370
    18
100
AcDbLine
 10
3126.949885217513
 20
7670.670706487399
 30
0.0
 11
3126.449885217513
 21
7670.670706487399
 31
0.0
  0
LINE
  5
38B63
330
1E
100
AcDbEntity
  8
1-5_ビス2
  6
かくれ線
 62
     7
 48
0.5
370
    18
100
AcDbLine
 10
3130.449885217513
 20
7670.670706487399
 30
0.0
 11
3130.449885217513
 21
7669.670706487401
 31
0.0
  0
LINE
  5
38B64
330
1E
100
AcDbEntity
  8
1-5_ビス2
  6
かくれ線
 62
     7
 48
0.5
370
    18
100
AcDbLine
 10
3128.949885217513
 20
7668.1707064874
 30
0.0
 11
3127.949885217513
 21
7668.1707064874
 31
0.0
  0
LINE
  5
38B65
330
1E
100
AcDbEntity
  8
1-5_ビス2
  6
かくれ線
 62
     7
 48
0.5
370
    18
100
AcDbLine
 10
3126.449885217513
 20
7670.670706487399
 30
0.0
 11
3126.449885217513
 21
7669.670706487401
 31
0.0
  0
LINE
  5
38B66
330
1E
100
AcDbEntity
  8
1-5_ビス2
  6
かくれ線
 62
     7
 48
0.5
370
    18
100
AcDbLine
 10
3128.949885217513
 20
7672.170706487399
 30
0.0
 11
3127.949885217513
 21
7672.170706487399
 31
0.0
  0
CIRCLE
  5
38B67
330
1E
100
AcDbEntity
  8
1-5_ビス2
  6
かくれ線
 62
     7
 48
0.5
370
    18
100
AcDbCircle
 10
3128.449885217513
 20
7670.1707064874
 30
0.0
 40
4.0
  0
LINE
  5
38B68
330
1E
100
AcDbEntity
  8
1-A_中心
  6
中心線
 62
     6
 48
0.25
370
    18
100
AcDbLine
 10
3123.449885217512
 20
7670.1707064874
 30
0.0
 11
3133.449885217513
 21
7670.1707064874
 31
0.0
  0
CIRCLE
  5
38B69
330
1E
100
AcDbEntity
  8
1-5_ビス2
  6
かくれ線
 62
     7
 48
0.5
370
    18
100
AcDbCircle
 10
3128.449885217513
 20
7694.170706487399
 30
0.0
 40
4.0
  0
LINE
  5
38B6A
330
1E
100
AcDbEntity
  8
1-5_ビス2
  6
かくれ線
 62
     7
 48
0.5
370
    18
100
AcDbLine
 10
3128.949885217513
 20
7696.1707064874
 30
0.0
 11
3127.949885217513
 21
7696.1707064874
 31
0.0
  0
LINE
  5
38B6B
330
1E
100
AcDbEntity
  8
1-5_ビス2
  6
かくれ線
 62
     7
 48
0.5
370
    18
100
AcDbLine
 10
3126.449885217513
 20
7694.6707064874
 30
0.0
 11
3126.449885217513
 21
7693.6707064874
 31
0.0
  0
LINE
  5
38B6C
330
1E
100
AcDbEntity
  8
1-5_ビス2
  6
かくれ線
 62
     7
 48
0.5
370
    18
100
AcDbLine
 10
3128.949885217513
 20
7692.1707064874
 30
0.0
 11
3127.949885217513
 21
7692.1707064874
 31
0.0
  0
LINE
  5
38B6D
330
1E
100
AcDbEntity
  8
1-5_ビス2
  6
かくれ線
 62
     7
 48
0.5
370
    18
100
AcDbLine
 10
3130.449885217513
 20
7694.6707064874
 30
0.0
 11
3130.449885217513
 21
7693.6707064874
 31
0.0
  0
LINE
  5
38B6E
330
1E
100
AcDbEntity
  8
1-5_ビス2
  6
かくれ線
 62
     7
 48
0.5
370
    18
100
AcDbLine
 10
3126.949885217513
 20
7694.6707064874
 30
0.0
 11
3126.449885217513
 21
7694.6707064874
 31
0.0
  0
LINE
  5
38B6F
330
1E
100
AcDbEntity
  8
1-5_ビス2
  6
かくれ線
 62
     7
 48
0.5
370
    18
100
AcDbLine
 10
3127.949885217513
 20
7695.670706487399
 30
0.0
 11
3127.949885217513
 21
7696.1707064874
 31
0.0
  0
ARC
  5
38B70
330
1E
100
AcDbEntity
  8
1-5_ビス2
  6
かくれ線
 62
     7
 48
0.5
370
    18
100
AcDbCircle
 10
3126.949885217513
 20
7695.670706487399
 30
0.0
 40
1.0
100
AcDbArc
 50
270.0
 51
0.0
  0
LINE
  5
38B71
330
1E
100
AcDbEntity
  8
1-5_ビス2
  6
かくれ線
 62
     7
 48
0.5
370
    18
100
AcDbLine
 10
3128.949885217513
 20
7695.670706487399
 30
0.0
 11
3128.949885217513
 21
7696.1707064874
 31
0.0
  0
LINE
  5
38B72
330
1E
100
AcDbEntity
  8
1-5_ビス2
  6
かくれ線
 62
     7
 48
0.5
370
    18
100
AcDbLine
 10
3129.949885217513
 20
7694.6707064874
 30
0.0
 11
3130.449885217513
 21
7694.6707064874
 31
0.0
  0
ARC
  5
38B73
330
1E
100
AcDbEntity
  8
1-5_ビス2
  6
かくれ線
 62
     7
 48
0.5
370
    18
100
AcDbCircle
 10
3129.949885217513
 20
7695.670706487399
 30
0.0
 40
1.0
100
AcDbArc
 50
180.0
 51
270.0
  0
LINE
  5
38B74
330
1E
100
AcDbEntity
  8
1-5_ビス2
  6
かくれ線
 62
     7
 48
0.5
370
    18
100
AcDbLine
 10
3129.949885217513
 20
7693.6707064874
 30
0.0
 11
3130.449885217513
 21
7693.6707064874
 31
0.0
  0
LINE
  5
38B75
330
1E
100
AcDbEntity
  8
1-5_ビス2
  6
かくれ線
 62
     7
 48
0.5
370
    18
100
AcDbLine
 10
3128.949885217513
 20
7692.670706487399
 30
0.0
 11
3128.949885217513
 21
7692.1707064874
 31
0.0
  0
ARC
  5
38B76
330
1E
100
AcDbEntity
  8
1-5_ビス2
  6
かくれ線
 62
     7
 48
0.5
370
    18
100
AcDbCircle
 10
3129.949885217513
 20
7692.670706487399
 30
0.0
 40
1.0
100
AcDbArc
 50
90.0
 51
180.0
  0
LINE
  5
38B77
330
1E
100
AcDbEntity
  8
1-5_ビス2
  6
かくれ線
 62
     7
 48
0.5
370
    18
100
AcDbLine
 10
3127.949885217513
 20
7692.670706487399
 30
0.0
 11
3127.949885217513
 21
7692.1707064874
 31
0.0
  0
LINE
  5
38B78
330
1E
100
AcDbEntity
  8
1-5_ビス2
  6
かくれ線
 62
     7
 48
0.5
370
    18
100
AcDbLine
 10
3126.949885217513
 20
7693.6707064874
 30
0.0
 11
3126.449885217513
 21
7693.6707064874
 31
0.0
  0
ARC
  5
38B79
330
1E
100
AcDbEntity
  8
1-5_ビス2
  6
かくれ線
 62
     7
 48
0.5
370
    18
100
AcDbCircle
 10
3126.949885217513
 20
7692.670706487399
 30
0.0
 40
1.0
100
AcDbArc
 50
0.0
 51
90.0
  0
LINE
  5
38B7A
330
1E
100
AcDbEntity
  8
1-A_中心
  6
中心線
 62
     6
 48
0.25
370
    18
100
AcDbLine
 10
3123.449885217512
 20
7694.170706487399
 30
0.0
 11
3133.449885217513
 21
7694.170706487399
 31
0.0
  0
LINE
  5
38B7B
330
1E
100
AcDbEntity
  8
1-A_中心
  6
中心線
 62
     6
 48
0.25
370
    18
100
AcDbLine
 10
3128.451338757998
 20
7675.170706276121
 30
0.0
 11
3128.451338757998
 21
7665.170706698678
 31
0.0
  0
LINE
  5
38B7C
330
1E
100
AcDbEntity
  8
1-A_中心
  6
中心線
 62
     6
 48
0.25
370
    18
100
AcDbLine
 10
3128.451338757998
 20
7699.170706276122
 30
0.0
 11
3128.451338757998
 21
7689.170706698678
 31
0.0
  0
LINE
  5
38B7D
330
1E
100
AcDbEntity
  8
1-A_中心
  6
中心線
 62
     6
 48
0.25
370
    18
100
AcDbLine
 10
3134.449885217512
 20
7682.670706487399
 30
0.0
 11
3139.949885217512
 21
7682.670706487399
 31
0.0
  0
LINE
  5
38B7E
330
1E
100
AcDbEntity
  8
1-4_ビス
  6
Continuous
 62
     7
 48
0.5
370
    35
100
AcDbLine
 10
3136.449885217512
 20
7679.270706487399
 30
0.0
 11
3136.949885217512
 21
7679.270706487399
 31
0.0
  0
LINE
  5
38B7F
330
1E
100
AcDbEntity
  8
1-4_ビス
  6
Continuous
 62
     7
 48
0.5
370
    35
100
AcDbLine
 10
3136.449885217512
 20
7686.070706487399
 30
0.0
 11
3136.949885217512
 21
7686.070706487399
 31
0.0
  0
LINE
  5
38B80
330
1E
100
AcDbEntity
  8
1-4_ビス
  6
Continuous
 62
     7
 48
0.5
370
    35
100
AcDbLine
 10
3138.949885217512
 20
7684.070706487398
 30
0.0
 11
3138.949885217512
 21
7681.270706487399
 31
0.0
  0
ARC
  5
38B81
330
1E
100
AcDbEntity
  8
1-4_ビス
  6
Continuous
 62
     7
 48
0.5
370
    35
100
AcDbCircle
 10
3136.949885217512
 20
7681.270706487399
 30
0.0
 40
2.0
100
AcDbArc
 50
270.0
 51
0.0
  0
ARC
  5
38B82
330
1E
100
AcDbEntity
  8
1-4_ビス
  6
Continuous
 62
     7
 48
0.5
370
    35
100
AcDbCircle
 10
3136.949885217512
 20
7684.070706487398
 30
0.0
 40
2.0
100
AcDbArc
 50
0.0
 51
90.0
  0
ARC
  5
38B84
102
{ACAD_REACTORS
330
3E293
102
}
330
1E
100
AcDbEntity
  8
1-0_本体
  6
Continuous
 62
     7
 48
0.5
370
    35
100
AcDbCircle
 10
3137.449885217513
 20
7639.6707064874
 30
0.0
 40
3.0
100
AcDbArc
 50
0.0
 51
90.0
  0
LINE
  5
38B96
102
{ACAD_REACTORS
330
3E293
102
}
330
1E
100
AcDbEntity
  8
1-0_本体
  6
Continuous
 62
     7
 48
0.5
370
    35
100
AcDbLine
 10
3140.449885217513
 20
7592.6707064874
 30
0.0
 11
3140.449885217513
 21
7639.6707064874
 31
0.0
  0
LINE
  5
38B9C
330
1E
100
AcDbEntity
  8
1-1_本体2
  6
かくれ線
 62
     7
 48
0.5
370
    18
100
AcDbLine
 10
3135.449885217512
 20
7727.6707064874
 30
0.0
 11
3135.449885217512
 21
7657.6707064874
 31
0.0
  0
LINE
  5
38B9D
330
1E
100
AcDbEntity
  8
1-0_本体
  6
Continuous
 62
     7
 48
0.5
370
    35
100
AcDbLine
 10
3136.449885217512
 20
7727.670706487399
 30
0.0
 11
3136.449885217512
 21
7657.670706487398
 31
0.0
  0
LINE
  5
38B9F
330
1E
100
AcDbEntity
  8
1-A_中心
  6
中心線
 62
     6
 48
0.25
370
    18
100
AcDbLine
 10
3115.44988521751
 20
7737.670706487401
 30
0.0
 11
3115.449885217512
 21
7587.6707064874
 31
0.0
  0
LINE
  5
38BA1
330
1E
100
AcDbEntity
  8
1-0_本体
  6
Continuous
 62
     7
 48
0.5
370
    35
100
AcDbLine
 10
3010.450438798551
 20
7659.035385952634
 30
0.0
 11
3010.450438798551
 21
7729.454907143493
 31
0.0
  0
LINE
  5
38BA2
330
1E
100
AcDbEntity
  8
1-1_本体2
  6
かくれ線
 62
     7
 48
0.5
370
    18
100
AcDbLine
 10
3047.450438798551
 20
7727.6707064874
 30
0.0
 11
3049.450438798551
 21
7657.6707064874
 31
0.0
  0
LINE
  5
38BA3
330
1E
100
AcDbEntity
  8
1-1_本体2
  6
かくれ線
 62
     7
 48
0.5
370
    18
100
AcDbLine
 10
3095.449885217512
 20
7727.6707064874
 30
0.0
 11
3095.449885217512
 21
7657.6707064874
 31
0.0
  0
LINE
  5
38BA4
330
1E
100
AcDbEntity
  8
1-0_本体
  6
Continuous
 62
     7
 48
0.5
370
    35
100
AcDbLine
 10
3094.449885217512
 20
7727.6707064874
 30
0.0
 11
3094.449885217512
 21
7657.6707064874
 31
0.0
  0
LINE
  5
38BA5
330
1E
100
AcDbEntity
  8
1-0_本体
  6
Continuous
 62
     7
 48
0.5
370
    35
100
AcDbLine
 10
3048.450438798551
 20
7727.6707064874
 30
0.0
 11
3050.450438798551
 21
7657.6707064874
 31
0.0
  0
LINE
  5
38BA6
330
1E
100
AcDbEntity
  8
1-0_本体
  6
Continuous
 62
     7
 48
0.5
370
    35
100
AcDbLine
 10
3010.450438798551
 20
7732.6707064874
 30
0.0
 11
3010.450438798551
 21
7657.6707064874
 31
0.0
  0
DIMENSION
  5
38BA7
330
1E
100
AcDbEntity
  8
1-B_寸法
  6
Continuous
 62
     3
 48
0.5
370
    18
100
AcDbDimension
280
     0
  2
*D3
 10
3075.450438798553
 20
7732.6707064874
 30
0.0
 11
3073.325438798552
 21
7695.170706487401
 31
0.0
 70
    32
 71
     5
 42
75.0
 73
     0
 74
     0
 75
     0
  3
ISO-25
100
AcDbAlignedDimension
 13
3060.450438798551
 23
7657.6707064874
 33
0.0
 14
3060.450438798551
 24
7732.6707064874
 34
0.0
 50
90.0
100
AcDbRotatedDimension
  0
LINE
  5
38BA8
330
1E
100
AcDbEntity
  8
1-2_扉･枠
  6
想像線
 62
     4
 48
0.25
370
    18
100
AcDbLine
 10
3010.450438798551
 20
7602.6707064874
 30
0.0
 11
3010.450438798551
 21
7748.090227678258
 31
0.0
  0
LINE
  5
38BAC
102
{ACAD_REACTORS
330
3E2AD
102
}
330
1E
100
AcDbEntity
  8
1-A_中心
  6
中心線
 62
     6
 48
0.25
370
    18
100
AcDbLine
 10
3035.45043879855
 20
7809.59022767826
 30
0.0
 11
3035.45043879855
 21
7566.362708571285
 31
0.0
  0
LINE
  5
38BAD
330
1E
100
AcDbEntity
  8
1-5_ビス2
  6
かくれ線
 62
     7
 48
0.5
370
    18
100
AcDbLine
 10
3004.450438798551
 20
7668.1707064874
 30
0.0
 11
3004.450438798552
 21
7672.170706487399
 31
0.0
  0
LINE
  5
38BB1
330
1E
100
AcDbEntity
  8
1-A_中心
  6
中心線
 62
     6
 48
0.25
370
    18
100
AcDbLine
 10
3019.65044129855
 20
7670.170705872035
 30
0.0
 11
3002.450438798551
 21
7670.170706487398
 31
0.0
  0
LINE
  5
38BB3
330
1E
100
AcDbEntity
  8
1-5_ビス2
  6
かくれ線
 62
     7
 48
0.5
370
    18
100
AcDbLine
 10
3004.450438798551
 20
7668.1707064874
 30
0.0
 11
3014.450438798551
 21
7668.1707064874
 31
0.0
  0
LINE
  5
38BB5
330
1E
100
AcDbEntity
  8
1-5_ビス2
  6
かくれ線
 62
     7
 48
0.5
370
    18
100
AcDbLine
 10
3004.450438798552
 20
7672.170706487399
 30
0.0
 11
3014.450438798551
 21
7672.170706487399
 31
0.0
  0
LINE
  5
38BC4
330
1E
100
AcDbEntity
  8
1-0_本体
  6
Continuous
 62
     7
 48
0.5
370
    35
100
AcDbLine
 10
3060.450438798551
 20
7592.6707064874
 30
0.0
 11
3010.450438798551
 21
7592.6707064874
 31
0.0
  0
LINE
  5
38BC5
330
1E
100
AcDbEntity
  8
1-0_本体
  6
Continuous
 62
     7
 48
0.5
370
    35
100
AcDbLine
 10
3060.450438798551
 20
7592.6707064874
 30
0.0
 11
3010.450438798551
 21
7592.6707064874
 31
0.0
  0
ARC
  5
38BC7
330
1E
100
AcDbEntity
  8
1-5_ビス2
  6
かくれ線
 62
     7
 48
0.5
370
    18
100
AcDbCircle
 10
3012.598878798551
 20
7670.1707064874
 30
0.0
 40
5.0515625
100
AcDbArc
 50
291.5019299999748
 51
68.49806000000862
  0
LINE
  5
38BCA
330
1E
100
AcDbEntity
  8
1-5_ビス2
  6
かくれ線
 62
     7
 48
0.5
370
    18
100
AcDbLine
 10
3014.85043879855
 20
7674.6927364874
 30
0.0
 11
3014.85043879855
 21
7665.6486764874
 31
0.0
  0
LINE
  5
38BCB
330
1E
100
AcDbEntity
  8
1-5_ビス2
  6
かくれ線
 62
     7
 48
0.5
370
    18
100
AcDbLine
 10
3014.450438798551
 20
7667.438036487403
 30
0.0
 11
3014.450438798551
 21
7665.470706487403
 31
0.0
  0
LINE
  5
38BCC
330
1E
100
AcDbEntity
  8
1-5_ビス2
  6
かくれ線
 62
     7
 48
0.5
370
    18
100
AcDbLine
 10
3014.450438798551
 20
7674.870706487403
 30
0.0
 11
3014.450440971544
 21
7665.470706358576
 31
0.0
  0
LINE
  5
38BCD
330
1E
100
AcDbEntity
  8
1-1_本体2
  6
かくれ線
 62
     7
 48
0.5
370
    18
100
AcDbLine
 10
3014.450438798551
 20
7703.670706487399
 30
0.0
 11
3014.450438798551
 21
7687.1707064874
 31
0.0
  0
LINE
  5
38BCE
330
1E
100
AcDbEntity
  8
1-A_中心
  6
中心線
 62
     6
 48
0.25
370
    18
100
AcDbLine
 10
3023.450438798551
 20
7682.6707064874
 30
0.0
 11
3014.450438798551
 21
7682.6707064874
 31
0.0
  0
LINE
  5
38BCF
330
1E
100
AcDbEntity
  8
1-A_中心
  6
中心線
 62
     6
 48
0.25
370
    18
100
AcDbLine
 10
3018.950438798551
 20
7687.1707064874
 30
0.0
 11
3018.950438798551
 21
7678.170706487399
 31
0.0
  0
LINE
  5
38BD1
330
1E
100
AcDbEntity
  8
1-4_ビス
  6
Continuous
 62
     7
 48
0.5
370
    35
100
AcDbLine
 10
3019.450438798551
 20
7684.670706487399
 30
0.0
 11
3018.450438798551
 21
7684.670706487399
 31
0.0
  0
LINE
  5
38BD2
330
1E
100
AcDbEntity
  8
1-4_ビス
  6
Continuous
 62
     7
 48
0.5
370
    35
100
AcDbLine
 10
3016.950438798551
 20
7683.170706487399
 30
0.0
 11
3016.950438798551
 21
7682.170706487401
 31
0.0
  0
LINE
  5
38BD3
330
1E
100
AcDbEntity
  8
1-4_ビス
  6
Continuous
 62
     7
 48
0.5
370
    35
100
AcDbLine
 10
3019.450438798551
 20
7680.670706487401
 30
0.0
 11
3018.450438798551
 21
7680.670706487401
 31
0.0
  0
LINE
  5
38BD4
330
1E
100
AcDbEntity
  8
1-4_ビス
  6
Continuous
 62
     7
 48
0.5
370
    35
100
AcDbLine
 10
3020.950438798551
 20
7683.170706487399
 30
0.0
 11
3020.950438798551
 21
7682.170706487401
 31
0.0
  0
LINE
  5
38BD5
330
1E
100
AcDbEntity
  8
1-4_ビス
  6
Continuous
 62
     7
 48
0.5
370
    35
100
AcDbLine
 10
3017.450438798551
 20
7683.170706487399
 30
0.0
 11
3016.950438798551
 21
7683.170706487399
 31
0.0
  0
LINE
  5
38BD6
330
1E
100
AcDbEntity
  8
1-4_ビス
  6
Continuous
 62
     7
 48
0.5
370
    35
100
AcDbLine
 10
3018.450438798551
 20
7684.1707064874
 30
0.0
 11
3018.450438798551
 21
7684.670706487399
 31
0.0
  0
ARC
  5
38BD7
330
1E
100
AcDbEntity
  8
1-4_ビス
  6
Continuous
 62
     7
 48
0.5
370
    35
100
AcDbCircle
 10
3017.450438798551
 20
7684.1707064874
 30
0.0
 40
1.0
100
AcDbArc
 50
270.0
 51
0.0
  0
LINE
  5
38BD8
330
1E
100
AcDbEntity
  8
1-4_ビス
  6
Continuous
 62
     7
 48
0.5
370
    35
100
AcDbLine
 10
3019.450438798551
 20
7684.1707064874
 30
0.0
 11
3019.450438798551
 21
7684.670706487399
 31
0.0
  0
LINE
  5
38BD9
330
1E
100
AcDbEntity
  8
1-4_ビス
  6
Continuous
 62
     7
 48
0.5
370
    35
100
AcDbLine
 10
3020.450438798551
 20
7683.170706487399
 30
0.0
 11
3020.950438798551
 21
7683.170706487399
 31
0.0
  0
ARC
  5
38BDA
330
1E
100
AcDbEntity
  8
1-4_ビス
  6
Continuous
 62
     7
 48
0.5
370
    35
100
AcDbCircle
 10
3020.450438798551
 20
7684.1707064874
 30
0.0
 40
1.0
100
AcDbArc
 50
180.0
 51
270.0
  0
LINE
  5
38BDB
330
1E
100
AcDbEntity
  8
1-4_ビス
  6
Continuous
 62
     7
 48
0.5
370
    35
100
AcDbLine
 10
3020.450438798551
 20
7682.170706487401
 30
0.0
 11
3020.950438798551
 21
7682.170706487401
 31
0.0
  0
LINE
  5
38BDC
330
1E
100
AcDbEntity
  8
1-4_ビス
  6
Continuous
 62
     7
 48
0.5
370
    35
100
AcDbLine
 10
3019.450438798551
 20
7681.170706487399
 30
0.0
 11
3019.450438798551
 21
7680.670706487401
 31
0.0
  0
ARC
  5
38BDD
330
1E
100
AcDbEntity
  8
1-4_ビス
  6
Continuous
 62
     7
 48
0.5
370
    35
100
AcDbCircle
 10
3020.450438798551
 20
7681.170706487399
 30
0.0
 40
1.0
100
AcDbArc
 50
90.0
 51
180.0
  0
LINE
  5
38BDE
330
1E
100
AcDbEntity
  8
1-4_ビス
  6
Continuous
 62
     7
 48
0.5
370
    35
100
AcDbLine
 10
3018.450438798551
 20
7681.170706487399
 30
0.0
 11
3018.450438798551
 21
7680.670706487401
 31
0.0
  0
LINE
  5
38BDF
330
1E
100
AcDbEntity
  8
1-4_ビス
  6
Continuous
 62
     7
 48
0.5
370
    35
100
AcDbLine
 10
3017.450438798551
 20
7682.170706487401
 30
0.0
 11
3016.950438798551
 21
7682.170706487401
 31
0.0
  0
ARC
  5
38BE0
330
1E
100
AcDbEntity
  8
1-4_ビス
  6
Continuous
 62
     7
 48
0.5
370
    35
100
AcDbCircle
 10
3017.450438798551
 20
7681.170706487399
 30
0.0
 40
1.0
100
AcDbArc
 50
0.0
 51
90.0
  0
LINE
  5
38BE1
330
1E
100
AcDbEntity
  8
1-1_本体2
  6
かくれ線
 62
     7
 48
0.5
370
    18
100
AcDbLine
 10
3017.970722735228
 20
7687.170706487399
 30
0.0
 11
3014.450438798551
 21
7687.1707064874
 31
0.0
  0
LINE
  5
38BE2
330
1E
100
AcDbEntity
  8
1-1_本体2
  6
かくれ線
 62
     7
 48
0.5
370
    18
100
AcDbLine
 10
3017.970722734852
 20
7678.170706487399
 30
0.0
 11
3014.450438798551
 21
7678.170706487399
 31
0.0
  0
ARC
  5
38BE3
330
1E
100
AcDbEntity
  8
1-1_本体2
  6
かくれ線
 62
     7
 48
0.5
370
    18
100
AcDbCircle
 10
3017.950392876212
 20
7682.6707064874
 30
0.0
 40
4.500045922338294
100
AcDbArc
 50
270.2588446148251
 51
90.25884604336285
  0
LINE
  5
38BE4
330
1E
100
AcDbEntity
  8
1-1_本体2
  6
かくれ線
 62
     7
 48
0.5
370
    18
100
AcDbLine
 10
3014.450438798551
 20
7678.170706487399
 30
0.0
 11
3014.450438798551
 21
7661.670706487401
 31
0.0
  0
LINE
  5
38BE5
330
1E
100
AcDbEntity
  8
1-A_中心
  6
中心線
 62
     6
 48
0.25
370
    18
100
AcDbLine
 10
3102.449885217513
 20
7675.170706487399
 30
0.0
 11
3102.449885217513
 21
7665.1707064874
 31
0.0
  0
LINE
  5
38BE6
330
1E
100
AcDbEntity
  8
1-A_中心
  6
中心線
 62
     6
 48
0.25
370
    18
100
AcDbLine
 10
3097.449885217513
 20
7670.1707064874
 30
0.0
 11
3107.449885217512
 21
7670.1707064874
 31
0.0
  0
ARC
  5
38BE7
330
1E
100
AcDbEntity
  8
1-5_ビス2
  6
かくれ線
 62
     7
 48
0.5
370
    18
100
AcDbCircle
 10
3100.949885217513
 20
7668.6707064874
 30
0.0
 40
1.0
100
AcDbArc
 50
0.0
 51
90.0
  0
LINE
  5
38BE8
330
1E
100
AcDbEntity
  8
1-5_ビス2
  6
かくれ線
 62
     7
 48
0.5
370
    18
100
AcDbLine
 10
3100.949885217513
 20
7669.670706487401
 30
0.0
 11
3100.449885217513
 21
7669.670706487401
 31
0.0
  0
LINE
  5
38BE9
330
1E
100
AcDbEntity
  8
1-5_ビス2
  6
かくれ線
 62
     7
 48
0.5
370
    18
100
AcDbLine
 10
3101.949885217513
 20
7668.6707064874
 30
0.0
 11
3101.949885217513
 21
7668.1707064874
 31
0.0
  0
ARC
  5
38BEA
330
1E
100
AcDbEntity
  8
1-5_ビス2
  6
かくれ線
 62
     7
 48
0.5
370
    18
100
AcDbCircle
 10
3103.949885217513
 20
7668.6707064874
 30
0.0
 40
1.0
100
AcDbArc
 50
90.0
 51
180.0
  0
LINE
  5
38BEB
330
1E
100
AcDbEntity
  8
1-5_ビス2
  6
かくれ線
 62
     7
 48
0.5
370
    18
100
AcDbLine
 10
3102.949885217513
 20
7668.6707064874
 30
0.0
 11
3102.949885217513
 21
7668.1707064874
 31
0.0
  0
LINE
  5
38BEC
330
1E
100
AcDbEntity
  8
1-5_ビス2
  6
かくれ線
 62
     7
 48
0.5
370
    18
100
AcDbLine
 10
3103.949885217513
 20
7669.670706487401
 30
0.0
 11
3104.449885217512
 21
7669.670706487401
 31
0.0
  0
ARC
  5
38BED
330
1E
100
AcDbEntity
  8
1-5_ビス2
  6
かくれ線
 62
     7
 48
0.5
370
    18
100
AcDbCircle
 10
3103.949885217513
 20
7671.6707064874
 30
0.0
 40
1.0
100
AcDbArc
 50
180.0
 51
270.0
  0
LINE
  5
38BEE
330
1E
100
AcDbEntity
  8
1-5_ビス2
  6
かくれ線
 62
     7
 48
0.5
370
    18
100
AcDbLine
 10
3103.949885217513
 20
7670.670706487399
 30
0.0
 11
3104.449885217512
 21
7670.670706487399
 31
0.0
  0
LINE
  5
38BEF
330
1E
100
AcDbEntity
  8
1-5_ビス2
  6
かくれ線
 62
     7
 48
0.5
370
    18
100
AcDbLine
 10
3102.949885217513
 20
7671.6707064874
 30
0.0
 11
3102.949885217513
 21
7672.170706487399
 31
0.0
  0
ARC
  5
38BF0
330
1E
100
AcDbEntity
  8
1-5_ビス2
  6
かくれ線
 62
     7
 48
0.5
370
    18
100
AcDbCircle
 10
3100.949885217513
 20
7671.6707064874
 30
0.0
 40
1.0
100
AcDbArc
 50
270.0
 51
0.0
  0
LINE
  5
38BF1
330
1E
100
AcDbEntity
  8
1-5_ビス2
  6
かくれ線
 62
     7
 48
0.5
370
    18
100
AcDbLine
 10
3101.949885217513
 20
7671.6707064874
 30
0.0
 11
3101.949885217513
 21
7672.170706487399
 31
0.0
  0
LINE
  5
38BF2
330
1E
100
AcDbEntity
  8
1-5_ビス2
  6
かくれ線
 62
     7
 48
0.5
370
    18
100
AcDbLine
 10
3100.949885217513
 20
7670.670706487399
 30
0.0
 11
3100.449885217513
 21
7670.670706487399
 31
0.0
  0
LINE
  5
38BF3
330
1E
100
AcDbEntity
  8
1-5_ビス2
  6
かくれ線
 62
     7
 48
0.5
370
    18
100
AcDbLine
 10
3104.449885217512
 20
7670.670706487399
 30
0.0
 11
3104.449885217512
 21
7669.670706487401
 31
0.0
  0
LINE
  5
38BF4
330
1E
100
AcDbEntity
  8
1-5_ビス2
  6
かくれ線
 62
     7
 48
0.5
370
    18
100
AcDbLine
 10
3102.949885217513
 20
7668.1707064874
 30
0.0
 11
3101.949885217513
 21
7668.1707064874
 31
0.0
  0
LINE
  5
38BF5
330
1E
100
AcDbEntity
  8
1-5_ビス2
  6
かくれ線
 62
     7
 48
0.5
370
    18
100
AcDbLine
 10
3100.449885217513
 20
7670.670706487399
 30
0.0
 11
3100.449885217513
 21
7669.670706487401
 31
0.0
  0
LINE
  5
38BF6
330
1E
100
AcDbEntity
  8
1-5_ビス2
  6
かくれ線
 62
     7
 48
0.5
370
    18
100
AcDbLine
 10
3102.949885217513
 20
7672.170706487399
 30
0.0
 11
3101.949885217513
 21
7672.170706487399
 31
0.0
  0
CIRCLE
  5
38BF7
330
1E
100
AcDbEntity
  8
1-5_ビス2
  6
かくれ線
 62
     7
 48
0.5
370
    18
100
AcDbCircle
 10
3102.449885217513
 20
7670.1707064874
 30
0.0
 40
4.0
  0
LINE
  5
38BF8
330
1E
100
AcDbEntity
  8
1-A_中心
  6
中心線
 62
     6
 48
0.25
370
    18
100
AcDbLine
 10
3096.449885217511
 20
7682.670706487401
 30
0.0
 11
3090.949885217512
 21
7682.6707064874
 31
0.0
  0
LINE
  5
38BF9
330
1E
100
AcDbEntity
  8
1-4_ビス
  6
Continuous
 62
     7
 48
0.5
370
    35
100
AcDbLine
 10
3091.949885217512
 20
7684.0707064874
 30
0.0
 11
3091.949885217512
 21
7681.2707064874
 31
0.0
  0
LINE
  5
38BFA
330
1E
100
AcDbEntity
  8
1-4_ビス
  6
Continuous
 62
     7
 48
0.5
370
    35
100
AcDbLine
 10
3094.449885217512
 20
7686.070706487399
 30
0.0
 11
3093.949885217512
 21
7686.070706487399
 31
0.0
  0
LINE
  5
38BFB
330
1E
100
AcDbEntity
  8
1-4_ビス
  6
Continuous
 62
     7
 48
0.5
370
    35
100
AcDbLine
 10
3094.449885217512
 20
7679.2707064874
 30
0.0
 11
3093.949885217512
 21
7679.2707064874
 31
0.0
  0
ARC
  5
38BFC
330
1E
100
AcDbEntity
  8
1-4_ビス
  6
Continuous
 62
     7
 48
0.5
370
    35
100
AcDbCircle
 10
3093.949885217512
 20
7684.0707064874
 30
0.0
 40
2.0
100
AcDbArc
 50
90.0
 51
180.0
  0
ARC
  5
38BFD
330
1E
100
AcDbEntity
  8
1-4_ビス
  6
Continuous
 62
     7
 48
0.5
370
    35
100
AcDbCircle
 10
3093.949885217512
 20
7681.2707064874
 30
0.0
 40
2.0
100
AcDbArc
 50
180.0
 51
270.0
  0
ARC
  5
38C00
330
1E
100
AcDbEntity
  8
1-1_本体2
  6
かくれ線
 62
     7
 48
0.5
370
    18
100
AcDbCircle
 10
2976.461614846088
 20
7696.30875228852
 30
0.0
 40
83.2959011489585
100
AcDbArc
 50
318.0904465910712
 51
323.7842802122133
  0
LINE
  5
38C01
330
1E
100
AcDbEntity
  8
1-0_本体
  6
Continuous
 62
     7
 48
0.5
370
    35
100
AcDbLine
 10
3050.450438798551
 20
7657.6707064874
 30
0.0
 11
3010.450438798551
 21
7657.6707064874
 31
0.0
  0
LINE
  5
38C04
330
1E
100
AcDbEntity
  8
1-0_本体
  6
Continuous
 62
     7
 48
0.5
370
    35
100
AcDbLine
 10
3048.034656737763
 20
7651.086488548187
 30
0.0
 11
3052.071759142112
 21
7647.04938614384
 31
0.0
  0
LINE
  5
38C05
330
1E
100
AcDbEntity
  8
1-0_本体
  6
Continuous
 62
     7
 48
0.5
370
    35
100
AcDbLine
 10
3022.866244931798
 20
7651.086512620647
 30
0.0
 11
3018.82911845499
 21
7647.04938614384
 31
0.0
  0
LINE
  5
38C06
330
1E
100
AcDbEntity
  8
1-0_本体
  6
Continuous
 62
     7
 48
0.5
370
    35
100
AcDbLine
 10
3052.950438798551
 20
7644.928065800282
 30
0.0
 11
3052.950438798551
 21
7642.670706487399
 31
0.0
  0
LINE
  5
38C07
330
1E
100
AcDbEntity
  8
1-0_本体
  6
Continuous
 62
     7
 48
0.5
370
    35
100
AcDbLine
 10
3017.950438798551
 20
7644.928065800282
 30
0.0
 11
3017.950438798551
 21
7642.670706487399
 31
0.0
  0
LINE
  5
38C0A
102
{ACAD_REACTORS
330
3E291
102
}
330
1E
100
AcDbEntity
  8
1-0_本体
  6
Continuous
 62
     7
 48
0.5
370
    35
100
AcDbLine
 10
3057.450438798551
 20
7642.670706487399
 30
0.0
 11
3013.450438798551
 21
7642.670706487399
 31
0.0
  0
ARC
  5
38C0B
102
{ACAD_REACTORS
330
3E291
102
}
330
1E
100
AcDbEntity
  8
1-0_本体
  6
Continuous
 62
     7
 48
0.5
370
    35
100
AcDbCircle
 10
3013.450438798551
 20
7639.6707064874
 30
0.0
 40
3.0
100
AcDbArc
 50
90.0
 51
180.0
  0
ARC
  5
38C0C
102
{ACAD_REACTORS
330
3E291
102
}
330
1E
100
AcDbEntity
  8
1-0_本体
  6
Continuous
 62
     7
 48
0.5
370
    35
100
AcDbCircle
 10
3057.450438798551
 20
7639.6707064874
 30
0.0
 40
3.0
100
AcDbArc
 50
0.0
 51
90.0
  0
LINE
  5
38C0E
330
1E
100
AcDbEntity
  8
1-1_本体2
  6
かくれ線
 62
     7
 48
0.5
370
    18
100
AcDbLine
 10
3047.95043879855
 20
7636.6707064874
 30
0.0
 11
3022.95043879855
 21
7636.670706487397
 31
0.0
  0
LINE
  5
38C0F
330
1E
100
AcDbEntity
  8
1-1_本体2
  6
かくれ線
 62
     7
 48
0.5
370
    18
100
AcDbLine
 10
3047.95043879855
 20
7642.670706487399
 30
0.0
 11
3047.95043879855
 21
7636.6707064874
 31
0.0
  0
LINE
  5
38C10
330
1E
100
AcDbEntity
  8
1-1_本体2
  6
かくれ線
 62
     7
 48
0.5
370
    18
100
AcDbLine
 10
3022.95043879855
 20
7642.670706487399
 30
0.0
 11
3022.95043879855
 21
7636.670706487397
 31
0.0
  0
ARC
  5
38C13
330
1E
100
AcDbEntity
  8
1-1_本体2
  6
かくれ線
 62
     7
 48
0.5
370
    18
100
AcDbCircle
 10
3094.437440266574
 20
7696.307370649352
 30
0.0
 40
83.29360867764135
100
AcDbArc
 50
216.2157194675729
 51
221.9096751332948
  0
LINE
  5
38C1A
330
1E
100
AcDbEntity
  8
1-1_本体2
  6
かくれ線
 62
     7
 48
0.5
370
    18
100
AcDbLine
 10
3047.950438798551
 20
7661.670706487401
 30
0.0
 11
3014.450438798551
 21
7661.670706487401
 31
0.0
  0
LINE
  5
38C1B
330
1E
100
AcDbEntity
  8
1-1_本体2
  6
かくれ線
 62
     7
 48
0.5
370
    18
100
AcDbLine
 10
3045.950438798551
 20
7707.6707064874
 30
0.0
 11
3012.450438798551
 21
7707.6707064874
 31
0.0
  0
LINE
  5
38C1C
330
1E
100
AcDbEntity
  8
1-1_本体2
  6
かくれ線
 62
     7
 48
0.5
370
    18
100
AcDbLine
 10
3047.950438798551
 20
7657.6707064874
 30
0.0
 11
3012.450438798551
 21
7657.6707064874
 31
0.0
  0
LINE
  5
38C1D
330
1E
100
AcDbEntity
  8
1-1_本体2
  6
かくれ線
 62
     7
 48
0.5
370
    18
100
AcDbLine
 10
3045.950438798551
 20
7703.670706487399
 30
0.0
 11
3014.450438798551
 21
7703.670706487399
 31
0.0
  0
LINE
  5
38C1E
330
1E
100
AcDbEntity
  8
1-1_本体2
  6
かくれ線
 62
     7
 48
0.5
370
    18
100
AcDbLine
 10
3045.950438798551
 20
7707.6707064874
 30
0.0
 11
3045.950438798551
 21
7703.670706487399
 31
0.0
  0
LINE
  5
38C1F
330
1E
100
AcDbEntity
  8
1-1_本体2
  6
かくれ線
 62
     7
 48
0.5
370
    18
100
AcDbLine
 10
3047.950438798551
 20
7661.670706487401
 30
0.0
 11
3047.950438798551
 21
7657.6707064874
 31
0.0
  0
LINE
  5
38C20
330
1E
100
AcDbEntity
  8
1-1_本体2
  6
かくれ線
 62
     7
 48
0.5
370
    18
100
AcDbLine
 10
3010.450438798551
 20
7705.6707064874
 30
0.0
 11
3010.450438798551
 21
7659.6707064874
 31
0.0
  0
ARC
  5
38C21
330
1E
100
AcDbEntity
  8
1-1_本体2
  6
かくれ線
 62
     7
 48
0.5
370
    18
100
AcDbCircle
 10
3012.450438798551
 20
7705.6707064874
 30
0.0
 40
2.0
100
AcDbArc
 50
90.0
 51
180.0
  0
ARC
  5
38C22
330
1E
100
AcDbEntity
  8
1-1_本体2
  6
かくれ線
 62
     7
 48
0.5
370
    18
100
AcDbCircle
 10
3012.450438798551
 20
7659.6707064874
 30
0.0
 40
2.0
100
AcDbArc
 50
180.0
 51
270.0
  0
LINE
  5
38C23
330
1E
100
AcDbEntity
  8
1-5_ビス2
  6
かくれ線
 62
     7
 48
0.5
370
    18
100
AcDbLine
 10
3014.450438798551
 20
7698.870706487404
 30
0.0
 11
3014.450438798551
 21
7691.438036487402
 31
0.0
  0
LINE
  5
38C24
330
1E
100
AcDbEntity
  8
1-5_ビス2
  6
かくれ線
 62
     7
 48
0.5
370
    18
100
AcDbLine
 10
3014.450438798551
 20
7691.438036487402
 30
0.0
 11
3014.450438798551
 21
7689.470706487402
 31
0.0
  0
ARC
  5
38C28
330
1E
100
AcDbEntity
  8
1-5_ビス2
  6
かくれ線
 62
     7
 48
0.5
370
    18
100
AcDbCircle
 10
3100.949885217513
 20
7692.670706487399
 30
0.0
 40
1.0
100
AcDbArc
 50
0.0
 51
90.0
  0
LINE
  5
38C29
330
1E
100
AcDbEntity
  8
1-5_ビス2
  6
かくれ線
 62
     7
 48
0.5
370
    18
100
AcDbLine
 10
3100.949885217513
 20
7693.6707064874
 30
0.0
 11
3100.449885217513
 21
7693.6707064874
 31
0.0
  0
LINE
  5
38C2A
330
1E
100
AcDbEntity
  8
1-5_ビス2
  6
かくれ線
 62
     7
 48
0.5
370
    18
100
AcDbLine
 10
3101.949885217513
 20
7692.670706487399
 30
0.0
 11
3101.949885217513
 21
7692.1707064874
 31
0.0
  0
ARC
  5
38C2B
330
1E
100
AcDbEntity
  8
1-5_ビス2
  6
かくれ線
 62
     7
 48
0.5
370
    18
100
AcDbCircle
 10
3103.949885217513
 20
7692.670706487399
 30
0.0
 40
1.0
100
AcDbArc
 50
90.0
 51
180.0
  0
LINE
  5
38C2C
330
1E
100
AcDbEntity
  8
1-5_ビス2
  6
かくれ線
 62
     7
 48
0.5
370
    18
100
AcDbLine
 10
3102.949885217513
 20
7692.670706487399
 30
0.0
 11
3102.949885217513
 21
7692.1707064874
 31
0.0
  0
LINE
  5
38C2D
330
1E
100
AcDbEntity
  8
1-5_ビス2
  6
かくれ線
 62
     7
 48
0.5
370
    18
100
AcDbLine
 10
3103.949885217513
 20
7693.6707064874
 30
0.0
 11
3104.449885217512
 21
7693.6707064874
 31
0.0
  0
ARC
  5
38C2E
330
1E
100
AcDbEntity
  8
1-5_ビス2
  6
かくれ線
 62
     7
 48
0.5
370
    18
100
AcDbCircle
 10
3103.949885217513
 20
7695.670706487399
 30
0.0
 40
1.0
100
AcDbArc
 50
180.0
 51
270.0
  0
LINE
  5
38C2F
330
1E
100
AcDbEntity
  8
1-5_ビス2
  6
かくれ線
 62
     7
 48
0.5
370
    18
100
AcDbLine
 10
3103.949885217513
 20
7694.6707064874
 30
0.0
 11
3104.449885217512
 21
7694.6707064874
 31
0.0
  0
LINE
  5
38C30
330
1E
100
AcDbEntity
  8
1-5_ビス2
  6
かくれ線
 62
     7
 48
0.5
370
    18
100
AcDbLine
 10
3102.949885217513
 20
7695.670706487399
 30
0.0
 11
3102.949885217513
 21
7696.1707064874
 31
0.0
  0
ARC
  5
38C31
330
1E
100
AcDbEntity
  8
1-5_ビス2
  6
かくれ線
 62
     7
 48
0.5
370
    18
100
AcDbCircle
 10
3100.949885217513
 20
7695.670706487399
 30
0.0
 40
1.0
100
AcDbArc
 50
270.0
 51
0.0
  0
LINE
  5
38C32
330
1E
100
AcDbEntity
  8
1-5_ビス2
  6
かくれ線
 62
     7
 48
0.5
370
    18
100
AcDbLine
 10
3101.949885217513
 20
7695.670706487399
 30
0.0
 11
3101.949885217513
 21
7696.1707064874
 31
0.0
  0
LINE
  5
38C33
330
1E
100
AcDbEntity
  8
1-5_ビス2
  6
かくれ線
 62
     7
 48
0.5
370
    18
100
AcDbLine
 10
3100.949885217513
 20
7694.6707064874
 30
0.0
 11
3100.449885217513
 21
7694.6707064874
 31
0.0
  0
LINE
  5
38C34
330
1E
100
AcDbEntity
  8
1-5_ビス2
  6
かくれ線
 62
     7
 48
0.5
370
    18
100
AcDbLine
 10
3104.449885217512
 20
7694.6707064874
 30
0.0
 11
3104.449885217512
 21
7693.6707064874
 31
0.0
  0
LINE
  5
38C35
330
1E
100
AcDbEntity
  8
1-5_ビス2
  6
かくれ線
 62
     7
 48
0.5
370
    18
100
AcDbLine
 10
3102.949885217513
 20
7692.1707064874
 30
0.0
 11
3101.949885217513
 21
7692.1707064874
 31
0.0
  0
LINE
  5
38C36
330
1E
100
AcDbEntity
  8
1-5_ビス2
  6
かくれ線
 62
     7
 48
0.5
370
    18
100
AcDbLine
 10
3100.449885217513
 20
7694.6707064874
 30
0.0
 11
3100.449885217513
 21
7693.6707064874
 31
0.0
  0
LINE
  5
38C37
330
1E
100
AcDbEntity
  8
1-5_ビス2
  6
かくれ線
 62
     7
 48
0.5
370
    18
100
AcDbLine
 10
3102.949885217513
 20
7696.1707064874
 30
0.0
 11
3101.949885217513
 21
7696.1707064874
 31
0.0
  0
CIRCLE
  5
38C38
330
1E
100
AcDbEntity
  8
1-5_ビス2
  6
かくれ線
 62
     7
 48
0.5
370
    18
100
AcDbCircle
 10
3102.449885217513
 20
7694.170706487399
 30
0.0
 40
4.0
  0
LINE
  5
38C39
330
1E
100
AcDbEntity
  8
1-A_中心
  6
中心線
 62
     6
 48
0.25
370
    18
100
AcDbLine
 10
3097.449885217513
 20
7694.170706487399
 30
0.0
 11
3107.449885217512
 21
7694.170706487399
 31
0.0
  0
LINE
  5
38C3A
330
1E
100
AcDbEntity
  8
1-A_中心
  6
中心線
 62
     6
 48
0.25
370
    18
100
AcDbLine
 10
3102.449885217513
 20
7699.1707064874
 30
0.0
 11
3102.449885217513
 21
7689.170706487399
 31
0.0
  0
ARC
  5
38C3C
102
{ACAD_REACTORS
330
3E293
102
}
330
1E
100
AcDbEntity
  8
1-0_本体
  6
Continuous
 62
     7
 48
0.5
370
    35
100
AcDbCircle
 10
3093.449885217512
 20
7639.6707064874
 30
0.0
 40
3.0
100
AcDbArc
 50
90.0
 51
180.0
  0
LINE
  5
38C3D
330
1E
100
AcDbEntity
  8
1-0_本体
  6
Continuous
 62
     7
 48
0.5
370
    35
100
AcDbLine
 10
3097.949885217513
 20
7646.1707064874
 30
0.0
 11
3097.949885217513
 21
7642.670706487399
 31
0.0
  0
DIMENSION
  5
38C43
330
1E
100
AcDbEntity
  8
1-B_寸法
  6
Continuous
 62
     3
 48
0.5
370
    18
100
AcDbDimension
280
     0
  2
*D4
 10
3082.950438798552
 20
7694.170706487399
 30
0.0
 11
3082.950438798551
 21
7682.170706487401
 31
0.0
 70
   160
 71
     5
 42
24.0
 73
     0
 74
     0
 75
     0
  3
ISO-25
100
AcDbAlignedDimension
 13
3090.449885217513
 23
7670.1707064874
 33
0.0
 14
3090.449885217513
 24
7694.170706487399
 34
0.0
 50
90.0
100
AcDbRotatedDimension
  0
DIMENSION
  5
38C44
330
1E
100
AcDbEntity
  8
1-B_寸法
  6
Continuous
 62
     3
 48
0.5
370
    18
100
AcDbDimension
280
     0
  2
*D5
 10
3082.950438798552
 20
7657.6707064874
 30
0.0
 11
3082.950438798551
 21
7663.9207064874
 31
0.0
 70
   160
 71
     5
 42
12.5
 73
     0
 74
     0
 75
     0
  3
ISO-25
100
AcDbAlignedDimension
 13
3090.449885217513
 23
7670.1707064874
 33
0.0
 14
3090.449885217513
 24
7657.6707064874
 34
0.0
 50
90.0
100
AcDbRotatedDimension
  0
DIMENSION
  5
38C46
330
1E
100
AcDbEntity
  8
1-B_寸法
  6
Continuous
 62
     3
 48
0.5
370
    18
100
AcDbDimension
280
     0
  2
*D6
 10
3075.450438798553
 20
7657.6707064874
 30
0.0
 11
3075.450438798553
 21
7654.6707064874
 31
0.0
 70
   160
 71
     5
 42
6.000000000000909
 73
     0
 74
     0
 75
     0
  3
ISO-25
100
AcDbAlignedDimension
 13
3060.450438798551
 23
7651.6707064874
 33
0.0
 14
3090.449885217513
 24
7657.6707064874
 34
0.0
 50
90.0
100
AcDbRotatedDimension
  0
LINE
  5
38C4B
102
{ACAD_REACTORS
330
3E291
102
}
330
1E
100
AcDbEntity
  8
1-0_本体
  6
Continuous
 62
     7
 48
0.5
370
    35
100
AcDbLine
 10
3060.450438798551
 20
7592.6707064874
 30
0.0
 11
3010.450438798551
 21
7592.6707064874
 31
0.0
  0
LINE
  5
38C59
330
1E
100
AcDbEntity
  8
1-3_付属
  6
かくれ線
 62
     7
 48
0.5
370
    18
100
AcDbLine
 10
3041.450438798551
 20
7590.6707064874
 30
0.0
 11
3029.450438798551
 21
7590.6707064874
 31
0.0
  0
LINE
  5
38C5A
330
1E
100
AcDbEntity
  8
1-3_付属
  6
かくれ線
 62
     7
 48
0.5
370
    18
100
AcDbLine
 10
3029.450438798551
 20
7592.6707064874
 30
0.0
 11
3029.450438798551
 21
7590.6707064874
 31
0.0
  0
LINE
  5
38C5B
330
1E
100
AcDbEntity
  8
1-3_付属
  6
かくれ線
 62
     7
 48
0.5
370
    18
100
AcDbLine
 10
3041.450438798551
 20
7592.6707064874
 30
0.0
 11
3041.450438798551
 21
7590.6707064874
 31
0.0
  0
LINE
  5
38C5C
330
1E
100
AcDbEntity
  8
1-3_付属
  6
かくれ線
 62
     7
 48
0.5
370
    18
100
AcDbLine
 10
3029.450438798551
 20
7570.670706487399
 30
0.0
 11
3029.450438798551
 21
7590.6707064874
 31
0.0
  0
LINE
  5
38C5D
330
1E
100
AcDbEntity
  8
1-3_付属
  6
かくれ線
 62
     7
 48
0.5
370
    18
100
AcDbLine
 10
3041.450438798551
 20
7570.670706487399
 30
0.0
 11
3041.450438798551
 21
7590.6707064874
 31
0.0
  0
LINE
  5
38C73
102
{ACAD_REACTORS
330
3E291
102
}
330
1E
100
AcDbEntity
  8
1-0_本体
  6
Continuous
 62
     7
 48
0.5
370
    35
100
AcDbLine
 10
3010.450438798551
 20
7592.6707064874
 30
0.0
 11
3010.450438798551
 21
7639.6707064874
 31
0.0
  0
DIMENSION
  5
38C7B
330
1E
100
AcDbEntity
  8
1-B_寸法
  6
Continuous
 62
     3
 48
0.5
370
    18
100
AcDbDimension
280
     0
  2
*D7
 10
3067.950438798552
 20
7592.6707064874
 30
0.0
 11
3067.950438798551
 21
7617.670706487401
 31
0.0
 70
   160
 71
     5
 42
50.0
 73
     0
 74
     0
 75
     0
  3
ISO-25
100
AcDbAlignedDimension
 13
3060.450438798551
 23
7642.670706487399
 33
0.0
 14
3060.450438798551
 24
7592.6707064874
 34
0.0
 50
270.0
100
AcDbRotatedDimension
  0
DIMENSION
  5
38C7C
330
1E
100
AcDbEntity
  8
1-B_寸法
  6
Continuous
 62
     3
 48
0.5
370
    18
100
AcDbDimension
280
     0
  2
*D8
 10
3075.450438798553
 20
7592.6707064874
 30
0.0
 11
3075.450438798551
 21
7622.170706487399
 31
0.0
 70
   160
 71
     5
 42
59.0
 73
     0
 74
     0
 75
     0
  3
ISO-25
100
AcDbAlignedDimension
 13
3060.450438798551
 23
7651.6707064874
 33
0.0
 14
3060.450438798551
 24
7592.6707064874
 34
0.0
 50
90.0
100
AcDbRotatedDimension
  0
LINE
  5
38C7D
102
{ACAD_REACTORS
330
3E291
102
}
330
1E
100
AcDbEntity
  8
1-0_本体
  6
Continuous
 62
     7
 48
0.5
370
    35
100
AcDbLine
 10
3060.450438798551
 20
7592.6707064874
 30
0.0
 11
3060.450438798551
 21
7639.6707064874
 31
0.0
  0
LINE
  5
38C7E
330
1E
100
AcDbEntity
  8
1-5_ビス2
  6
かくれ線
 62
     7
 48
0.5
370
    18
100
AcDbLine
 10
3004.450438798551
 20
7768.590227678259
 30
0.0
 11
3014.450438798551
 21
7768.590227678259
 31
0.0
  0
LINE
  5
38C81
330
1E
100
AcDbEntity
  8
1-5_ビス2
  6
かくれ線
 62
     7
 48
0.5
370
    18
100
AcDbLine
 10
3004.450438798551
 20
7764.590227678259
 30
0.0
 11
3004.450438798551
 21
7768.590227678259
 31
0.0
  0
LINE
  5
38C85
330
1E
100
AcDbEntity
  8
1-5_ビス2
  6
かくれ線
 62
     7
 48
0.5
370
    18
100
AcDbLine
 10
3004.450438798551
 20
7764.590227678259
 30
0.0
 11
3014.450438798551
 21
7764.590227678259
 31
0.0
  0
ARC
  5
38C86
102
{ACAD_REACTORS
330
3E2AD
102
}
330
1E
100
AcDbEntity
  8
1-0_本体
  6
Continuous
 62
     7
 48
0.5
370
    35
100
AcDbCircle
 10
3035.45043879855
 20
7779.59022767826
 30
0.0
 40
25.0
100
AcDbArc
 50
237.1401196211067
 51
122.8598803788932
  0
ARC
  5
38C87
330
1E
100
AcDbEntity
  8
1-1_本体2
  6
かくれ線
 62
     7
 48
0.5
370
    18
100
AcDbCircle
 10
3035.45043879855
 20
7779.59022767826
 30
0.0
 40
17.5
100
AcDbArc
 50
39.51765279716325
 51
320.4823472028368
  0
LINE
  5
38C88
330
1E
100
AcDbEntity
  8
1-1_本体2
  6
かくれ線
 62
     7
 48
0.5
370
    18
100
AcDbLine
 10
3010.450438798551
 20
7760.340227678259
 30
0.0
 11
3045.950438798551
 21
7760.340227678259
 31
0.0
  0
LINE
  5
38C89
330
1E
100
AcDbEntity
  8
1-1_本体2
  6
かくれ線
 62
     7
 48
0.5
370
    18
100
AcDbLine
 10
3010.45043879855
 20
7798.840227678259
 30
0.0
 11
3045.950438798551
 21
7798.840227678259
 31
0.0
  0
LINE
  5
38C8A
102
{ACAD_REACTORS
330
3E2AD
102
}
330
1E
100
AcDbEntity
  8
1-0_本体
  6
Continuous
 62
     7
 48
0.5
370
    35
100
AcDbLine
 10
3043.950438798551
 20
7758.590227678261
 30
0.0
 11
3010.450438798551
 21
7758.590227678259
 31
0.0
  0
LINE
  5
38C8D
102
{ACAD_REACTORS
330
3E2AD
102
}
330
1E
100
AcDbEntity
  8
1-0_本体
  6
Continuous
 62
     7
 48
0.5
370
    35
100
AcDbLine
 10
3043.950438798551
 20
7800.590227678258
 30
0.0
 11
3010.450438798551
 21
7800.590227678258
 31
0.0
  0
LINE
  5
38C8E
330
1E
100
AcDbEntity
  8
1-0_本体
  6
Continuous
 62
     7
 48
0.5
370
    35
100
AcDbLine
 10
3010.450438798551
 20
7800.590227678258
 30
0.0
 11
3010.450438798551
 21
7758.590227678259
 31
0.0
  0
LINE
  5
38C8F
330
1E
100
AcDbEntity
  8
1-5_ビス2
  6
かくれ線
 62
     7
 48
0.5
370
    18
100
AcDbLine
 10
3004.450438798551
 20
7791.003557678262
 30
0.0
 11
3004.450438798551
 21
7794.24366767826
 31
0.0
  0
LINE
  5
38C90
330
1E
100
AcDbEntity
  8
1-1_本体2
  6
かくれ線
 62
     7
 48
0.5
370
    18
100
AcDbLine
 10
3043.450438798551
 20
7731.670706487399
 30
0.0
 11
3010.450438798551
 21
7731.670706487399
 31
0.0
  0
ARC
  5
38C91
330
1E
100
AcDbEntity
  8
1-1_本体2
  6
かくれ線
 62
     7
 48
0.5
370
    18
100
AcDbCircle
 10
3043.450438798551
 20
7727.6707064874
 30
0.0
 40
4.0
100
AcDbArc
 50
0.0
 51
90.0
  0
ARC
  5
38C92
330
1E
100
AcDbEntity
  8
1-1_本体2
  6
かくれ線
 62
     7
 48
0.5
370
    18
100
AcDbCircle
 10
3099.450155041986
 20
7727.669694782658
 30
0.0
 40
4.0
100
AcDbArc
 50
90.00386446219769
 51
180.0038644621716
  0
LINE
  5
38C94
102
{ACAD_REACTORS
330
3E2AD
102
}
330
1E
100
AcDbEntity
  8
1-A_中心
  6
中心線
 62
     6
 48
0.25
370
    18
100
AcDbLine
 10
3065.45043879855
 20
7779.59022767826
 30
0.0
 11
3005.45043879855
 21
7779.59022767826
 31
0.0
  0
ARC
  5
38C95
330
1E
100
AcDbEntity
  8
1-1_本体2
  6
かくれ線
 62
     7
 48
0.5
370
    18
100
AcDbCircle
 10
3035.45043879855
 20
7779.59022767826
 30
0.0
 40
25.0
100
AcDbArc
 50
122.8598803788932
 51
237.1401196211067
  0
LINE
  5
38C96
330
1E
100
AcDbEntity
  8
1-1_本体2
  6
かくれ線
 62
     7
 48
0.5
370
    18
100
AcDbLine
 10
3045.950438798551
 20
7760.340227678259
 30
0.0
 11
3045.950438798551
 21
7798.840227678259
 31
0.0
  0
LINE
  5
38C98
102
{ACAD_REACTORS
330
3E2AD
102
}
330
1E
100
AcDbEntity
  8
1-0_本体
  6
Continuous
 62
     7
 48
0.5
370
    35
100
AcDbLine
 10
3048.950438798551
 20
7763.590227678261
 30
0.0
 11
3048.950438798551
 21
7795.590227678257
 31
0.0
  0
ARC
  5
38C99
102
{ACAD_REACTORS
330
3E2AD
102
}
330
1E
100
AcDbEntity
  8
1-0_本体
  6
Continuous
 62
     7
 48
0.5
370
    35
100
AcDbCircle
 10
3043.950438798551
 20
7795.590227678257
 30
0.0
 40
5.0
100
AcDbArc
 50
0.0
 51
90.0
  0
ARC
  5
38C9A
102
{ACAD_REACTORS
330
3E2AD
102
}
330
1E
100
AcDbEntity
  8
1-0_本体
  6
Continuous
 62
     7
 48
0.5
370
    35
100
AcDbCircle
 10
3043.950438798551
 20
7763.590227678261
 30
0.0
 40
5.0
100
AcDbArc
 50
270.0
 51
0.0
  0
LINE
  5
38C9B
330
1E
100
AcDbEntity
  8
1-2_扉･枠
  6
想像線
 62
     4
 48
0.25
370
    18
100
AcDbLine
 10
3010.450438798551
 20
7807.090227678258
 30
0.0
 11
3010.450438798551
 21
7753.488799668089
 31
0.0
  0
LINE
  5
38CA0
330
1E
100
AcDbEntity
  8
1-5_ビス2
  6
かくれ線
 62
     7
 48
0.5
370
    18
100
AcDbLine
 10
3014.450440971544
 20
7797.290227807083
 30
0.0
 11
3014.450438798551
 21
7787.890227678262
 31
0.0
  0
LINE
  5
38CA1
330
1E
100
AcDbEntity
  8
1-5_ビス2
  6
かくれ線
 62
     7
 48
0.5
370
    18
100
AcDbLine
 10
3014.450438798551
 20
7794.590227678259
 30
0.0
 11
3014.450438798551
 21
7790.59022767826
 31
0.0
  0
LINE
  5
38CAA
330
1E
100
AcDbEntity
  8
1-A_中心
  6
中心線
 62
     6
 48
0.25
370
    18
100
AcDbLine
 10
3018.654538798551
 20
7792.590227678259
 30
0.0
 11
3002.558838798551
 21
7792.590227678259
 31
0.0
  0
LINE
  5
38CAB
330
1E
100
AcDbEntity
  8
1-1_本体2
  6
かくれ線
 62
     7
 48
0.5
370
    18
100
AcDbLine
 10
3014.450438798551
 20
7760.340227678259
 30
0.0
 11
3014.450438798551
 21
7798.840227678259
 31
0.0
  0
ARC
  5
38CAC
330
1E
100
AcDbEntity
  8
1-5_ビス2
  6
かくれ線
 62
     7
 48
0.5
370
    18
100
AcDbCircle
 10
3012.598878798551
 20
7766.590227678259
 30
0.0
 40
5.0515625
100
AcDbArc
 50
291.5019399999914
 51
68.49807000002518
  0
LINE
  5
38CAF
330
1E
100
AcDbEntity
  8
1-5_ビス2
  6
かくれ線
 62
     7
 48
0.5
370
    18
100
AcDbLine
 10
3014.85043879855
 20
7762.068197678259
 30
0.0
 11
3014.85043879855
 21
7771.112257678258
 31
0.0
  0
LINE
  5
38CB0
330
1E
100
AcDbEntity
  8
1-5_ビス2
  6
かくれ線
 62
     7
 48
0.5
370
    18
100
AcDbLine
 10
3014.450438798551
 20
7769.322897678256
 30
0.0
 11
3014.450438798551
 21
7771.290227678256
 31
0.0
  0
LINE
  5
38CB1
330
1E
100
AcDbEntity
  8
1-5_ビス2
  6
かくれ線
 62
     7
 48
0.5
370
    18
100
AcDbLine
 10
3014.450438798551
 20
7761.890227678255
 30
0.0
 11
3014.450438798551
 21
7771.290227678256
 31
0.0
  0
LINE
  5
38CB2
330
1E
100
AcDbEntity
  8
1-A_中心
  6
中心線
 62
     6
 48
0.25
370
    18
100
AcDbLine
 10
3019.65044129855
 20
7766.590228293624
 30
0.0
 11
3002.450438798551
 21
7766.590227678259
 31
0.0
  0
ARC
  5
38CB3
102
{ACAD_REACTORS
330
3E2AD
102
}
330
1E
100
AcDbEntity
  8
1-0_本体
  6
Continuous
 62
     7
 48
0.5
370
    35
100
AcDbCircle
 10
3035.45043879855
 20
7779.59022767826
 30
0.0
 40
17.5
100
AcDbArc
 50
320.4823472028368
 51
39.51765279716325
  0
ARC
  5
38CB6
330
1E
100
AcDbEntity
  8
1-0_本体
  6
Continuous
 62
     7
 48
0.5
370
    35
100
AcDbCircle
 10
3099.449885217512
 20
7727.6707064874
 30
0.0
 40
5.0
100
AcDbArc
 50
90.0
 51
180.0
  0
ARC
  5
38CB7
330
1E
100
AcDbEntity
  8
1-0_本体
  6
Continuous
 62
     7
 48
0.5
370
    35
100
AcDbCircle
 10
3043.450438798551
 20
7727.6707064874
 30
0.0
 40
5.0
100
AcDbArc
 50
0.0
 51
90.0
  0
LINE
  5
38CB8
330
1E
100
AcDbEntity
  8
1-0_本体
  6
Continuous
 62
     7
 48
0.5
370
    35
100
AcDbLine
 10
3043.450438798551
 20
7732.6707064874
 30
0.0
 11
3010.450438798551
 21
7732.6707064874
 31
0.0
  0
DIMENSION
  5
38CBA
330
1E
100
AcDbEntity
  8
1-B_寸法
  6
Continuous
 62
     3
 48
0.5
370
    18
100
AcDbDimension
280
     0
  2
*D9
 10
3082.950438798552
 20
7754.59022767826
 30
0.0
 11
3082.950438798551
 21
7779.59022767826
 31
0.0
 70
   160
  1
φ50
 71
     5
 42
50.0
 73
     0
 74
     0
 75
     0
  3
ISO-25
100
AcDbAlignedDimension
 13
3060.450438798551
 23
7804.59022767826
 33
0.0
 14
3060.450438798551
 24
7754.59022767826
 34
0.0
 50
90.0
100
AcDbRotatedDimension
  0
DIMENSION
  5
38CBB
330
1E
100
AcDbEntity
  8
1-B_寸法
  6
Continuous
 62
     3
 48
0.5
370
    18
100
AcDbDimension
280
     0
  2
*D10
 10
3075.450438798555
 20
7758.590227678261
 30
0.0
 11
3075.450438798553
 21
7779.61486594601
 31
0.0
 70
   160
 71
     5
 42
41.99999999999636
 73
     0
 74
     0
 75
     0
  3
ISO-25
100
AcDbAlignedDimension
 13
3060.450438798551
 23
7800.590227678258
 33
0.0
 14
3060.450438798551
 24
7758.590227678261
 34
0.0
 50
90.0
100
AcDbRotatedDimension
  0
DIMENSION
  5
38CBD
330
1E
100
AcDbEntity
  8
1-B_寸法
  6
Continuous
 62
     3
 48
0.5
370
    18
100
AcDbDimension
280
     0
  2
*D11
 10
2996.550438798552
 20
7766.590227678259
 30
0.0
 11
2996.550438798551
 21
7779.590227678261
 31
0.0
 70
   160
 71
     5
 42
26.0
 73
     0
 74
     0
 75
     0
  3
ISO-25
100
AcDbAlignedDimension
 13
3004.450438798551
 23
7792.590227678259
 33
0.0
 14
3004.450438798551
 24
7766.590227678259
 34
0.0
 50
90.0
100
AcDbRotatedDimension
  0
DIMENSION
  5
38CBE
330
1E
100
AcDbEntity
  8
1-B_寸法
  6
Continuous
 62
     3
 48
0.5
370
    18
100
AcDbDimension
280
     0
  2
*D12
 10
3035.45043879855
 20
7740.170706487401
 30
0.0
 11
3022.950438798551
 21
7740.170706487401
 31
0.0
 70
   160
 71
     5
 42
24.99999999999909
 73
     0
 74
     0
 75
     0
  3
ISO-25
100
AcDbAlignedDimension
 13
3010.450438798551
 23
7732.6707064874
 33
0.0
 14
3035.45043879855
 24
7732.6707064874
 34
0.0
100
AcDbRotatedDimension
  0
LINE
  5
38CC1
102
{ACAD_REACTORS
330
3E293
102
}
330
1E
100
AcDbEntity
  8
1-0_本体
  6
Continuous
 62
     7
 48
0.5
370
    35
100
AcDbLine
 10
3140.449885217513
 20
7592.6707064874
 30
0.0
 11
3090.449885217513
 21
7592.6707064874
 31
0.0
  0
LINE
  5
38CC3
330
1E
100
AcDbEntity
  8
1-1_本体2
  6
かくれ線
 62
     7
 48
0.5
370
    18
100
AcDbLine
 10
3131.44975467379
 20
7731.670739119071
 30
0.0
 11
3099.449885251629
 21
7731.669694773559
 31
0.0
  0
LINE
  5
38CC5
330
1E
100
AcDbEntity
  8
1-0_本体
  6
Continuous
 62
     7
 48
0.5
370
    35
100
AcDbLine
 10
3131.449885217507
 20
7732.670706487401
 30
0.0
 11
3099.449885217512
 21
7732.6707064874
 31
0.0
  0
LINE
  5
38CC6
102
{ACAD_REACTORS
330
3E293
102
}
330
1E
100
AcDbEntity
  8
1-0_本体
  6
Continuous
 62
     7
 48
0.5
370
    35
100
AcDbLine
 10
3137.449885217513
 20
7642.670706487399
 30
0.0
 11
3093.449885217513
 21
7642.670706487399
 31
0.0
  0
DIMENSION
  5
38CC9
330
1E
100
AcDbEntity
  8
1-B_寸法
  6
Continuous
 62
     3
 48
0.5
370
    18
100
AcDbDimension
280
     0
  2
*D13
 10
3136.449885217512
 20
7740.170706487401
 30
0.0
 11
3115.449885217509
 21
7740.170706487401
 31
0.0
 70
   160
 71
     5
 42
42.0
 73
     0
 74
     0
 75
     0
  3
ISO-25
100
AcDbAlignedDimension
 13
3094.449885217512
 23
7732.6707064874
 33
0.0
 14
3136.449885217512
 24
7732.670706487401
 34
0.0
100
AcDbRotatedDimension
  0
DIMENSION
  5
38CCA
330
1E
100
AcDbEntity
  8
1-B_寸法
  6
Continuous
 62
     3
 48
0.5
370
    18
100
AcDbDimension
280
     0
  2
*D14
 10
3128.451023502753
 20
7709.1707064874
 30
0.0
 11
3115.450454360133
 21
7711.295706487399
 31
0.0
 70
    32
 71
     5
 42
26.00113828524036
 73
     0
 74
     0
 75
     0
  3
ISO-25
100
AcDbAlignedDimension
 13
3102.449885217513
 23
7698.1707064874
 33
0.0
 14
3128.451023502753
 24
7698.170706325438
 34
0.0
100
AcDbRotatedDimension
  0
DIMENSION
  5
38CCB
330
1E
100
AcDbEntity
  8
1-B_寸法
  6
Continuous
 62
     3
 48
0.5
370
    18
100
AcDbDimension
280
     0
  2
*D15
 10
3090.449885217513
 20
7607.6707064874
 30
0.0
 11
3115.449885217512
 21
7607.6707064874
 31
0.0
 70
   160
  1
φ50
 71
     5
 42
50.0
 73
     0
 74
     0
 75
     0
  3
ISO-25
100
AcDbAlignedDimension
 13
3140.449885217513
 23
7600.1707064874
 33
0.0
 14
3090.449885217513
 24
7600.1707064874
 34
0.0
100
AcDbRotatedDimension
  0
LINE
  5
38CCC
330
1E
100
AcDbEntity
  8
1-0_本体
  6
Continuous
 62
     7
 48
0.5
370
    35
100
AcDbLine
 10
3136.449885217512
 20
7657.6707064874
 30
0.0
 11
3094.449885217512
 21
7657.6707064874
 31
0.0
  0
LINE
  5
38CCF
102
{ACAD_REACTORS
330
3E293
102
}
330
1E
100
AcDbEntity
  8
1-0_本体
  6
Continuous
 62
     7
 48
0.5
370
    35
100
AcDbLine
 10
3140.449885217513
 20
7592.6707064874
 30
0.0
 11
3090.449885217513
 21
7592.6707064874
 31
0.0
  0
LINE
  5
399EA
330
1E
100
AcDbEntity
  8
1-2_扉･枠
  6
想像線
 62
     4
 48
0.25
370
    18
100
AcDbLine
 10
3008.850438798551
 20
7602.675385952635
 30
0.0
 11
3008.850438798551
 21
7747.765222169739
 31
0.0
  0
LINE
  5
399EC
330
1E
100
AcDbEntity
  8
1-2_扉･枠
  6
想像線
 62
     4
 48
0.25
370
    18
100
AcDbLine
 10
2972.050438798551
 20
7602.675385952635
 30
0.0
 11
2972.050438798551
 21
7753.904829659879
 31
0.0
  0
MTEXT
  5
399ED
330
1E
100
AcDbEntity
  8
1-C_文字
  6
Continuous
 62
     3
 48
0.5
370
    18
100
AcDbMText
 10
2987.943629075346
 20
7738.42330591254
 30
0.0
 40
3.0
 41
12.0837
 46
0.0
 71
     1
 72
     1
  1
補強板
  7
明朝
 73
     1
 44
1.0
  0
DIMENSION
  5
39A58
330
1E
100
AcDbEntity
  8
1-B_寸法
  6
Continuous
 62
     3
 48
0.5
370
    18
100
AcDbDimension
280
     0
  2
*D17
 10
2996.550438798552
 20
7657.6707064874
 30
0.0
 11
2996.550438798551
 21
7663.920706487401
 31
0.0
 70
   160
 71
     5
 42
12.49999985331214
 73
     0
 74
     0
 75
     0
  3
ISO-25
100
AcDbAlignedDimension
 13
3004.450438798551
 23
7670.170706340712
 33
0.0
 14
3004.450438798551
 24
7657.6707064874
 34
0.0
 50
90.0
100
AcDbRotatedDimension
  0
DIMENSION
  5
39A59
330
1E
100
AcDbEntity
  8
1-B_寸法
  6
Continuous
 62
     3
 48
0.5
370
    18
100
AcDbDimension
280
     0
  2
*D16
 10
2996.550438798552
 20
7694.170706487399
 30
0.0
 11
2996.550438798551
 21
7682.170706487401
 31
0.0
 70
   160
 71
     5
 42
24.0000000715554
 73
     0
 74
     0
 75
     0
  3
ISO-25
100
AcDbAlignedDimension
 13
3004.450438798551
 23
7670.170706415844
 33
0.0
 14
3004.450438798551
 24
7694.170706487399
 34
0.0
 50
90.0
100
AcDbRotatedDimension
  0
MTEXT
  5
3A3ED
330
1E
100
AcDbEntity
  8
1-C_文字
  6
Continuous
 62
     3
 48
0.5
370
    18
100
AcDbMText
 10
2996.940306662918
 20
7564.16865166893
 30
0.0
 40
3.0
 41
136.6051
 46
0.0
 71
     1
 72
     1
  1
\P{\fＭＳ ゴシック|b0|i0|c128|p49;アンカーボルト・Ｍ１２×７０付です。 注)外部扉には使用しないで下さい。}
 73
     1
 44
1.0
  0
LINE
  5
3B7CC
330
1E
100
AcDbEntity
  8
図枠
 62
   110
 48
0.5
370
    35
100
AcDbLine
 10
2783.450438798551
 20
7537.766041329998
 30
0.0
 11
3133.450438798551
 21
7537.766041329998
 31
0.0
  0
MTEXT
  5
3B7CD
330
1E
100
AcDbEntity
  8
1-C_文字
  6
Continuous
 62
     7
 48
0.5
370
    18
100
AcDbMText
 10
2933.450438798551
 20
7541.766041329997
 30
0.0
 40
3.0
 41
0.0
 46
0.0
 71
     4
 72
     5
  1
　　　　戸当り
  7
明朝
 73
     1
 44
1.0
  0
MTEXT
  5
3B7CE
330
1E
100
AcDbEntity
  8
1-C_文字
  6
Continuous
 62
     7
 48
0.5
370
    18
100
AcDbMText
 10
2788.450438798551
 20
7541.766041329997
 30
0.0
 40
3.0
 41
0.0
 46
0.0
 71
     4
 72
     5
  1
いわきエンジニアリング株式会社
  7
明朝
 73
     1
 44
1.0
  0
MTEXT
  5
3B7CF
330
1E
100
AcDbEntity
  8
1-C_文字
  6
Continuous
 62
     7
 48
0.5
370
    18
100
AcDbMText
 10
2928.450438798551
 20
7544.766041329997
 30
0.0
 40
1.5
 41
0.0
 46
0.0
 71
     4
 72
     5
  1
名称
  7
明朝
 73
     1
 44
1.0
  0
MTEXT
  5
3B7D1
330
1E
100
AcDbEntity
  8
1-C_文字
  6
Continuous
 62
     7
 48
0.5
370
    18
100
AcDbMText
 10
2853.450438798551
 20
7544.766041329997
 30
0.0
 40
1.5
 41
0.0
 46
0.0
 71
     4
 72
     5
  1
形式
  7
明朝
 73
     1
 44
1.0
  0
LINE
  5
3B7D2
330
1E
100
AcDbEntity
  8
図枠
  6
Continuous
 62
   110
 48
0.5
370
    35
100
AcDbLine
 10
2853.450438798551
 20
7553.766041329997
 30
0.0
 11
2853.450438798551
 21
7537.766041329998
 31
0.0
  0
MTEXT
  5
3B7D3
330
1E
100
AcDbEntity
  8
1-C_文字
  6
Continuous
 62
     7
 48
0.5
370
    18
100
AcDbMText
 10
2858.450438798551
 20
7541.766041329997
 30
0.0
 40
3.0
 41
0.0
 46
0.0
 71
     4
 72
     5
  1
　　　ＤＳ－４
  7
明朝
 73
     1
 44
1.0
  0
MTEXT
  5
3B7D5
330
1E
100
AcDbEntity
  8
1-C_文字
  6
Continuous
 62
     7
 48
0.5
370
    18
100
AcDbMText
 10
3113.450438798551
 20
7541.766041329997
 30
0.0
 40
3.0
 41
0.0
 46
0.0
 71
     4
 72
     5
  1
１：１
  7
明朝
 73
     1
 44
1.0
  0
MTEXT
  5
3B7D6
330
1E
100
AcDbEntity
  8
1-C_文字
  6
Continuous
 62
     7
 48
0.5
370
    18
100
AcDbMText
 10
3083.450438798552
 20
7541.766041329997
 30
0.0
 40
3.0
 41
0.0
 46
0.0
 71
     4
 72
     5
  1
０.６５ｋｇ
  7
明朝
 73
     1
 44
1.0
  0
MTEXT
  5
3B7D7
330
1E
100
AcDbEntity
  8
1-C_文字
  6
Continuous
 62
     7
 48
0.5
370
    18
100
AcDbMText
 10
3008.450438798551
 20
7541.766041329997
 30
0.0
 40
2.5
 41
0.0
 46
0.0
 71
     4
 72
     5
  1
　　 ゴム(黒)　ステンレス　ヘアライン\P　　 黄銅　ダルクロームメッキ
  7
明朝
 73
     1
 44
1.0
  0
LINE
  5
3B7D8
330
1E
100
AcDbEntity
  8
図枠
  6
Continuous
 62
   110
 48
0.5
370
    35
100
AcDbLine
 10
3133.450438798551
 20
7553.766041329997
 30
0.0
 11
3133.450438798551
 21
7537.766041329998
 31
0.0
  0
MTEXT
  5
3B7D9
330
1E
100
AcDbEntity
  8
1-C_文字
  6
Continuous
 62
     7
 48
0.5
370
    18
100
AcDbMText
 10
3078.450438798552
 20
7544.766041329997
 30
0.0
 40
1.5
 41
0.0
 46
0.0
 71
     4
 72
     5
  1
製品重量
  7
明朝
 73
     1
 44
1.0
  0
MTEXT
  5
3B7DA
330
1E
100
AcDbEntity
  8
1-C_文字
  6
Continuous
 62
     7
 48
0.5
370
    18
100
AcDbMText
 10
3108.450438798551
 20
7544.766041329997
 30
0.0
 40
1.5
 41
0.0
 46
0.0
 71
     4
 72
     5
  1
縮尺
  7
明朝
 73
     1
 44
1.0
  0
MTEXT
  5
3B7DB
330
1E
100
AcDbEntity
  8
1-C_文字
  6
Continuous
 62
     7
 48
0.5
370
    18
100
AcDbMText
 10
3003.450438798551
 20
7544.766041329997
 30
0.0
 40
1.5
 41
0.0
 46
0.0
 71
     4
 72
     5
  1
材料・仕上
  7
明朝
 73
     1
 44
1.0
  0
LINE
  5
3B7DC
330
1E
100
AcDbEntity
  8
図枠
  6
Continuous
 62
   110
 48
0.5
370
    35
100
AcDbLine
 10
3003.450438798551
 20
7553.766041329997
 30
0.0
 11
3003.450438798551
 21
7537.766041329998
 31
0.0
  0
LINE
  5
3B7DE
330
1E
100
AcDbEntity
  8
図枠
  6
Continuous
 62
   110
 48
0.5
370
    35
100
AcDbLine
 10
3108.450438798551
 20
7553.766041329997
 30
0.0
 11
3108.450438798551
 21
7537.766041329998
 31
0.0
  0
LINE
  5
3B7DF
330
1E
100
AcDbEntity
  8
図枠
  6
Continuous
 62
   110
 48
0.5
370
    35
100
AcDbLine
 10
2783.450438798551
 20
7545.766041329997
 30
0.0
 11
3133.450438798551
 21
7545.766041329997
 31
0.0
  0
LINE
  5
3B7E3
330
1E
100
AcDbEntity
  8
図枠
  6
Continuous
 62
   110
 48
0.5
370
    35
100
AcDbLine
 10
2783.450438798551
 20
7545.766041329997
 30
0.0
 11
2783.450438798551
 21
7537.766041329998
 31
0.0
  0
MTEXT
  5
3B7E5
330
1E
100
AcDbEntity
  8
1-C_文字
  6
Continuous
 62
     7
 48
0.5
370
    18
100
AcDbMText
 10
3143.450438798551
 20
7541.766041329997
 30
0.0
 40
4.0
 41
0.0
 46
0.0
 71
     4
 72
     5
  1
３１
  7
明朝
 73
     1
 44
1.0
  0
LINE
  5
3B8D8
330
1E
100
AcDbEntity
  8
図枠
  6
Continuous
 62
   110
 48
0.5
370
    35
100
AcDbLine
 10
3078.450438798552
 20
7553.664518487358
 30
0.0
 11
3078.450438798552
 21
7537.766041329998
 31
0.0
  0
LINE
  5
3B8E7
330
1E
100
AcDbEntity
  8
図枠
  6
Continuous
 62
   110
 48
0.5
370
    35
100
AcDbLine
 10
2928.450438798551
 20
7553.766041329997
 30
0.0
 11
2928.450438798551
 21
7537.766041329998
 31
0.0
  0
LINE
  5
3BA0D
330
1E
100
AcDbEntity
  8
1-3_付属
  6
かくれ線
 62
     7
 48
0.5
370
    18
100
AcDbLine
 10
2878.45043879855
 20
7617.670706487398
 30
0.0
 11
2868.450438798551
 21
7617.670706487398
 31
0.0
  0
LINE
  5
3BA0E
330
1E
100
AcDbEntity
  8
1-3_付属
  6
かくれ線
 62
     7
 48
0.5
370
    18
100
AcDbLine
 10
2879.450438798551
 20
7616.670706487399
 30
0.0
 11
2867.450438798551
 21
7616.670706487399
 31
0.0
  0
LINE
  5
3BA0F
330
1E
100
AcDbEntity
  8
1-3_付属
  6
かくれ線
 62
     7
 48
0.5
370
    18
100
AcDbLine
 10
2867.450438798551
 20
7616.670706487399
 30
0.0
 11
2868.450438798551
 21
7617.670706487398
 31
0.0
  0
LINE
  5
3BA10
330
1E
100
AcDbEntity
  8
1-3_付属
  6
かくれ線
 62
     7
 48
0.5
370
    18
100
AcDbLine
 10
2879.450438798551
 20
7616.670706487399
 30
0.0
 11
2878.45043879855
 21
7617.670706487398
 31
0.0
  0
ARC
  5
3BA11
330
1E
100
AcDbEntity
  8
1-3_付属
  6
かくれ線
 62
     7
 48
0.5
370
    18
100
AcDbCircle
 10
2873.450438798551
 20
7617.670706487398
 30
0.0
 40
3.75
100
AcDbArc
 50
111.0394697813156
 51
180.0
  0
LINE
  5
3BA13
330
1E
100
AcDbEntity
  8
1-3_付属
  6
かくれ線
 62
     7
 48
0.5
370
    18
100
AcDbLine
 10
2874.796730000334
 20
7621.170706487397
 30
0.0
 11
2872.104147596767
 21
7621.170706487397
 31
0.0
  0
ARC
  5
3BA14
330
1E
100
AcDbEntity
  8
1-3_付属
  6
かくれ線
 62
     7
 48
0.5
370
    18
100
AcDbCircle
 10
2873.450438798551
 20
7617.670706487398
 30
0.0
 40
3.75
100
AcDbArc
 50
0.0
 51
68.96053021868436
  0
LINE
  5
3BA15
330
1E
100
AcDbEntity
  8
1-1_本体2
  6
かくれ線
 62
     7
 48
0.5
370
    18
100
AcDbLine
 10
2881.450438798551
 20
7596.670706487398
 30
0.0
 11
2865.450438798551
 21
7596.670706487398
 31
0.0
  0
LINE
  5
3BA16
330
1E
100
AcDbEntity
  8
1-1_本体2
  6
かくれ線
 62
     7
 48
0.5
370
    18
100
AcDbLine
 10
2882.450438798551
 20
7597.670706487399
 30
0.0
 11
2864.45043879855
 21
7597.670706487399
 31
0.0
  0
LINE
  5
3BA17
330
1E
100
AcDbEntity
  8
1-1_本体2
  6
かくれ線
 62
     7
 48
0.5
370
    18
100
AcDbLine
 10
2882.450438798551
 20
7611.670706487398
 30
0.0
 11
2882.450438798551
 21
7592.6707064874
 31
0.0
  0
LINE
  5
3BA18
330
1E
100
AcDbEntity
  8
1-1_本体2
  6
かくれ線
 62
     7
 48
0.5
370
    18
100
AcDbLine
 10
2864.450438798551
 20
7611.670706487398
 30
0.0
 11
2864.45043879855
 21
7592.670706487398
 31
0.0
  0
LINE
  5
3BA19
330
1E
100
AcDbEntity
  8
1-1_本体2
  6
かくれ線
 62
     7
 48
0.5
370
    18
100
AcDbLine
 10
2885.950438798551
 20
7611.670706487398
 30
0.0
 11
2860.950438798551
 21
7611.670706487398
 31
0.0
  0
LINE
  5
3BA2D
330
1E
100
AcDbEntity
  8
1-1_本体2
  6
かくれ線
 62
     7
 48
0.5
370
    18
100
AcDbLine
 10
2864.450438798551
 20
7597.670706487398
 30
0.0
 11
2865.450438798551
 21
7596.670706487398
 31
0.0
  0
LINE
  5
3BA2E
330
1E
100
AcDbEntity
  8
1-1_本体2
  6
かくれ線
 62
     7
 48
0.5
370
    18
100
AcDbLine
 10
2881.450438798551
 20
7596.670706487398
 30
0.0
 11
2882.450438798551
 21
7597.670706487398
 31
0.0
  0
LINE
  5
3BA3E
330
1E
100
AcDbEntity
  8
1-1_本体2
  6
かくれ線
 62
     7
 48
0.5
370
    18
100
AcDbLine
 10
2860.95043879855
 20
7635.670706487399
 30
0.0
 11
2860.950438798552
 21
7611.670706487398
 31
0.0
  0
LINE
  5
3BA3F
330
1E
100
AcDbEntity
  8
1-1_本体2
  6
かくれ線
 62
     7
 48
0.5
370
    18
100
AcDbLine
 10
2885.95043879855
 20
7642.670706487398
 30
0.0
 11
2885.950438798551
 21
7611.670706487398
 31
0.0
  0
LINE
  5
3BA43
330
1E
100
AcDbEntity
  8
1-1_本体2
  6
かくれ線
 62
     7
 48
0.5
370
    18
100
AcDbLine
 10
2885.950438798552
 20
7635.670706487399
 30
0.0
 11
2860.95043879855
 21
7635.670706487399
 31
0.0
  0
LINE
  5
3BA46
330
1E
100
AcDbEntity
  8
1-1_本体2
  6
かくれ線
 62
     7
 48
0.5
370
    18
100
AcDbLine
 10
2860.950438798552
 20
7635.670706487399
 30
0.0
 11
2861.950438798551
 21
7636.670706487399
 31
0.0
  0
LINE
  5
3BA47
330
1E
100
AcDbEntity
  8
1-1_本体2
  6
かくれ線
 62
     7
 48
0.5
370
    18
100
AcDbLine
 10
2885.950438798552
 20
7635.670706487399
 30
0.0
 11
2884.950438798551
 21
7636.670706487397
 31
0.0
  0
LINE
  5
3BA99
330
1E
100
AcDbEntity
  8
1-1_本体2
  6
かくれ線
 62
     7
 48
0.5
370
    18
100
AcDbLine
 10
2885.950438798552
 20
7636.670706487397
 30
0.0
 11
2860.95043879855
 21
7636.670706487399
 31
0.0
  0
LINE
  5
3BAB1
330
1E
100
AcDbEntity
  8
1-1_本体2
  6
かくれ線
 62
     7
 48
0.5
370
    18
100
AcDbLine
 10
2885.950438798552
 20
7641.670706487397
 30
0.0
 11
2860.95043879855
 21
7641.6707064874
 31
0.0
  0
LINE
  5
3BAB2
330
1E
100
AcDbEntity
  8
1-1_本体2
  6
かくれ線
 62
     7
 48
0.5
370
    18
100
AcDbLine
 10
2860.95043879855
 20
7635.670706487399
 30
0.0
 11
2860.95043879855
 21
7642.670706487398
 31
0.0
  0
LINE
  5
3BAD3
330
1E
100
AcDbEntity
  8
1-2_扉･枠
  6
想像線
 62
     4
 48
0.25
370
    18
100
AcDbLine
 10
2924.672212902452
 20
7592.6707064874
 30
0.0
 11
2908.644899557762
 21
7582.670706487398
 31
0.0
  0
LINE
  5
3BAD4
330
1E
100
AcDbEntity
  8
1-2_扉･枠
  6
想像線
 62
     4
 48
0.25
370
    18
100
AcDbLine
 10
2920.893987006354
 20
7592.6707064874
 30
0.0
 11
2904.866673661662
 21
7582.6707064874
 31
0.0
  0
LINE
  5
3BAD5
330
1E
100
AcDbEntity
  8
1-2_扉･枠
  6
想像線
 62
     4
 48
0.25
370
    18
100
AcDbLine
 10
2917.115761110253
 20
7592.6707064874
 30
0.0
 11
2901.088447765564
 21
7582.670706487398
 31
0.0
  0
LINE
  5
3BAD7
330
1E
100
AcDbEntity
  8
1-2_扉･枠
  6
想像線
 62
     4
 48
0.25
370
    18
100
AcDbLine
 10
2840.893987006353
 20
7592.670706487398
 30
0.0
 11
2824.866673661664
 21
7582.670706487398
 31
0.0
  0
LINE
  5
3BAD8
330
1E
100
AcDbEntity
  8
1-2_扉･枠
  6
想像線
 62
     4
 48
0.25
370
    18
100
AcDbLine
 10
2844.672212902454
 20
7592.6707064874
 30
0.0
 11
2828.644899557762
 21
7582.670706487398
 31
0.0
  0
LINE
  5
3BADA
330
1E
100
AcDbEntity
  8
1-2_扉･枠
  6
想像線
 62
     4
 48
0.25
370
    18
100
AcDbLine
 10
2837.115761110257
 20
7592.670706487398
 30
0.0
 11
2821.088447765566
 21
7582.670706487398
 31
0.0
  0
ARC
  5
3BAED
330
1E
100
AcDbEntity
  8
1-2_扉･枠
  6
想像線
 62
     4
 48
0.25
370
    18
100
AcDbCircle
 10
2842.084730570935
 20
7775.327670250259
 30
0.0
 40
27.97142325842796
100
AcDbArc
 50
241.0491325677341
 51
293.9746775970282
  0
ARC
  5
3BAEE
330
1E
100
AcDbEntity
  8
1-2_扉･枠
  6
想像線
 62
     4
 48
0.25
370
    18
100
AcDbCircle
 10
2815.005067963367
 20
7726.37571472784
 30
0.0
 40
27.97142325842796
100
AcDbArc
 50
61.049132567734
 51
114.3950672275964
  0
MTEXT
  5
3BAF5
330
1E
100
AcDbEntity
  8
1-C_文字
  6
Continuous
 62
     3
 48
0.5
370
    18
100
AcDbMText
 10
2825.880467607929
 20
7612.25986402425
 30
0.0
 40
4.0
 41
5.3009
 46
0.0
 71
     1
 72
     1
  1
扉
  7
明朝
 73
     1
 44
1.0
  0
MTEXT
  5
3BAF7
330
1E
100
AcDbEntity
  8
1-C_文字
  6
Continuous
 62
     3
 48
0.5
370
    18
100
AcDbMText
 10
2987.88046760793
 20
7613.624543489486
 30
0.0
 40
4.0
 41
5.3009
 46
0.0
 71
     1
 72
     1
  1
扉
  7
明朝
 73
     1
 44
1.0
  0
MTEXT
  5
3BAFA
330
1E
100
AcDbEntity
  8
1-C_文字
  6
Continuous
 62
     7
 48
0.5
370
    18
100
AcDbMText
 10
3113.450438798551
 20
7549.766041329997
 30
0.0
 40
3.0
 41
0.0
 46
0.0
 71
     4
 72
     5
  1
１：１
  7
明朝
 73
     1
 44
1.0
  0
MTEXT
  5
3BAFB
330
1E
100
AcDbEntity
  8
1-C_文字
  6
Continuous
 62
     7
 48
0.5
370
    18
100
AcDbMText
 10
3108.450438798551
 20
7552.766041329997
 30
0.0
 40
1.5
 41
0.0
 46
0.0
 71
     4
 72
     5
  1
縮尺
  7
明朝
 73
     1
 44
1.0
  0
MTEXT
  5
3BAFC
330
1E
100
AcDbEntity
  8
1-C_文字
  6
Continuous
 62
     7
 48
0.5
370
    18
100
AcDbMText
 10
3083.450438798552
 20
7549.766041329997
 30
0.0
 40
3.0
 41
0.0
 46
0.0
 71
     4
 72
     5
  1
０.３２ｋｇ
  7
明朝
 73
     1
 44
1.0
  0
MTEXT
  5
3BAFD
330
1E
100
AcDbEntity
  8
1-C_文字
  6
Continuous
 62
     7
 48
0.5
370
    18
100
AcDbMText
 10
3078.450438798552
 20
7552.766041329997
 30
0.0
 40
1.5
 41
0.0
 46
0.0
 71
     4
 72
     5
  1
製品重量
  7
明朝
 73
     1
 44
1.0
  0
MTEXT
  5
3BAFE
330
1E
100
AcDbEntity
  8
1-C_文字
  6
Continuous
 62
     7
 48
0.5
370
    18
100
AcDbMText
 10
3008.450438798551
 20
7549.766041329997
 30
0.0
 40
2.5
 41
0.0
 46
0.0
 71
     4
 72
     5
  1
　　 ゴム(黒)　黄銅
  7
明朝
 73
     1
 44
1.0
  0
MTEXT
  5
3BAFF
330
1E
100
AcDbEntity
  8
1-C_文字
  6
Continuous
 62
     7
 48
0.5
370
    18
100
AcDbMText
 10
3003.450438798551
 20
7552.766041329997
 30
0.0
 40
1.5
 41
0.0
 46
0.0
 71
     4
 72
     5
  1
材料・仕上
  7
明朝
 73
     1
 44
1.0
  0
MTEXT
  5
3BB00
330
1E
100
AcDbEntity
  8
1-C_文字
  6
Continuous
 62
     7
 48
0.5
370
    18
100
AcDbMText
 10
2933.450438798551
 20
7549.766041329997
 30
0.0
 40
3.0
 41
0.0
 46
0.0
 71
     4
 72
     5
  1
　　　　戸当り
  7
明朝
 73
     1
 44
1.0
  0
MTEXT
  5
3BB01
330
1E
100
AcDbEntity
  8
1-C_文字
  6
Continuous
 62
     7
 48
0.5
370
    18
100
AcDbMText
 10
2928.450438798551
 20
7552.766041329997
 30
0.0
 40
1.5
 41
0.0
 46
0.0
 71
     4
 72
     5
  1
名称
  7
明朝
 73
     1
 44
1.0
  0
MTEXT
  5
3BB02
330
1E
100
AcDbEntity
  8
1-C_文字
  6
Continuous
 62
     7
 48
0.5
370
    18
100
AcDbMText
 10
2858.450438798551
 20
7549.766041329997
 30
0.0
 40
3.0
 41
0.0
 46
0.0
 71
     4
 72
     5
  1
　　　ＤＳ－２
  7
明朝
 73
     1
 44
1.0
  0
MTEXT
  5
3BB03
330
1E
100
AcDbEntity
  8
1-C_文字
  6
Continuous
 62
     7
 48
0.5
370
    18
100
AcDbMText
 10
2853.450438798551
 20
7552.766041329997
 30
0.0
 40
1.5
 41
0.0
 46
0.0
 71
     4
 72
     5
  1
形式
  7
明朝
 73
     1
 44
1.0
  0
LINE
  5
3BB55
330
1E
100
AcDbEntity
  8
図枠
  6
Continuous
 62
   110
 48
0.5
370
    35
100
AcDbLine
 10
2853.450438798551
 20
7553.766041329997
 30
0.0
 11
3133.450438798551
 21
7553.766041329997
 31
0.0
  0
ARC
  5
3BDFA
330
1E
100
AcDbEntity
  8
1-2_扉･枠
  6
想像線
 62
     4
 48
0.25
370
    18
100
AcDbCircle
 10
2977.005067963367
 20
7726.375714727843
 30
0.0
 40
27.97142325842796
100
AcDbArc
 50
61.049132567734
 51
114.3950672275964
  0
ARC
  5
3BDFB
330
1E
100
AcDbEntity
  8
1-2_扉･枠
  6
想像線
 62
     4
 48
0.25
370
    18
100
AcDbCircle
 10
3004.084730570935
 20
7775.32767025026
 30
0.0
 40
27.97142325842796
100
AcDbArc
 50
241.0491325677341
 51
293.9746775970282
  0
LINE
  5
3BE38
330
1E
100
AcDbEntity
  8
1-2_扉･枠
  6
想像線
 62
     4
 48
0.25
370
    18
100
AcDbLine
 10
3006.550438798551
 20
7602.675385952635
 30
0.0
 11
3006.550438798551
 21
7747.465136229852
 31
0.0
  0
LINE
  5
3BE79
330
1E
100
AcDbEntity
  8
1-5_ビス2
  6
かくれ線
 62
     7
 48
0.5
370
    18
100
AcDbLine
 10
3004.450438798551
 20
7668.6707064874
 30
0.0
 11
3014.450438798551
 21
7668.6707064874
 31
0.0
  0
LINE
  5
3BE7A
330
1E
100
AcDbEntity
  8
1-5_ビス2
  6
かくれ線
 62
     7
 48
0.5
370
    18
100
AcDbLine
 10
3004.450438798551
 20
7671.670706487399
 30
0.0
 11
3014.450438798551
 21
7671.6707064874
 31
0.0
  0
LINE
  5
3BE7F
330
1E
100
AcDbEntity
  8
1-5_ビス2
  6
かくれ線
 62
     7
 48
0.5
370
    18
100
AcDbLine
 10
3004.450438798552
 20
7692.170706916724
 30
0.0
 11
3014.450438798551
 21
7692.170706916725
 31
0.0
  0
LINE
  5
3BE81
330
1E
100
AcDbEntity
  8
1-5_ビス2
  6
かくれ線
 62
     7
 48
0.5
370
    18
100
AcDbLine
 10
3004.450438798552
 20
7692.170706916724
 30
0.0
 11
3004.450438798551
 21
7696.170706916724
 31
0.0
  0
LINE
  5
3BE82
330
1E
100
AcDbEntity
  8
1-5_ビス2
  6
かくれ線
 62
     7
 48
0.5
370
    18
100
AcDbLine
 10
3004.450438798551
 20
7692.670706916725
 30
0.0
 11
3014.450438798551
 21
7692.670706916725
 31
0.0
  0
LINE
  5
3BE83
330
1E
100
AcDbEntity
  8
1-5_ビス2
  6
かくれ線
 62
     7
 48
0.5
370
    18
100
AcDbLine
 10
3004.450438798551
 20
7696.170706916724
 30
0.0
 11
3014.450438798551
 21
7696.170706916724
 31
0.0
  0
LINE
  5
3BE85
330
1E
100
AcDbEntity
  8
1-5_ビス2
  6
かくれ線
 62
     7
 48
0.5
370
    18
100
AcDbLine
 10
3004.450438798551
 20
7695.670706916724
 30
0.0
 11
3014.450438798551
 21
7695.670706916725
 31
0.0
  0
ARC
  5
3BE86
330
1E
100
AcDbEntity
  8
1-5_ビス2
  6
かくれ線
 62
     7
 48
0.5
370
    18
100
AcDbCircle
 10
3012.598878798551
 20
7694.170706916725
 30
0.0
 40
5.0515625
100
AcDbArc
 50
291.5019299999748
 51
68.49806000000862
  0
LINE
  5
3BE87
330
1E
100
AcDbEntity
  8
1-5_ビス2
  6
かくれ線
 62
     7
 48
0.5
370
    18
100
AcDbLine
 10
3014.85043879855
 20
7698.692736916725
 30
0.0
 11
3014.85043879855
 21
7689.648676916725
 31
0.0
  0
LINE
  5
3BE88
330
1E
100
AcDbEntity
  8
1-5_ビス2
  6
かくれ線
 62
     7
 48
0.5
370
    18
100
AcDbLine
 10
3014.450438798551
 20
7698.870706916729
 30
0.0
 11
3014.450440971544
 21
7689.470706787901
 31
0.0
  0
LINE
  5
3BE8B
330
1E
100
AcDbEntity
  8
1-A_中心
  6
中心線
 62
     6
 48
0.25
370
    18
100
AcDbLine
 10
3019.65044129855
 20
7694.17070630136
 30
0.0
 11
3002.450438798551
 21
7694.170706916724
 31
0.0
  0
LINE
  5
3BED7
330
1E
100
AcDbEntity
  8
1-3_付属
  6
かくれ線
 62
     7
 48
0.5
370
    18
100
AcDbLine
 10
3036.796730000335
 20
7621.170706487399
 30
0.0
 11
3034.104147596767
 21
7621.170706487399
 31
0.0
  0
ARC
  5
3BED8
330
1E
100
AcDbEntity
  8
1-3_付属
  6
かくれ線
 62
     7
 48
0.5
370
    18
100
AcDbCircle
 10
3035.450438798551
 20
7617.670706487399
 30
0.0
 40
3.75
100
AcDbArc
 50
0.0
 51
68.96053021868436
  0
LINE
  5
3BED9
330
1E
100
AcDbEntity
  8
1-3_付属
  6
かくれ線
 62
     7
 48
0.5
370
    18
100
AcDbLine
 10
3040.450438798551
 20
7617.670706487399
 30
0.0
 11
3030.450438798551
 21
7617.670706487399
 31
0.0
  0
LINE
  5
3BEDA
330
1E
100
AcDbEntity
  8
1-3_付属
  6
かくれ線
 62
     7
 48
0.5
370
    18
100
AcDbLine
 10
3041.450438798551
 20
7616.670706487399
 30
0.0
 11
3029.450438798551
 21
7616.670706487399
 31
0.0
  0
LINE
  5
3BEDB
330
1E
100
AcDbEntity
  8
1-3_付属
  6
かくれ線
 62
     7
 48
0.5
370
    18
100
AcDbLine
 10
3041.450438798551
 20
7592.6707064874
 30
0.0
 11
3041.450438798551
 21
7616.670706487399
 31
0.0
  0
LINE
  5
3BEDC
330
1E
100
AcDbEntity
  8
1-3_付属
  6
かくれ線
 62
     7
 48
0.5
370
    18
100
AcDbLine
 10
3041.450438798551
 20
7616.670706487399
 30
0.0
 11
3040.450438798551
 21
7617.670706487399
 31
0.0
  0
LINE
  5
3BEDD
330
1E
100
AcDbEntity
  8
1-3_付属
  6
かくれ線
 62
     7
 48
0.5
370
    18
100
AcDbLine
 10
3040.450438798551
 20
7592.6707064874
 30
0.0
 11
3040.450438798551
 21
7617.670706487399
 31
0.0
  0
LINE
  5
3BEDE
330
1E
100
AcDbEntity
  8
1-1_本体2
  6
かくれ線
 62
     7
 48
0.5
370
    18
100
AcDbLine
 10
3047.95043879855
 20
7642.670706487399
 30
0.0
 11
3047.950438798551
 21
7611.670706487399
 31
0.0
  0
LINE
  5
3BEDF
330
1E
100
AcDbEntity
  8
1-1_本体2
  6
かくれ線
 62
     7
 48
0.5
370
    18
100
AcDbLine
 10
3044.450438798551
 20
7611.670706487399
 30
0.0
 11
3044.450438798551
 21
7592.6707064874
 31
0.0
  0
LINE
  5
3BEE0
330
1E
100
AcDbEntity
  8
1-1_本体2
  6
かくれ線
 62
     7
 48
0.5
370
    18
100
AcDbLine
 10
3043.450438798551
 20
7596.670706487398
 30
0.0
 11
3044.450438798551
 21
7597.670706487399
 31
0.0
  0
LINE
  5
3BEE1
330
1E
100
AcDbEntity
  8
1-1_本体2
  6
かくれ線
 62
     7
 48
0.5
370
    18
100
AcDbLine
 10
3043.450438798551
 20
7596.670706487398
 30
0.0
 11
3027.450438798551
 21
7596.670706487398
 31
0.0
  0
LINE
  5
3BEE2
330
1E
100
AcDbEntity
  8
1-1_本体2
  6
かくれ線
 62
     7
 48
0.5
370
    18
100
AcDbLine
 10
3044.450438798551
 20
7597.6707064874
 30
0.0
 11
3026.45043879855
 21
7597.6707064874
 31
0.0
  0
LINE
  5
3BEE3
330
1E
100
AcDbEntity
  8
1-1_本体2
  6
かくれ線
 62
     7
 48
0.5
370
    18
100
AcDbLine
 10
3047.950438798551
 20
7611.670706487399
 30
0.0
 11
3022.950438798551
 21
7611.670706487399
 31
0.0
  0
ARC
  5
3BEE4
330
1E
100
AcDbEntity
  8
1-3_付属
  6
かくれ線
 62
     7
 48
0.5
370
    18
100
AcDbCircle
 10
3035.450438798551
 20
7617.670706487399
 30
0.0
 40
3.75
100
AcDbArc
 50
111.0394697813156
 51
180.0
  0
LINE
  5
3BEE5
330
1E
100
AcDbEntity
  8
1-3_付属
  6
かくれ線
 62
     7
 48
0.5
370
    18
100
AcDbLine
 10
3030.450438798551
 20
7592.6707064874
 30
0.0
 11
3030.450438798551
 21
7617.670706487399
 31
0.0
  0
LINE
  5
3BEE6
330
1E
100
AcDbEntity
  8
1-3_付属
  6
かくれ線
 62
     7
 48
0.5
370
    18
100
AcDbLine
 10
3029.450438798551
 20
7616.670706487399
 30
0.0
 11
3030.450438798551
 21
7617.670706487399
 31
0.0
  0
LINE
  5
3BEE7
330
1E
100
AcDbEntity
  8
1-3_付属
  6
かくれ線
 62
     7
 48
0.5
370
    18
100
AcDbLine
 10
3029.450438798551
 20
7592.6707064874
 30
0.0
 11
3029.450438798551
 21
7616.670706487399
 31
0.0
  0
LINE
  5
3BEE8
330
1E
100
AcDbEntity
  8
1-1_本体2
  6
かくれ線
 62
     7
 48
0.5
370
    18
100
AcDbLine
 10
3026.450438798551
 20
7611.670706487399
 30
0.0
 11
3026.45043879855
 21
7592.6707064874
 31
0.0
  0
LINE
  5
3BEE9
330
1E
100
AcDbEntity
  8
1-1_本体2
  6
かくれ線
 62
     7
 48
0.5
370
    18
100
AcDbLine
 10
3026.450438798551
 20
7597.670706487399
 30
0.0
 11
3027.450438798551
 21
7596.670706487398
 31
0.0
  0
LINE
  5
3BEEA
330
1E
100
AcDbEntity
  8
1-1_本体2
  6
かくれ線
 62
     7
 48
0.5
370
    18
100
AcDbLine
 10
3022.950438798551
 20
7635.6707064874
 30
0.0
 11
3022.950438798551
 21
7611.670706487399
 31
0.0
  0
LINE
  5
3BEEB
330
1E
100
AcDbEntity
  8
1-1_本体2
  6
かくれ線
 62
     7
 48
0.5
370
    18
100
AcDbLine
 10
3047.950438798551
 20
7635.670706487399
 30
0.0
 11
3022.950438798551
 21
7635.6707064874
 31
0.0
  0
LINE
  5
3BEEC
330
1E
100
AcDbEntity
  8
1-1_本体2
  6
かくれ線
 62
     7
 48
0.5
370
    18
100
AcDbLine
 10
3047.950438798551
 20
7636.670706487399
 30
0.0
 11
3022.950438798551
 21
7636.6707064874
 31
0.0
  0
LINE
  5
3BEED
330
1E
100
AcDbEntity
  8
1-1_本体2
  6
かくれ線
 62
     7
 48
0.5
370
    18
100
AcDbLine
 10
3047.950438798551
 20
7635.670706487399
 30
0.0
 11
3046.950438798551
 21
7636.670706487399
 31
0.0
  0
LINE
  5
3BEEE
330
1E
100
AcDbEntity
  8
1-1_本体2
  6
かくれ線
 62
     7
 48
0.5
370
    18
100
AcDbLine
 10
3022.950438798551
 20
7635.6707064874
 30
0.0
 11
3023.950438798551
 21
7636.6707064874
 31
0.0
  0
LINE
  5
3BEEF
330
1E
100
AcDbEntity
  8
1-1_本体2
  6
かくれ線
 62
     7
 48
0.5
370
    18
100
AcDbLine
 10
3022.950438798551
 20
7635.670706487399
 30
0.0
 11
3022.95043879855
 21
7642.670706487399
 31
0.0
  0
LINE
  5
3BEF0
330
1E
100
AcDbEntity
  8
1-1_本体2
  6
かくれ線
 62
     7
 48
0.5
370
    18
100
AcDbLine
 10
3047.950438798551
 20
7641.670706487399
 30
0.0
 11
3022.950438798551
 21
7641.6707064874
 31
0.0
  0
LINE
  5
3BEF1
330
1E
100
AcDbEntity
  8
1-2_扉･枠
  6
想像線
 62
     4
 48
0.25
370
    18
100
AcDbLine
 10
3090.449885217513
 20
7592.670706487398
 30
0.0
 11
3074.422571872822
 21
7582.670706487397
 31
0.0
  0
LINE
  5
3BEF2
330
1E
100
AcDbEntity
  8
1-2_扉･枠
  6
想像線
 62
     4
 48
0.25
370
    18
100
AcDbLine
 10
3086.671659321414
 20
7592.670706487398
 30
0.0
 11
3070.644345976722
 21
7582.670706487398
 31
0.0
  0
LINE
  5
3BEF3
330
1E
100
AcDbEntity
  8
1-2_扉･枠
  6
想像線
 62
     4
 48
0.25
370
    18
100
AcDbLine
 10
3082.893433425314
 20
7592.670706487398
 30
0.0
 11
3066.866120080625
 21
7582.670706487397
 31
0.0
  0
LINE
  5
3BEF4
330
1E
100
AcDbEntity
  8
1-2_扉･枠
  6
想像線
 62
     4
 48
0.25
370
    18
100
AcDbLine
 10
3010.450438798551
 20
7592.670706487398
 30
0.0
 11
2994.42312545386
 21
7582.670706487397
 31
0.0
  0
LINE
  5
3BEF5
330
1E
100
AcDbEntity
  8
1-2_扉･枠
  6
想像線
 62
     4
 48
0.25
370
    18
100
AcDbLine
 10
3006.672212902453
 20
7592.670706487398
 30
0.0
 11
2990.644899557761
 21
7582.670706487398
 31
0.0
  0
LINE
  5
3BEF6
330
1E
100
AcDbEntity
  8
1-2_扉･枠
  6
想像線
 62
     4
 48
0.25
370
    18
100
AcDbLine
 10
3002.893987006352
 20
7592.670706487398
 30
0.0
 11
2986.866673661663
 21
7582.670706487397
 31
0.0
  0
LINE
  5
3BEF7
330
1E
100
AcDbEntity
  8
1-2_扉･枠
  6
想像線
 62
     4
 48
0.25
370
    18
100
AcDbLine
 10
3158.450438798551
 20
7592.6707064874
 30
0.0
 11
3142.423125453861
 21
7582.670706487398
 31
0.0
  0
LINE
  5
3BEF8
330
1E
100
AcDbEntity
  8
1-2_扉･枠
  6
想像線
 62
     4
 48
0.25
370
    18
100
AcDbLine
 10
3154.672212902453
 20
7592.6707064874
 30
0.0
 11
3138.644899557761
 21
7582.6707064874
 31
0.0
  0
LINE
  5
3BEF9
330
1E
100
AcDbEntity
  8
1-2_扉･枠
  6
想像線
 62
     4
 48
0.25
370
    18
100
AcDbLine
 10
3150.893987006352
 20
7592.6707064874
 30
0.0
 11
3134.866673661663
 21
7582.670706487398
 31
0.0
  0
LINE
  5
3BEFA
330
1E
100
AcDbEntity
  8
1-5_ビス2
  6
かくれ線
 62
     7
 48
0.5
370
    18
100
AcDbLine
 10
3032.950439684827
 20
7624.670698175201
 30
0.0
 11
3032.950444981704
 21
7640.670700838488
 31
0.0
  0
LINE
  5
3BEFB
330
1E
100
AcDbEntity
  8
1-5_ビス2
  6
かくれ線
 62
     7
 48
0.5
370
    18
100
AcDbLine
 10
3037.950439684825
 20
7624.670698047566
 30
0.0
 11
3037.950444981702
 21
7640.670698766228
 31
0.0
  0
LINE
  5
3BF4B
330
1E
100
AcDbEntity
  8
1-5_ビス2
  6
かくれ線
 62
     7
 48
0.5
370
    18
100
AcDbLine
 10
3041.450439335829
 20
7644.170698111384
 30
0.0
 11
3029.450439335829
 21
7644.1707064874
 31
0.0
  0
ARC
  5
3BFE7
330
1E
100
AcDbEntity
  8
1-1_本体2
  6
かくれ線
 62
     7
 48
0.5
370
    18
100
AcDbCircle
 10
3024.28045849417
 20
7649.672299058273
 30
0.0
 40
2.0
100
AcDbArc
 50
0.0
 51
134.9999999999984
  0
ARC
  5
3BFE9
330
1E
100
AcDbEntity
  8
1-1_本体2
  6
かくれ線
 62
     7
 48
0.5
370
    18
100
AcDbCircle
 10
3046.62044317539
 20
7649.672274985815
 30
0.0
 40
2.0
100
AcDbArc
 50
45.0
 51
180.0
  0
LINE
  5
3BFF0
330
1E
100
AcDbEntity
  8
1-1_本体2
  6
かくれ線
 62
     7
 48
0.5
370
    18
100
AcDbLine
 10
3047.950438798551
 20
7637.6707064874
 30
0.0
 11
3022.950438798551
 21
7637.6707064874
 31
0.0
  0
LINE
  5
3BFF4
330
1E
100
AcDbEntity
  8
1-1_本体2
  6
かくれ線
 62
     7
 48
0.5
370
    18
100
AcDbLine
 10
3046.950438798551
 20
7636.670706487399
 30
0.0
 11
3047.950438798551
 21
7637.6707064874
 31
0.0
  0
LINE
  5
3BFF5
330
1E
100
AcDbEntity
  8
1-1_本体2
  6
かくれ線
 62
     7
 48
0.5
370
    18
100
AcDbLine
 10
3023.950438798551
 20
7636.6707064874
 30
0.0
 11
3022.950438798551
 21
7637.6707064874
 31
0.0
  0
LINE
  5
3BFF8
330
1E
100
AcDbEntity
  8
1-0_本体
  6
Continuous
 62
     7
 48
0.5
370
    35
100
AcDbLine
 10
3103.035671655139
 20
7651.256492925026
 30
0.0
 11
3097.949885217513
 21
7646.1707064874
 31
0.0
  0
LINE
  5
3BFF9
330
1E
100
AcDbEntity
  8
1-0_本体
  6
Continuous
 62
     7
 48
0.5
370
    35
100
AcDbLine
 10
3097.949885217513
 20
7646.1707064874
 30
0.0
 11
3097.949885217513
 21
7642.670706487399
 31
0.0
  0
LINE
  5
3BFFA
330
1E
100
AcDbEntity
  8
1-0_本体
  6
Continuous
 62
     7
 48
0.5
370
    35
100
AcDbLine
 10
3104.41361924455
 20
7651.841950530421
 30
0.0
 11
3126.449855372849
 21
7651.842279362432
 31
0.0
  0
ARC
  5
3BFFB
330
1E
100
AcDbEntity
  8
1-0_本体
  6
Continuous
 62
     7
 48
0.5
370
    35
100
AcDbCircle
 10
3104.449885217512
 20
7649.842279362653
 30
0.0
 40
2.0
100
AcDbArc
 50
88.9627094343511
 51
134.9999999999984
  0
ARC
  5
3BFFC
330
1E
100
AcDbEntity
  8
1-0_本体
  6
Continuous
 62
     7
 48
0.5
370
    35
100
AcDbCircle
 10
3126.449885217512
 20
7649.842279362655
 30
0.0
 40
2.0
100
AcDbArc
 50
45.0
 51
90.00085498658952
  0
LINE
  5
3BFFD
330
1E
100
AcDbEntity
  8
1-0_本体
  6
Continuous
 62
     7
 48
0.5
370
    35
100
AcDbLine
 10
3127.864098779884
 20
7651.256492925028
 30
0.0
 11
3132.949885217513
 21
7646.1707064874
 31
0.0
  0
LINE
  5
3BFFE
330
1E
100
AcDbEntity
  8
1-0_本体
  6
Continuous
 62
     7
 48
0.5
370
    35
100
AcDbLine
 10
3132.949885217513
 20
7646.1707064874
 30
0.0
 11
3097.949885217513
 21
7646.1707064874
 31
0.0
  0
LINE
  5
3BFFF
330
1E
100
AcDbEntity
  8
1-0_本体
  6
Continuous
 62
     7
 48
0.5
370
    35
100
AcDbLine
 10
3132.949885217513
 20
7646.1707064874
 30
0.0
 11
3132.949885217513
 21
7642.670706487399
 31
0.0
  0
ARC
  5
3C034
330
1E
100
AcDbEntity
  8
1-0_本体
  6
Continuous
 62
     7
 48
0.5
370
    35
100
AcDbCircle
 10
3131.449885217512
 20
7727.6707064874
 30
0.0
 40
5.0
100
AcDbArc
 50
0.0
 51
90.0
  0
ARC
  5
3C035
330
1E
100
AcDbEntity
  8
1-1_本体2
  6
かくれ線
 62
     7
 48
0.5
370
    18
100
AcDbCircle
 10
3131.449885217512
 20
7727.6707391212
 30
0.0
 40
4.0
100
AcDbArc
 50
0.0
 51
90.00186990107092
  0
LINE
  5
3C098
330
1E
100
AcDbEntity
  8
1-5_ビス2
  6
かくれ線
 62
     7
 48
0.5
370
    18
100
AcDbLine
 10
3004.450438798551
 20
7765.090227678259
 30
0.0
 11
3014.450438798551
 21
7765.090227678259
 31
0.0
  0
LINE
  5
3C099
330
1E
100
AcDbEntity
  8
1-5_ビス2
  6
かくれ線
 62
     7
 48
0.5
370
    18
100
AcDbLine
 10
3004.450438798551
 20
7768.090227678259
 30
0.0
 11
3014.450438798551
 21
7768.090227678259
 31
0.0
  0
LINE
  5
3C09D
330
1E
100
AcDbEntity
  8
1-5_ビス2
  6
かくれ線
 62
     7
 48
0.5
370
    18
100
AcDbLine
 10
3004.450438798551
 20
7790.59022767826
 30
0.0
 11
3014.450438798551
 21
7790.59022767826
 31
0.0
  0
LINE
  5
3C0A0
330
1E
100
AcDbEntity
  8
1-5_ビス2
  6
かくれ線
 62
     7
 48
0.5
370
    18
100
AcDbLine
 10
3004.450438798551
 20
7791.090227678259
 30
0.0
 11
3014.450438798551
 21
7791.090227678259
 31
0.0
  0
LINE
  5
3C0A1
330
1E
100
AcDbEntity
  8
1-5_ビス2
  6
かくれ線
 62
     7
 48
0.5
370
    18
100
AcDbLine
 10
3004.450438798551
 20
7794.590227678259
 30
0.0
 11
3014.450438798551
 21
7794.590227678259
 31
0.0
  0
LINE
  5
3C0A3
330
1E
100
AcDbEntity
  8
1-5_ビス2
  6
かくれ線
 62
     7
 48
0.5
370
    18
100
AcDbLine
 10
3004.450438798551
 20
7794.090227678259
 30
0.0
 11
3014.450438798551
 21
7794.090227678259
 31
0.0
  0
LINE
  5
3C0A4
330
1E
100
AcDbEntity
  8
1-A_中心
  6
中心線
 62
     6
 48
0.25
370
    18
100
AcDbLine
 10
3019.65044129855
 20
7792.590228293625
 30
0.0
 11
3002.450438798551
 21
7792.590227678259
 31
0.0
  0
LINE
  5
3C0A5
330
1E
100
AcDbEntity
  8
1-5_ビス2
  6
かくれ線
 62
     7
 48
0.5
370
    18
100
AcDbLine
 10
3004.450438798551
 20
7790.59022767826
 30
0.0
 11
3004.450438798551
 21
7794.590227678259
 31
0.0
  0
ARC
  5
3C0A6
330
1E
100
AcDbEntity
  8
1-5_ビス2
  6
かくれ線
 62
     7
 48
0.5
370
    18
100
AcDbCircle
 10
3012.598878798551
 20
7792.590227678259
 30
0.0
 40
5.0515625
100
AcDbArc
 50
291.5019399999914
 51
68.49807000002518
  0
LINE
  5
3C0A7
330
1E
100
AcDbEntity
  8
1-5_ビス2
  6
かくれ線
 62
     7
 48
0.5
370
    18
100
AcDbLine
 10
3014.85043879855
 20
7788.06819767826
 30
0.0
 11
3014.85043879855
 21
7797.112257678259
 31
0.0
  0
LINE
  5
3C1EC
102
{ACAD_REACTORS
330
3E293
102
}
330
1E
100
AcDbEntity
  8
1-0_本体
  6
Continuous
 62
     7
 48
0.5
370
    35
100
AcDbLine
 10
3090.449885217512
 20
7592.6707064874
 30
0.0
 11
3090.449885217512
 21
7639.6707064874
 31
0.0
  0
CIRCLE
  5
3C20A
330
1E
100
AcDbEntity
  8
1-4_ビス
  6
Continuous
 62
     7
 48
0.5
370
    35
100
AcDbCircle
 10
3018.950438798551
 20
7682.6707064874
 30
0.0
 40
3.5
  0
LINE
  5
3C218
330
1E
100
AcDbEntity
  8
1-0_本体
  6
Continuous
 62
     7
 48
0.5
370
    35
100
AcDbLine
 10
3027.450319419902
 20
7652.670700224215
 30
0.0
 11
3027.450438798551
 21
7657.6707064874
 31
0.0
  0
LINE
  5
3C219
330
1E
100
AcDbEntity
  8
1-0_本体
  6
Continuous
 62
     7
 48
0.5
370
    35
100
AcDbLine
 10
3043.450319419902
 20
7652.670700224215
 30
0.0
 11
3043.450438798551
 21
7657.6707064874
 31
0.0
  0
ARC
  5
3C21A
330
1E
100
AcDbEntity
  8
1-1_本体2
  6
かくれ線
 62
     7
 48
0.5
370
    18
100
AcDbCircle
 10
3035.4503194199
 20
7652.670700224216
 30
0.0
 40
8.000000000001517
100
AcDbArc
 50
341.1973315876273
 51
359.9999999999933
  0
ARC
  5
3C21B
330
1E
100
AcDbEntity
  8
1-1_本体2
  6
かくれ線
 62
     7
 48
0.5
370
    18
100
AcDbCircle
 10
3035.450319419895
 20
7652.670700224213
 30
0.0
 40
7.999999999993633
100
AcDbArc
 50
179.9999999999865
 51
198.8043783855537
  0
ARC
  5
3C21C
330
1E
100
AcDbEntity
  8
1-1_本体2
  6
かくれ線
 62
     7
 48
0.5
370
    18
100
AcDbCircle
 10
3035.450319419902
 20
7652.670700224216
 30
0.0
 40
8.000000000000571
100
AcDbArc
 50
198.8043783855586
 51
341.1973315876231
  0
LINE
  5
3C21D
330
1E
100
AcDbEntity
  8
1-0_本体
  6
Continuous
 62
     7
 48
0.5
370
    35
100
AcDbLine
 10
3107.449885217514
 20
7654.4207064874
 30
0.0
 11
3107.449885217514
 21
7657.6707064874
 31
0.0
  0
ARC
  5
3C21E
330
1E
100
AcDbEntity
  8
1-0_本体
  6
Continuous
 62
     7
 48
0.5
370
    35
100
AcDbCircle
 10
3115.449885217516
 20
7654.420706487399
 30
0.0
 40
8.000000000002273
100
AcDbArc
 50
179.9999999999933
 51
198.8043783855327
  0
ARC
  5
3C21F
330
1E
100
AcDbEntity
  8
1-1_本体2
  6
かくれ線
 62
     7
 48
0.5
370
    18
100
AcDbCircle
 10
3115.449885217513
 20
7654.420706487401
 30
0.0
 40
8.000000000000268
100
AcDbArc
 50
198.8043783855586
 51
341.1973315876231
  0
ARC
  5
3C220
330
1E
100
AcDbEntity
  8
1-0_本体
  6
Continuous
 62
     7
 48
0.5
370
    35
100
AcDbCircle
 10
3115.449885217516
 20
7654.420706487399
 30
0.0
 40
7.999999999997128
100
AcDbArc
 50
341.1973315876508
 51
0.0000000000134478
  0
LINE
  5
3C221
330
1E
100
AcDbEntity
  8
1-0_本体
  6
Continuous
 62
     7
 48
0.5
370
    35
100
AcDbLine
 10
3123.449885217514
 20
7654.4207064874
 30
0.0
 11
3123.449885217514
 21
7657.6707064874
 31
0.0
  0
CIRCLE
  5
3C238
330
1E
100
AcDbEntity
  8
1-1_本体2
  6
かくれ線
 62
     7
 48
0.5
370
    18
100
AcDbCircle
 10
3035.45043879855
 20
7779.59022767826
 30
0.0
 40
8.000000000000909
  0
DIMENSION
  5
3C239
330
1E
100
AcDbEntity
  8
1-B_寸法
  6
Continuous
 62
     3
 48
0.5
370
    18
100
AcDbDimension
280
     0
  2
*D18
 10
3050.450438798551
 20
7740.170706487401
 30
0.0
 11
3042.950438798551
 21
7742.2957064874
 31
0.0
 70
    32
 71
     5
 42
15.00000000000091
 73
     0
 74
     0
 75
     0
  3
ISO-25
100
AcDbAlignedDimension
 13
3035.45043879855
 23
7732.6707064874
 33
0.0
 14
3050.450438798551
 24
7732.6707064874
 34
0.0
100
AcDbRotatedDimension
  0
LINE
  5
3C263
330
1E
100
AcDbEntity
  8
1-1_本体2
  6
かくれ線
 62
     7
 48
0.5
370
    18
100
AcDbLine
 10
3027.450438798551
 20
7669.670706487401
 30
0.0
 11
3043.450438798551
 21
7669.670706487401
 31
0.0
  0
LINE
  5
3C264
330
1E
100
AcDbEntity
  8
1-1_本体2
  6
かくれ線
 62
     7
 48
0.5
370
    18
100
AcDbLine
 10
3043.450438798551
 20
7657.670706487401
 30
0.0
 11
3043.450438798551
 21
7669.670706487401
 31
0.0
  0
LINE
  5
3C265
330
1E
100
AcDbEntity
  8
1-1_本体2
  6
かくれ線
 62
     7
 48
0.5
370
    18
100
AcDbLine
 10
3027.450438798551
 20
7657.6707064874
 30
0.0
 11
3027.450438798551
 21
7669.670706487401
 31
0.0
  0
LINE
  5
3C266
330
1E
100
AcDbEntity
  8
1-1_本体2
  6
かくれ線
 62
     7
 48
0.5
370
    18
100
AcDbLine
 10
3046.450438798546
 20
7721.6707064874
 30
0.0
 11
3024.45043879855
 21
7721.670706487401
 31
0.0
  0
LINE
  5
3C267
330
1E
100
AcDbEntity
  8
1-1_本体2
  6
かくれ線
 62
     7
 48
0.5
370
    18
100
AcDbLine
 10
3046.450438798546
 20
7721.6707064874
 30
0.0
 11
3046.450438798547
 21
7708.6707064874
 31
0.0
  0
LINE
  5
3C268
330
1E
100
AcDbEntity
  8
1-1_本体2
  6
かくれ線
 62
     7
 48
0.5
370
    18
100
AcDbLine
 10
3024.45043879855
 20
7721.670706487401
 30
0.0
 11
3024.45043879855
 21
7708.554701568901
 31
0.0
  0
LINE
  5
3C278
330
1E
100
AcDbEntity
  8
1-1_本体2
  6
かくれ線
 62
     7
 48
0.5
370
    18
100
AcDbLine
 10
3029.45043879855
 20
7668.6707064874
 30
0.0
 11
3029.45043879855
 21
7704.6707064874
 31
0.0
  0
LINE
  5
3C279
330
1E
100
AcDbEntity
  8
1-1_本体2
  6
かくれ線
 62
     7
 48
0.5
370
    18
100
AcDbLine
 10
3041.45043879855
 20
7668.6707064874
 30
0.0
 11
3041.45043879855
 21
7704.6707064874
 31
0.0
  0
LINE
  5
3C27B
330
1E
100
AcDbEntity
  8
1-1_本体2
  6
かくれ線
 62
     7
 48
0.5
370
    18
100
AcDbLine
 10
3029.45043879855
 20
7702.6707064874
 30
0.0
 11
3041.45043879855
 21
7702.6707064874
 31
0.0
  0
LINE
  5
3C27C
330
1E
100
AcDbEntity
  8
1-1_本体2
  6
かくれ線
 62
     7
 48
0.5
370
    18
100
AcDbLine
 10
3029.45043879855
 20
7701.6707064874
 30
0.0
 11
3041.45043879855
 21
7701.6707064874
 31
0.0
  0
CIRCLE
  5
3C282
330
1E
100
AcDbEntity
  8
1-1_本体2
  6
かくれ線
 62
     7
 48
0.5
370
    18
100
AcDbCircle
 10
3041.45043879855
 20
7701.1707064874
 30
0.0
 40
0.5
  0
CIRCLE
  5
3C283
330
1E
100
AcDbEntity
  8
1-1_本体2
  6
かくれ線
 62
     7
 48
0.5
370
    18
100
AcDbCircle
 10
3029.45043879855
 20
7700.6707064874
 30
0.0
 40
0.5
  0
LINE
  5
3C284
330
1E
100
AcDbEntity
  8
1-1_本体2
  6
かくれ線
 62
     7
 48
0.5
370
    18
100
AcDbLine
 10
3041.45043879855
 20
7701.6707064874
 30
0.0
 11
3029.45043879855
 21
7701.1707064874
 31
0.0
  0
LINE
  5
3C285
330
1E
100
AcDbEntity
  8
1-1_本体2
  6
かくれ線
 62
     7
 48
0.5
370
    18
100
AcDbLine
 10
3041.45043879855
 20
7700.6707064874
 30
0.0
 11
3029.45043879855
 21
7700.1707064874
 31
0.0
  0
LINE
  5
3C286
330
1E
100
AcDbEntity
  8
1-1_本体2
  6
かくれ線
 62
     7
 48
0.5
370
    18
100
AcDbLine
 10
3041.45043879855
 20
7698.668971129156
 30
0.0
 11
3029.45043879855
 21
7698.168971129155
 31
0.0
  0
LINE
  5
3C287
330
1E
100
AcDbEntity
  8
1-1_本体2
  6
かくれ線
 62
     7
 48
0.5
370
    18
100
AcDbLine
 10
3041.45043879855
 20
7695.667235770911
 30
0.0
 11
3029.450438798551
 21
7695.167235770913
 31
0.0
  0
LINE
  5
3C289
330
1E
100
AcDbEntity
  8
1-1_本体2
  6
かくれ線
 62
     7
 48
0.5
370
    18
100
AcDbLine
 10
3041.45043879855
 20
7692.663765054425
 30
0.0
 11
3029.450438798551
 21
7692.163765054424
 31
0.0
  0
LINE
  5
3C28A
330
1E
100
AcDbEntity
  8
1-1_本体2
  6
かくれ線
 62
     7
 48
0.5
370
    18
100
AcDbLine
 10
3041.45043879855
 20
7689.662029696179
 30
0.0
 11
3029.45043879855
 21
7689.162029696182
 31
0.0
  0
LINE
  5
3C29E
330
1E
100
AcDbEntity
  8
1-1_本体2
  6
かくれ線
 62
     7
 48
0.5
370
    18
100
AcDbLine
 10
3041.45043879855
 20
7680.65335290496
 30
0.0
 11
3029.450438798551
 21
7680.153352904962
 31
0.0
  0
LINE
  5
3C2A0
330
1E
100
AcDbEntity
  8
1-1_本体2
  6
かくれ線
 62
     7
 48
0.5
370
    18
100
AcDbLine
 10
3041.45043879855
 20
7676.649882188474
 30
0.0
 11
3029.450438798551
 21
7676.149882188473
 31
0.0
  0
LINE
  5
3C2A1
330
1E
100
AcDbEntity
  8
1-1_本体2
  6
かくれ線
 62
     7
 48
0.5
370
    18
100
AcDbLine
 10
3041.45043879855
 20
7671.670706487399
 30
0.0
 11
3029.45043879855
 21
7671.670706487401
 31
0.0
  0
CIRCLE
  5
3C2A3
330
1E
100
AcDbEntity
  8
1-1_本体2
  6
かくれ線
 62
     7
 48
0.5
370
    18
100
AcDbCircle
 10
3041.45043879855
 20
7698.168971129155
 30
0.0
 40
0.5
  0
LINE
  5
3C2A4
330
1E
100
AcDbEntity
  8
1-1_本体2
  6
かくれ線
 62
     7
 48
0.5
370
    18
100
AcDbLine
 10
3041.45043879855
 20
7697.668971129155
 30
0.0
 11
3029.45043879855
 21
7697.168971129156
 31
0.0
  0
CIRCLE
  5
3C2A6
330
1E
100
AcDbEntity
  8
1-1_本体2
  6
かくれ線
 62
     7
 48
0.5
370
    18
100
AcDbCircle
 10
3029.45043879855
 20
7697.668971129155
 30
0.0
 40
0.5
  0
LINE
  5
3C2C1
330
1E
100
AcDbEntity
  8
1-1_本体2
  6
かくれ線
 62
     7
 48
0.5
370
    18
100
AcDbLine
 10
3041.45043879855
 20
7694.667235770913
 30
0.0
 11
3029.45043879855
 21
7694.167235770914
 31
0.0
  0
LINE
  5
3C2C2
330
1E
100
AcDbEntity
  8
1-1_本体2
  6
かくれ線
 62
     7
 48
0.5
370
    18
100
AcDbLine
 10
3041.45043879855
 20
7695.667235770914
 30
0.0
 11
3029.45043879855
 21
7695.167235770913
 31
0.0
  0
CIRCLE
  5
3C2C3
330
1E
100
AcDbEntity
  8
1-1_本体2
  6
かくれ線
 62
     7
 48
0.5
370
    18
100
AcDbCircle
 10
3029.45043879855
 20
7694.667235770913
 30
0.0
 40
0.5
  0
CIRCLE
  5
3C2C4
330
1E
100
AcDbEntity
  8
1-1_本体2
  6
かくれ線
 62
     7
 48
0.5
370
    18
100
AcDbCircle
 10
3041.45043879855
 20
7695.167235770913
 30
0.0
 40
0.5
  0
CIRCLE
  5
3C2C5
330
1E
100
AcDbEntity
  8
1-1_本体2
  6
かくれ線
 62
     7
 48
0.5
370
    18
100
AcDbCircle
 10
3029.450438798522
 20
7691.663765054423
 30
0.0
 40
0.5
  0
LINE
  5
3C2C6
330
1E
100
AcDbEntity
  8
1-1_本体2
  6
かくれ線
 62
     7
 48
0.5
370
    18
100
AcDbLine
 10
3041.450438798522
 20
7692.663765054423
 30
0.0
 11
3029.450438798522
 21
7692.163765054424
 31
0.0
  0
LINE
  5
3C2C7
330
1E
100
AcDbEntity
  8
1-1_本体2
  6
かくれ線
 62
     7
 48
0.5
370
    18
100
AcDbLine
 10
3041.450438798522
 20
7691.663765054423
 30
0.0
 11
3029.450438798522
 21
7691.163765054423
 31
0.0
  0
CIRCLE
  5
3C2C9
330
1E
100
AcDbEntity
  8
1-1_本体2
  6
かくれ線
 62
     7
 48
0.5
370
    18
100
AcDbCircle
 10
3041.450438798522
 20
7692.163765054424
 30
0.0
 40
0.5
  0
LINE
  5
3C2CA
330
1E
100
AcDbEntity
  8
1-1_本体2
  6
かくれ線
 62
     7
 48
0.5
370
    18
100
AcDbLine
 10
3041.45043879855
 20
7686.660294337939
 30
0.0
 11
3029.45043879855
 21
7686.160294337938
 31
0.0
  0
LINE
  5
3C2CB
330
1E
100
AcDbEntity
  8
1-1_本体2
  6
かくれ線
 62
     7
 48
0.5
370
    18
100
AcDbLine
 10
3041.45043879855
 20
7686.660294337936
 30
0.0
 11
3029.450438798551
 21
7686.160294337938
 31
0.0
  0
CIRCLE
  5
3C2CC
330
1E
100
AcDbEntity
  8
1-1_本体2
  6
かくれ線
 62
     7
 48
0.5
370
    18
100
AcDbCircle
 10
3041.450438798522
 20
7683.156823621449
 30
0.0
 40
0.5
  0
LINE
  5
3C2CD
330
1E
100
AcDbEntity
  8
1-1_本体2
  6
かくれ線
 62
     7
 48
0.5
370
    18
100
AcDbLine
 10
3041.450438798522
 20
7682.656823621448
 30
0.0
 11
3029.450438798522
 21
7682.156823621449
 31
0.0
  0
LINE
  5
3C2CE
330
1E
100
AcDbEntity
  8
1-1_本体2
  6
かくれ線
 62
     7
 48
0.5
370
    18
100
AcDbLine
 10
3041.450438798522
 20
7683.656823621449
 30
0.0
 11
3029.450438798522
 21
7683.156823621449
 31
0.0
  0
CIRCLE
  5
3C2CF
330
1E
100
AcDbEntity
  8
1-1_本体2
  6
かくれ線
 62
     7
 48
0.5
370
    18
100
AcDbCircle
 10
3041.45043879855
 20
7686.160294337938
 30
0.0
 40
0.5
  0
LINE
  5
3C2D0
330
1E
100
AcDbEntity
  8
1-1_本体2
  6
かくれ線
 62
     7
 48
0.5
370
    18
100
AcDbLine
 10
3041.45043879855
 20
7685.660294337939
 30
0.0
 11
3029.45043879855
 21
7685.160294337939
 31
0.0
  0
LINE
  5
3C2D1
330
1E
100
AcDbEntity
  8
1-1_本体2
  6
かくれ線
 62
     7
 48
0.5
370
    18
100
AcDbLine
 10
3041.45043879855
 20
7688.662029696181
 30
0.0
 11
3029.45043879855
 21
7688.162029696181
 31
0.0
  0
CIRCLE
  5
3C2D2
330
1E
100
AcDbEntity
  8
1-1_本体2
  6
かくれ線
 62
     7
 48
0.5
370
    18
100
AcDbCircle
 10
3041.45043879855
 20
7689.162029696182
 30
0.0
 40
0.5
  0
LINE
  5
3C2D4
330
1E
100
AcDbEntity
  8
1-1_本体2
  6
かくれ線
 62
     7
 48
0.5
370
    18
100
AcDbLine
 10
3041.45043879855
 20
7683.656823621451
 30
0.0
 11
3029.450438798551
 21
7683.156823621449
 31
0.0
  0
CIRCLE
  5
3C2D5
330
1E
100
AcDbEntity
  8
1-1_本体2
  6
かくれ線
 62
     7
 48
0.5
370
    18
100
AcDbCircle
 10
3029.450438798522
 20
7682.656823621448
 30
0.0
 40
0.5
  0
CIRCLE
  5
3C2D6
330
1E
100
AcDbEntity
  8
1-1_本体2
  6
かくれ線
 62
     7
 48
0.5
370
    18
100
AcDbCircle
 10
3029.45043879855
 20
7685.660294337939
 30
0.0
 40
0.5
  0
CIRCLE
  5
3C2D7
330
1E
100
AcDbEntity
  8
1-1_本体2
  6
かくれ線
 62
     7
 48
0.5
370
    18
100
AcDbCircle
 10
3029.45043879855
 20
7688.662029696181
 30
0.0
 40
0.5
  0
CIRCLE
  5
3C2D8
330
1E
100
AcDbEntity
  8
1-1_本体2
  6
かくれ線
 62
     7
 48
0.5
370
    18
100
AcDbCircle
 10
3029.450438798551
 20
7679.653352904963
 30
0.0
 40
0.5
  0
CIRCLE
  5
3C2D9
330
1E
100
AcDbEntity
  8
1-1_本体2
  6
かくれ線
 62
     7
 48
0.5
370
    18
100
AcDbCircle
 10
3029.450438798551
 20
7676.65161754672
 30
0.0
 40
0.5
  0
CIRCLE
  5
3C2DA
330
1E
100
AcDbEntity
  8
1-1_本体2
  6
かくれ線
 62
     7
 48
0.5
370
    18
100
AcDbCircle
 10
3029.450438798522
 20
7671.170706487401
 30
0.0
 40
0.5
  0
LINE
  5
3C2DB
330
1E
100
AcDbEntity
  8
1-1_本体2
  6
かくれ線
 62
     7
 48
0.5
370
    18
100
AcDbLine
 10
3041.450438798551
 20
7671.670706487401
 30
0.0
 11
3029.450438798551
 21
7671.670706487401
 31
0.0
  0
LINE
  5
3C2DC
330
1E
100
AcDbEntity
  8
1-1_本体2
  6
かくれ線
 62
     7
 48
0.5
370
    18
100
AcDbLine
 10
3041.450438798551
 20
7679.653352904963
 30
0.0
 11
3029.450438798551
 21
7679.153352904961
 31
0.0
  0
LINE
  5
3C2DD
330
1E
100
AcDbEntity
  8
1-1_本体2
  6
かくれ線
 62
     7
 48
0.5
370
    18
100
AcDbLine
 10
3041.450438798551
 20
7676.65161754672
 30
0.0
 11
3029.450438798551
 21
7676.151617546719
 31
0.0
  0
LINE
  5
3C2DE
330
1E
100
AcDbEntity
  8
1-1_本体2
  6
かくれ線
 62
     7
 48
0.5
370
    18
100
AcDbLine
 10
3041.450438798522
 20
7671.670706487399
 30
0.0
 11
3029.450438798522
 21
7671.670706487401
 31
0.0
  0
LINE
  5
3C2DF
330
1E
100
AcDbEntity
  8
1-1_本体2
  6
かくれ線
 62
     7
 48
0.5
370
    18
100
AcDbLine
 10
3041.450438798522
 20
7670.670706487399
 30
0.0
 11
3029.450438798522
 21
7670.670706487403
 31
0.0
  0
LINE
  5
3C2E0
330
1E
100
AcDbEntity
  8
1-1_本体2
  6
かくれ線
 62
     7
 48
0.5
370
    18
100
AcDbLine
 10
3041.450438798551
 20
7677.651617546718
 30
0.0
 11
3029.450438798551
 21
7677.151617546719
 31
0.0
  0
LINE
  5
3C2E1
330
1E
100
AcDbEntity
  8
1-1_本体2
  6
かくれ線
 62
     7
 48
0.5
370
    18
100
AcDbLine
 10
3041.450438798551
 20
7677.651617546719
 30
0.0
 11
3029.450438798551
 21
7677.151617546719
 31
0.0
  0
LINE
  5
3C2E2
330
1E
100
AcDbEntity
  8
1-1_本体2
  6
かくれ線
 62
     7
 48
0.5
370
    18
100
AcDbLine
 10
3041.450438798551
 20
7680.653352904961
 30
0.0
 11
3029.450438798551
 21
7680.153352904962
 31
0.0
  0
CIRCLE
  5
3C2E3
330
1E
100
AcDbEntity
  8
1-1_本体2
  6
かくれ線
 62
     7
 48
0.5
370
    18
100
AcDbCircle
 10
3041.450438798551
 20
7680.153352904962
 30
0.0
 40
0.5
  0
CIRCLE
  5
3C2E4
330
1E
100
AcDbEntity
  8
1-1_本体2
  6
かくれ線
 62
     7
 48
0.5
370
    18
100
AcDbCircle
 10
3041.450438798551
 20
7677.151617546719
 30
0.0
 40
0.5
  0
CIRCLE
  5
3C2E5
330
1E
100
AcDbEntity
  8
1-1_本体2
  6
かくれ線
 62
     7
 48
0.5
370
    18
100
AcDbCircle
 10
3041.450438798522
 20
7671.170706487399
 30
0.0
 40
0.5
  0
LINE
  5
3C2E6
330
1E
100
AcDbEntity
  8
1-1_本体2
  6
かくれ線
 62
     7
 48
0.5
370
    18
100
AcDbLine
 10
3041.45043879855
 20
7670.670706487399
 30
0.0
 11
3029.45043879855
 21
7670.670706487399
 31
0.0
  0
CIRCLE
  5
3C2EB
330
1E
100
AcDbEntity
  8
1-1_本体2
  6
かくれ線
 62
     7
 48
0.5
370
    18
100
AcDbCircle
 10
3041.45043879855
 20
7702.1707064874
 30
0.0
 40
0.5
  0
CIRCLE
  5
3C2EC
330
1E
100
AcDbEntity
  8
1-1_本体2
  6
かくれ線
 62
     7
 48
0.5
370
    18
100
AcDbCircle
 10
3041.45043879855
 20
7703.1707064874
 30
0.0
 40
0.5
  0
CIRCLE
  5
3C2ED
330
1E
100
AcDbEntity
  8
1-1_本体2
  6
かくれ線
 62
     7
 48
0.5
370
    18
100
AcDbCircle
 10
3029.45043879855
 20
7703.1707064874
 30
0.0
 40
0.5
  0
CIRCLE
  5
3C2EE
330
1E
100
AcDbEntity
  8
1-1_本体2
  6
かくれ線
 62
     7
 48
0.5
370
    18
100
AcDbCircle
 10
3029.45043879855
 20
7702.1707064874
 30
0.0
 40
0.5
  0
CIRCLE
  5
3C2F0
330
1E
100
AcDbEntity
  8
1-1_本体2
  6
かくれ線
 62
     7
 48
0.5
370
    18
100
AcDbCircle
 10
3041.45043879855
 20
7670.1707064874
 30
0.0
 40
0.5
  0
CIRCLE
  5
3C2F1
330
1E
100
AcDbEntity
  8
1-1_本体2
  6
かくれ線
 62
     7
 48
0.5
370
    18
100
AcDbCircle
 10
3029.45043879855
 20
7670.1707064874
 30
0.0
 40
0.5
  0
ARC
  5
3C2FC
330
1E
100
AcDbEntity
  8
1-1_本体2
  6
かくれ線
 62
     7
 48
0.5
370
    18
100
AcDbCircle
 10
3025.45043879855
 20
7708.6707064874
 30
0.0
 40
1.0
100
AcDbArc
 50
180.0
 51
270.0
  0
ARC
  5
3C2FD
330
1E
100
AcDbEntity
  8
1-1_本体2
  6
かくれ線
 62
     7
 48
0.5
370
    18
100
AcDbCircle
 10
3045.450438798547
 20
7708.6707064874
 30
0.0
 40
1.0
100
AcDbArc
 50
270.0
 51
0.0000000000037149
  0
LINE
  5
3C2FE
330
1E
100
AcDbEntity
  8
1-1_本体2
  6
かくれ線
 62
     7
 48
0.5
370
    18
100
AcDbLine
 10
3035.45043879855
 20
7703.670706487399
 30
0.0
 11
3035.450438798551
 21
7669.670706487401
 31
0.0
  0
LINE
  5
3C2FF
330
1E
100
AcDbEntity
  8
1-1_本体2
  6
かくれ線
 62
     7
 48
0.5
370
    18
100
AcDbLine
 10
3031.450438798551
 20
7713.670706487402
 30
0.0
 11
3031.450438798551
 21
7664.670706487401
 31
0.0
  0
LINE
  5
3C300
330
1E
100
AcDbEntity
  8
1-1_本体2
  6
かくれ線
 62
     7
 48
0.5
370
    18
100
AcDbLine
 10
3039.45043879855
 20
7713.6707064874
 30
0.0
 11
3039.450438798551
 21
7664.670706487401
 31
0.0
  0
LINE
  5
3C301
330
1E
100
AcDbEntity
  8
1-1_本体2
  6
かくれ線
 62
     7
 48
0.5
370
    18
100
AcDbLine
 10
3041.45043879855
 20
7719.670706487399
 30
0.0
 11
3029.45043879855
 21
7719.670706487402
 31
0.0
  0
LINE
  5
3C311
330
1E
100
AcDbEntity
  8
1-1_本体2
  6
かくれ線
 62
     7
 48
0.5
370
    18
100
AcDbLine
 10
3041.450438798548
 20
7713.670706487402
 30
0.0
 11
3029.450438798548
 21
7713.670706487403
 31
0.0
  0
LINE
  5
3C318
330
1E
100
AcDbEntity
  8
1-1_本体2
  6
かくれ線
 62
     7
 48
0.5
370
    18
100
AcDbLine
 10
3035.45043879855
 20
7719.6707064874
 30
0.0
 11
3035.450438798548
 21
7713.670706487402
 31
0.0
  0
LINE
  5
3C319
330
1E
100
AcDbEntity
  8
1-1_本体2
  6
かくれ線
 62
     7
 48
0.5
370
    18
100
AcDbLine
 10
3041.45043879855
 20
7721.6707064874
 30
0.0
 11
3041.450438798548
 21
7713.670706487398
 31
0.0
  0
LINE
  5
3C31A
330
1E
100
AcDbEntity
  8
1-1_本体2
  6
かくれ線
 62
     7
 48
0.5
370
    18
100
AcDbLine
 10
3029.45043879855
 20
7721.670706487401
 30
0.0
 11
3029.450438798548
 21
7713.670706487403
 31
0.0
  0
LINE
  5
3C3A6
330
1E
100
AcDbEntity
  8
1-0_本体
  6
Continuous
 62
     7
 48
0.5
370
    35
100
AcDbLine
 10
3052.950438798551
 20
7644.6707064874
 30
0.0
 11
3017.950438798551
 21
7644.6707064874
 31
0.0
  0
LINE
  5
3C3B4
330
1E
100
AcDbEntity
  8
1-0_本体
  6
Continuous
 62
     7
 48
0.5
370
    35
100
AcDbLine
 10
3024.244098599624
 20
7651.671968520476
 30
0.0
 11
3046.634469812591
 21
7651.672225798572
 31
0.0
  0
ARC
  5
3C3B7
330
1E
100
AcDbEntity
  8
1-1_本体2
  6
かくれ線
 62
     7
 48
0.5
370
    18
100
AcDbCircle
 10
3039.630610248062
 20
7650.049416402314
 30
0.0
 40
5.0
100
AcDbArc
 50
323.7842802122123
 51
356.9115601062157
  0
ARC
  5
3C3B9
330
1E
100
AcDbEntity
  8
1-1_本体2
  6
かくれ線
 62
     7
 48
0.5
370
    18
100
AcDbCircle
 10
3031.270294167903
 20
7650.049389570226
 30
0.0
 40
5.0
100
AcDbArc
 50
183.0880226284211
 51
216.2157194675704
  0
ARC
  5
3C3BF
330
1E
100
AcDbEntity
  8
1-0_本体
  6
Continuous
 62
     7
 48
0.5
370
    35
100
AcDbCircle
 10
3020.950438798551
 20
7644.928065800282
 30
0.0
 40
3.0
100
AcDbArc
 50
135.0
 51
180.0
  0
ARC
  5
3C3C0
330
1E
100
AcDbEntity
  8
1-0_本体
  6
Continuous
 62
     7
 48
0.5
370
    35
100
AcDbCircle
 10
3049.950438798551
 20
7644.928065800282
 30
0.0
 40
3.0
100
AcDbArc
 50
0.0
 51
45.0
  0
LINE
  5
3C3F2
330
1E
100
AcDbEntity
  8
1-1_本体2
  6
かくれ線
 62
     7
 48
0.5
370
    18
100
AcDbLine
 10
3041.45043879855
 20
7674.64814683023
 30
0.0
 11
3029.45043879855
 21
7674.14814683023
 31
0.0
  0
CIRCLE
  5
3C3F3
330
1E
100
AcDbEntity
  8
1-1_本体2
  6
かくれ線
 62
     7
 48
0.5
370
    18
100
AcDbCircle
 10
3029.450438798523
 20
7673.648146830228
 30
0.0
 40
0.5
  0
LINE
  5
3C3F4
330
1E
100
AcDbEntity
  8
1-1_本体2
  6
かくれ線
 62
     7
 48
0.5
370
    18
100
AcDbLine
 10
3041.450438798523
 20
7673.648146830228
 30
0.0
 11
3029.450438798523
 21
7673.148146830229
 31
0.0
  0
LINE
  5
3C3F5
330
1E
100
AcDbEntity
  8
1-1_本体2
  6
かくれ線
 62
     7
 48
0.5
370
    18
100
AcDbLine
 10
3041.450438798523
 20
7674.648146830228
 30
0.0
 11
3029.450438798523
 21
7674.14814683023
 31
0.0
  0
LINE
  5
3C3F6
330
1E
100
AcDbEntity
  8
1-1_本体2
  6
かくれ線
 62
     7
 48
0.5
370
    18
100
AcDbLine
 10
3041.450438798523
 20
7674.648146830229
 30
0.0
 11
3029.450438798523
 21
7674.14814683023
 31
0.0
  0
CIRCLE
  5
3C3F7
330
1E
100
AcDbEntity
  8
1-1_本体2
  6
かくれ線
 62
     7
 48
0.5
370
    18
100
AcDbCircle
 10
3041.450438798523
 20
7674.14814683023
 30
0.0
 40
0.5
  0
MTEXT
  5
3C400
330
1E
100
AcDbEntity
  8
1-C_文字
  6
Continuous
 62
     3
 48
0.5
370
    18
100
AcDbMText
 10
2868.890499142102
 20
7775.620746141879
 30
0.0
 40
5.0
 41
47.15069999999999
 46
0.0
 71
     1
 72
     1
  1
{\fＭＳ ゴシック|b0|i0|c128|p49;ＤＳ-２(床付)}
 73
     1
 44
1.0
  0
MTEXT
  5
3C40A
330
1E
100
AcDbEntity
  8
1-C_文字
  6
Continuous
 62
     3
 48
0.5
370
    18
100
AcDbMText
 10
3061.890499142102
 20
7814.545960947691
 30
0.0
 40
5.0
 41
65.57949999999999
 46
0.0
 71
     1
 72
     1
  1
{\fＭＳ ゴシック|b0|i0|c128|p49;ＤＳ-４(ｽﾄｯﾌﾟﾀｲﾌﾟ)}
 73
     1
 44
1.0
  0
LEADER
  5
3D4AC
330
1E
100
AcDbEntity
  8
1-C_文字
  6
Continuous
 62
     3
 48
0.5
370
    18
100
AcDbLeader
  3
ISO-25
 76
     3
 10
3011.419988932917
 20
7695.148993752258
 30
0.0
 10
3006.550438798551
 20
7703.670706487399
 30
0.0
 10
3004.450438798551
 20
7703.670706487399
 30
0.0
211
-0.999862615292127
221
-0.0165756007791102
231
0.0
213
-0.0497268023373306
223
2.999587845876379
233
0.0
1001
ACAD
1000
DSTYLE
1002
{
1070
    41
1040
3.0
1070
   147
1040
0.625
1070
    77
1070
     0
1002
}
  0
LEADER
  5
3D4AE
330
1E
100
AcDbEntity
  8
1-C_文字
  6
Continuous
 62
     3
 48
0.5
370
    18
100
AcDbLeader
  3
ISO-25
 76
     3
 10
3007.775405279872
 20
7727.898993752257
 30
0.0
 10
3002.905855145506
 20
7736.420706487399
 30
0.0
 10
3000.805855145506
 20
7736.420706487399
 30
0.0
211
-0.999862615292127
221
-0.0165756007791102
231
0.0
213
-0.0497268023373306
223
2.999587845876379
233
0.0
1001
ACAD
1000
DSTYLE
1002
{
1070
    41
1040
3.0
1070
   147
1040
0.625
1070
    77
1070
     0
1002
}
  0
LWPOLYLINE
  5
3D4B6
330
1E
100
AcDbEntity
  8
1-0_本体
  6
Continuous
 62
     7
 48
0.5
370
    35
100
AcDbPolyline
 90
        2
 70
     0
 43
0.0
 10
3022.866244931797
 20
7651.086512620647
 10
3022.866244931797
 20
7651.086512620647
  0
ARC
  5
3D4B9
330
1E
100
AcDbEntity
  8
1-0_本体
  6
Continuous
 62
     7
 48
0.5
370
    35
100
AcDbCircle
 10
3024.280458494166
 20
7649.672299058284
 30
0.0
 40
1.999999999989342
100
AcDbArc
 50
91.04169163961865
 51
135.0000000001289
  0
ARC
  5
3D4BA
330
1E
100
AcDbEntity
  8
1-0_本体
  6
Continuous
 62
     7
 48
0.5
370
    35
100
AcDbCircle
 10
3046.620443453391
 20
7649.672275650366
 30
0.0
 40
1.999999333514727
100
AcDbArc
 50
44.99999216961284
 51
89.59819650772814
  0
LINE
  5
3E068
330
1E
100
AcDbEntity
  8
印刷されない線
  6
Continuous
 62
   110
 48
0.5
370
    18
100
AcDbLine
 10
2749.450438840413
 20
7535.766035664415
 30
0.0
 11
3158.450438833177
 21
7535.766041338044
 31
0.0
  0
LINE
  5
3E069
330
1E
100
AcDbEntity
  8
印刷されない線
  6
Continuous
 62
   110
 48
0.5
370
    18
100
AcDbLine
 10
3158.450438798551
 20
7816.766041329995
 30
0.0
 11
3158.450438833177
 21
7535.766041338044
 31
0.0
  0
LINE
  5
3E06A
330
1E
100
AcDbEntity
  8
印刷されない線
  6
Continuous
 62
   110
 48
0.5
370
    18
100
AcDbLine
 10
2749.45043881207
 20
7816.766035664414
 30
0.0
 11
2749.450438840413
 21
7535.766035664415
 31
0.0
  0
LINE
  5
3E06B
330
1E
100
AcDbEntity
  8
印刷されない線
  6
Continuous
 62
   110
 48
0.5
370
    18
100
AcDbLine
 10
2749.45043881207
 20
7816.766035664414
 30
0.0
 11
3158.450438798551
 21
7816.766041329995
 31
0.0
  0
LINE
  5
3E06C
330
1E
100
AcDbEntity
  8
印刷されない線
  6
Continuous
 62
   110
 48
0.5
370
    18
100
AcDbLine
 10
2749.45043881207
 20
7816.766035664414
 30
0.0
 11
3158.450438798551
 21
7816.766041329995
 31
0.0
  0
HATCH
  5
3E06D
330
1E
100
AcDbEntity
  8
図枠
  6
Continuous
 62
   110
 48
0.5
370
    35
100
AcDbHatch
 10
0.0
 20
0.0
 30
0.0
210
0.0
220
0.0
230
1.0
  2
SOLID
 70
     1
 71
     0
 91
        7
 92
        7
 72
     1
 73
     1
 93
        4
 10
3130.373321516823
 20
7816.766041329995
 42
0.791100322966419
 10
3130.373321516823
 20
7809.953927947297
 42
0.0
 10
3151.255906249982
 20
7809.953927947297
 42
0.7911003229657766
 10
3151.255906249987
 20
7816.766041329995
 42
0.0
 97
        0
 92
       22
 72
     0
 73
     1
 93
       13
 10
3139.166718312941
 20
7815.653637548617
 10
3137.675946064053
 20
7810.823825420509
 10
3136.568612527291
 20
7810.823825420509
 10
3135.888573435022
 20
7813.942165055163
 10
3135.212913201885
 20
7810.823825420509
 10
3134.121233775181
 20
7810.823825420509
 10
3132.619950692744
 20
7815.654193480054
 10
3133.719495353471
 20
7815.654193480054
 10
3134.583101399227
 20
7812.875546928818
 10
3135.185159287902
 20
7815.654193480054
 10
3136.589896696615
 20
7815.654193480058
 10
3137.201857713433
 20
7812.848027900319
 10
3138.067838603365
 20
7815.653637548617
 97
        0
 92
       22
 72
     0
 73
     1
 93
        8
 10
3140.447835793967
 20
7815.650347035512
 10
3141.887108678012
 20
7815.650347035512
 10
3143.784334997669
 20
7810.821661795455
 10
3142.633922325301
 20
7810.821661795455
 10
3142.118737069629
 20
7812.21458557519
 10
3140.23222018833
 20
7812.21458557519
 10
3139.706439454863
 20
7810.821541594065
 10
3138.574520990739
 20
7810.821541594065
 97
        0
 92
        6
 72
     0
 73
     1
 93
        3
 10
3141.169114535785
 20
7814.606473072693
 10
3141.83388434206
 20
7812.914548330593
 10
3140.512739433548
 20
7812.914548330593
 97
        0
 92
       22
 72
     0
 73
     1
 93
       12
 10
3144.379395781207
 20
7815.65862590638
 10
3145.53623137446
 20
7815.65862590638
 10
3145.53623137446
 20
7814.186449073429
 10
3147.197413085435
 20
7815.658655956733
 10
3148.780512224593
 20
7815.658655956733
 10
3146.697513892018
 20
7813.812618005037
 10
3149.018536116664
 20
7810.82677035461
 10
3147.687379913751
 20
7810.828356482466
 10
3145.895718591099
 20
7813.133214959819
 10
3145.505125592738
 20
7812.789659084408
 10
3145.505125592738
 20
7810.827641814703
 10
3144.379395781204
 20
7810.827641814703
 97
        0
 92
       22
 72
     0
 73
     1
 93
        4
 10
3131.935008158819
 20
7810.82205244998
 10
3130.799408897938
 20
7810.82205244998
 10
3130.799408897938
 20
7815.649776078898
 10
3131.935008158819
 20
7815.649776078898
 97
        0
 92
       22
 72
     0
 73
     1
 93
        4
 10
3149.360370733944
 20
7815.640700873813
 10
3150.515062274408
 20
7815.640700873813
 10
3150.515062274408
 20
7810.84292241665
 10
3149.360370733943
 20
7810.84292241665
 97
        0
 75
     0
 76
     1
 47
0.0525430863328008
 98
        7
 10
3139.503614767158
 20
7816.339608929876
 10
3139.503614767158
 20
7816.339608929876
 10
3139.503614767158
 20
7816.339608929876
 10
3139.503614767158
 20
7816.339608929876
 10
3139.503614767158
 20
7816.339608929876
 10
3139.503614767158
 20
7816.339608929876
 10
3139.503614767158
 20
7816.339608929876
450
        0
451
        0
460
0.0
461
0.0
452
        0
462
0.0
453
        0
470

  0
LINE
  5
3E177
330
1E
100
AcDbEntity
  8
1-2_扉･枠
  6
想像線
 62
     4
 48
0.25
370
    18
100
AcDbLine
 10
2810.050438798551
 20
7602.670706487399
 30
0.0
 11
2810.050438798551
 21
7753.900150194643
 31
0.0
  0
LINE
  5
3E178
330
1E
100
AcDbEntity
  8
1-2_扉･枠
  6
想像線
 62
     4
 48
0.25
370
    18
100
AcDbLine
 10
2844.550438798551
 20
7602.670706487399
 30
0.0
 11
2844.550438798551
 21
7747.460456764615
 31
0.0
  0
LINE
  5
3E179
330
1E
100
AcDbEntity
  8
1-2_扉･枠
  6
想像線
 62
     4
 48
0.25
370
    18
100
AcDbLine
 10
2846.850438798551
 20
7602.670706487399
 30
0.0
 11
2846.850438798551
 21
7747.760542704503
 31
0.0
  0
HATCH
  5
3E28F
330
1E
100
AcDbEntity
  8
1-0_本体
  6
Continuous
 62
     7
440
 33554521
370
    35
100
AcDbHatch
 10
0.0
 20
0.0
 30
0.0
210
0.0
220
0.0
230
1.0
  2
DOTS
 70
     0
 71
     1
 91
        1
 92
       33
 93
        6
 72
     1
 10
2848.450438798551
 20
7592.670706487398
 11
2848.450438798551
 21
7639.670706487398
 72
     1
 10
2928.450438798551
 20
7592.6707064874
 11
2803.452142209842
 21
7592.6707064874
 72
     1
 10
2898.450438798551
 20
7592.670706487398
 11
2898.450438798551
 21
7639.670706487398
 72
     2
 10
2895.450438798551
 20
7639.670706487398
 40
3.0
 50
0.0
 51
90.0
 73
     1
 72
     1
 10
2895.450438798551
 20
7642.670706487398
 11
2851.450438798551
 21
7642.670706487398
 72
     2
 10
2851.450438798551
 20
7639.670706487398
 40
3.0
 50
90.0
 51
180.0
 73
     1
 97
        6
330
37F5D
330
37FA7
330
37F5C
330
37F26
330
37F28
330
37F27
 75
     1
 76
     1
 52
0.0
 41
17.5
 77
     0
 78
     1
 53
0.0
 43
0.0
 44
0.0
 45
0.546875
 46
1.09375
 79
     2
 49
0.0
 49
-1.09375
 98
       15
 10
2857.380751062061
 20
7625.905064147424
 10
2864.931867265601
 20
7640.996546225413
 10
2865.276381807508
 20
7642.564042241996
 10
2876.905399762444
 20
7642.172959845474
 10
2877.017217359189
 20
7638.820823879452
 10
2868.183636296242
 20
7636.194983508008
 10
2876.178586140261
 20
7635.859770309949
 10
2861.306860906355
 20
7636.474328171845
 10
2885.683072783678
 20
7636.194983508008
 10
2880.994484938166
 20
7624.291908960313
 10
2868.349719984039
 20
7626.158555274908
 10
2865.76329054812
 20
7606.774148683972
 10
2872.085672268525
 20
7606.056207895933
 10
2875.965317179061
 20
7614.097146581828
 10
2869.786625058069
 20
7614.240735270827
1001
GradientColor1ACI
1070
     5
1001
GradientColor2ACI
1070
     2
1001
ACAD
1010
0.0
1020
0.0
1030
0.0
  0
HATCH
  5
3E291
330
1E
100
AcDbEntity
  8
1-0_本体
  6
Continuous
 62
     7
440
 33554521
370
    35
100
AcDbHatch
 10
0.0
 20
0.0
 30
0.0
210
0.0
220
0.0
230
1.0
  2
DOTS
 70
     0
 71
     1
 91
        1
 92
        1
 93
        6
 72
     1
 10
3010.450438798551
 20
7592.6707064874
 11
3010.450438798551
 21
7639.6707064874
 72
     2
 10
3013.450438798551
 20
7639.6707064874
 40
3.0
 50
180.0
 51
270.0
 73
     0
 72
     1
 10
3013.450438798551
 20
7642.670706487399
 11
3057.450438798551
 21
7642.670706487399
 72
     2
 10
3057.450438798551
 20
7639.6707064874
 40
3.0
 50
270.0
 51
360.0
 73
     0
 72
     1
 10
3060.450438798551
 20
7639.6707064874
 11
3060.450438798551
 21
7592.6707064874
 72
     1
 10
3060.450438798551
 20
7592.6707064874
 11
3010.450438798551
 21
7592.6707064874
 97
        6
330
38C73
330
38C0B
330
38C0A
330
38C0C
330
38C7D
330
38C4B
 75
     1
 76
     1
 52
0.0
 41
17.5
 77
     0
 78
     1
 53
0.0
 43
0.0
 44
0.0
 45
0.546875
 46
1.09375
 79
     2
 49
0.0
 49
-1.09375
 98
        1
 10
0.0
 20
0.0
1001
GradientColor1ACI
1070
     5
1001
GradientColor2ACI
1070
     2
1001
ACAD
1010
0.0
1020
0.0
1030
0.0
  0
HATCH
  5
3E293
330
1E
100
AcDbEntity
  8
1-0_本体
  6
Continuous
 62
     7
440
 33554521
370
    35
100
AcDbHatch
 10
0.0
 20
0.0
 30
0.0
210
0.0
220
0.0
230
1.0
  2
DOTS
 70
     0
 71
     1
 91
        2
 92
        1
 93
        6
 72
     1
 10
3090.449885217512
 20
7592.6707064874
 11
3090.449885217512
 21
7639.6707064874
 72
     2
 10
3093.449885217512
 20
7639.6707064874
 40
3.0
 50
180.0
 51
270.0
 73
     0
 72
     1
 10
3093.449885217513
 20
7642.670706487399
 11
3137.449885217513
 21
7642.670706487399
 72
     2
 10
3137.449885217513
 20
7639.6707064874
 40
3.0
 50
270.0
 51
360.0
 73
     0
 72
     1
 10
3140.449885217513
 20
7639.6707064874
 11
3140.449885217513
 21
7592.6707064874
 72
     1
 10
3140.449885217513
 20
7592.6707064874
 11
3090.449885217513
 21
7592.6707064874
 97
        6
330
3C1EC
330
38C3C
330
38CC6
330
38B84
330
38B96
330
38CCF
 92
       33
 93
        2
 72
     1
 10
3140.449885217513
 20
7592.6707064874
 11
3090.449885217513
 21
7592.6707064874
 72
     1
 10
3158.450438798551
 20
7592.6707064874
 11
2965.450438798551
 21
7592.6707064874
 97
        8
330
3C1EC
330
38C3C
330
38CC6
330
38B84
330
38B96
330
38CCF
330
38CC1
330
38B1E
 75
     1
 76
     1
 52
0.0
 41
17.5
 77
     0
 78
     1
 53
0.0
 43
0.0
 44
0.0
 45
0.546875
 46
1.09375
 79
     2
 49
0.0
 49
-1.09375
 98
        1
 10
0.0
 20
0.0
1001
GradientColor1ACI
1070
     5
1001
GradientColor2ACI
1070
     2
1001
ACAD
1010
0.0
1020
0.0
1030
0.0
  0
HATCH
  5
3E2AD
330
1E
100
AcDbEntity
  8
1-0_本体
  6
Continuous
 62
     7
440
 33554521
370
    35
100
AcDbHatch
 10
0.0
 20
0.0
 30
0.0
210
0.0
220
0.0
230
1.0
  2
DOTS
 70
     0
 71
     1
 91
        4
 92
        7
 72
     1
 73
     1
 93
        7
 10
3035.45043879855
 20
7804.59022767826
 42
0.0
 10
3035.45043879855
 20
7800.590227678258
 42
0.0
 10
3043.950438798551
 20
7800.590227678258
 42
-0.4142135623730951
 10
3048.950438798551
 20
7795.590227678257
 42
0.0
 10
3048.950438798551
 20
7790.725756403917
 42
-0.1741577101347751
 10
3052.95043879855
 20
7779.59022767826
 42
0.0
 10
3060.450438798551
 20
7779.59022767826
 42
0.414213562373098
 97
        7
330
38BAC
330
38C8D
330
38C99
330
38C98
330
38CB3
330
38C94
330
38C86
 92
        7
 72
     1
 73
     1
 93
        3
 10
3035.45043879855
 20
7804.59022767826
 42
0.1443689143701365
 10
3021.885778832297
 20
7800.590227678258
 42
0.0
 10
3035.45043879855
 20
7800.590227678258
 42
0.0
 97
        2
330
38C86
330
38C8D
 92
        7
 72
     1
 73
     1
 93
        7
 10
3060.450438798551
 20
7779.59022767826
 42
0.0
 10
3052.95043879855
 20
7779.59022767826
 42
-0.1741577101347751
 10
3048.950438798551
 20
7768.454698952601
 42
0.0
 10
3048.950438798551
 20
7763.590227678261
 42
-0.4142135623730792
 10
3043.950438798551
 20
7758.590227678261
 42
0.0
 10
3035.45043879855
 20
7758.590227678261
 42
0.0
 10
3035.45043879855
 20
7754.59022767826
 42
0.414213562373098
 97
        6
330
38CB3
330
38C98
330
38C9A
330
38C8A
330
38BAC
330
38C86
 92
        7
 72
     1
 73
     1
 93
        3
 10
3035.45043879855
 20
7758.590227678261
 42
0.0
 10
3021.885778832299
 20
7758.590227678261
 42
0.1443689143701138
 10
3035.45043879855
 20
7754.59022767826
 42
0.0
 97
        2
330
38C8A
330
38C86
 75
     1
 76
     1
 52
0.0
 41
17.5
 77
     0
 78
     1
 53
0.0
 43
0.0
 44
0.0
 45
0.546875
 46
1.09375
 79
     2
 49
0.0
 49
-1.09375
 47
0.2316660875474399
 98
        4
 10
3053.694312291446
 20
7788.254194913576
 10
3032.597676673718
 20
7802.154160554175
 10
3053.230649637579
 20
7769.720907835602
 10
3033.525000468132
 20
7756.747607013868
1001
GradientColor1ACI
1070
     5
1001
GradientColor2ACI
1070
     2
1001
ACAD
1010
0.0
1020
0.0
1030
0.0
  0
VIEWPORT
  5
26D
330
1A
100
AcDbEntity
 67
     1
  8
0
  6
Continuous
100
AcDbViewport
 10
204.6591729387923
 20
145.14880274928
 30
0.0
 40
488.8921666842561
 41
306.5745886393709
 68
     1
 69
     1
 12
204.6591729387923
 22
145.14880274928
 13
0.0
 23
0.0
 14
10.0
 24
10.0
 15
10.0
 25
10.0
 16
0.0
 26
0.0
 36
1.0
 17
0.0
 27
0.0
 37
0.0
 42
50.0
 43
0.0
 44
0.0
 45
306.5745886393709
 50
0.0
 51
0.0
 72
   100
 90
    32800
  1

281
     0
 71
     1
 74
     0
110
0.0
120
0.0
130
0.0
111
1.0
121
0.0
131
0.0
112
0.0
122
1.0
132
0.0
 79
     0
146
0.0
170
     0
 61
     5
348
3E1A3
292
     1
282
     1
141
0.0
142
0.0
 63
   250
421
  3355443
  0
VIEWPORT
  5
26F
330
1A
100
AcDbEntity
 67
     1
  8
0
  6
Continuous
100
AcDbViewport
 10
204.6611870991987
 20
145.1426121777694
 30
0.0
 40
432.1727134446507
 41
304.3581945982522
 68
     2
 69
     2
 12
2955.108240532526
 22
7677.312599665341
 13
0.0
 23
0.0
 14
1.0
 24
1.0
 15
0.0
 25
0.0
 16
0.0
 26
0.0
 36
1.0
 17
0.0
 27
0.0
 37
0.0
 42
50.0
 43
0.0
 44
0.0
 45
301.7573770777781
 50
0.0
 51
0.0
 72
   100
 90
    32800
  1

281
     0
 71
     1
 74
     0
110
0.0
120
0.0
130
0.0
111
1.0
121
0.0
131
0.0
112
0.0
122
1.0
132
0.0
 79
     0
146
0.0
170
     0
 61
     5
348
3E1A3
292
     1
282
     1
141
0.0
142
0.0
 63
   250
421
  3355443
  0
ENDSEC
  0
SECTION
  2
OBJECTS
  0
DICTIONARY
  5
C
330
0
100
AcDbDictionary
281
     1
  3
ACAD_CIP_PREVIOUS_PRODUCT_INFO
350
3E1D7
  3
ACAD_COLOR
350
3E1B6
  3
ACAD_DETAILVIEWSTYLE
350
3E1CF
  3
ACAD_GROUP
350
D
  3
ACAD_LAYOUT
350
19
  3
ACAD_MATERIAL
350
3E184
  3
ACAD_MLEADERSTYLE
350
3E1CB
  3
ACAD_MLINESTYLE
350
16
  3
ACAD_PLOTSETTINGS
350
18
  3
ACAD_PLOTSTYLENAME
350
E
  3
ACAD_SCALELIST
350
3E1B9
  3
ACAD_SECTIONVIEWSTYLE
350
3E1CD
  3
ACAD_TABLESTYLE
350
3E1B7
  3
ACAD_VISUALSTYLE
350
3E19D
  3
AcadDim
350
C795
  3
ACDB_RECOMPOSE_DATA
350
3E372
  3
AcDbVariableDictionary
350
15F3
  0
DICTIONARY
  5
39DD2
330
2
100
AcDbDictionary
280
     1
281
     1
  3
ACAD_LAYERSTATES
360
39DD3
  0
DICTIONARY
  5
3E1E7
330
10
100
AcDbDictionary
280
     1
281
     1
  3
ADSK_XREC_LAYER_RECONCILED
360
3E1E8
  0
DICTIONARY
  5
3E1E9
330
1175
100
AcDbDictionary
280
     1
281
     1
  3
ADSK_XREC_LAYER_RECONCILED
360
3E1EA
  0
DICTIONARY
  5
3E1EB
330
1178
100
AcDbDictionary
280
     1
281
     1
  3
ADSK_XREC_LAYER_RECONCILED
360
3E1EC
  0
DICTIONARY
  5
3E1ED
330
3C558
100
AcDbDictionary
280
     1
281
     1
  3
ADSK_XREC_LAYER_RECONCILED
360
3E1EE
  0
DICTIONARY
  5
3E1EF
330
3C559
100
AcDbDictionary
280
     1
281
     1
  3
ADSK_XREC_LAYER_RECONCILED
360
3E1F0
  0
DICTIONARY
  5
3E1F1
330
3C55A
100
AcDbDictionary
280
     1
281
     1
  3
ADSK_XREC_LAYER_RECONCILED
360
3E1F2
  0
DICTIONARY
  5
3E1F3
330
3C55B
100
AcDbDictionary
280
     1
281
     1
  3
ADSK_XREC_LAYER_RECONCILED
360
3E1F4
  0
DICTIONARY
  5
3E1F5
330
3C55C
100
AcDbDictionary
280
     1
281
     1
  3
ADSK_XREC_LAYER_RECONCILED
360
3E1F6
  0
DICTIONARY
  5
3E1F7
330
3C55D
100
AcDbDictionary
280
     1
281
     1
  3
ADSK_XREC_LAYER_RECONCILED
360
3E1F8
  0
DICTIONARY
  5
3E1F9
330
3C55E
100
AcDbDictionary
280
     1
281
     1
  3
ADSK_XREC_LAYER_RECONCILED
360
3E1FA
  0
DICTIONARY
  5
3E1FB
330
3C55F
100
AcDbDictionary
280
     1
281
     1
  3
ADSK_XREC_LAYER_RECONCILED
360
3E1FC
  0
DICTIONARY
  5
3E1FD
330
3C560
100
AcDbDictionary
280
     1
281
     1
  3
ADSK_XREC_LAYER_RECONCILED
360
3E1FE
  0
DICTIONARY
  5
1198
330
1E
100
AcDbDictionary
280
     1
281
     1
  3
ACAD_LAYOUTSELFREF
360
11CF
  3
ACAD_SORTENTS
360
3E221
  0
DICTIONARY
  5
119A
330
1A
100
AcDbDictionary
280
     1
281
     1
  3
ACAD_LAYOUTSELFREF
360
11CE
  0
XRECORD
  5
3E1D7
102
{ACAD_REACTORS
330
C
102
}
330
C
100
AcDbXrecord
280
     1
300
ACDLT
300
2014
300
ACDLT_F_S
  0
DICTIONARY
  5
3E1B6
102
{ACAD_REACTORS
330
C
102
}
330
C
100
AcDbDictionary
281
     1
  0
DICTIONARY
  5
3E1CF
102
{ACAD_REACTORS
330
C
102
}
330
C
100
AcDbDictionary
281
     1
  3
Imperial24
350
3E1D0
  0
DICTIONARY
  5
D
102
{ACAD_REACTORS
330
C
102
}
330
C
100
AcDbDictionary
281
     1
  0
DICTIONARY
  5
19
102
{ACAD_REACTORS
330
C
102
}
330
C
100
AcDbDictionary
281
     1
  3
Model
350
21
  3
ﾚｲｱｳﾄ1
350
1D
  0
DICTIONARY
  5
3E184
102
{ACAD_REACTORS
330
C
102
}
330
C
100
AcDbDictionary
281
     1
  3
ByBlock
350
3E18D
  3
ByLayer
350
3E185
  3
Global
350
3E195
  0
DICTIONARY
  5
3E1CB
102
{ACAD_REACTORS
330
C
102
}
330
C
100
AcDbDictionary
281
     1
  3
Standard
350
3E1CC
  0
DICTIONARY
  5
16
102
{ACAD_REACTORS
330
C
102
}
330
C
100
AcDbDictionary
281
     1
  3
Standard
350
17
  0
DICTIONARY
  5
18
102
{ACAD_REACTORS
330
C
102
}
330
C
100
AcDbDictionary
281
     1
  0
ACDBDICTIONARYWDFLT
  5
E
102
{ACAD_REACTORS
330
C
102
}
330
C
100
AcDbDictionary
281
     1
  3
Normal
350
F
100
AcDbDictionaryWithDefault
340
F
  0
DICTIONARY
  5
3E1B9
102
{ACAD_REACTORS
330
C
102
}
330
C
100
AcDbDictionary
281
     1
  3
A0
350
3E1BA
  3
A1
350
3E1BB
  3
A2
350
3E1BC
  3
A3
350
3E1BD
  3
A4
350
3E1BE
  3
A5
350
3E1BF
  3
A6
350
3E1C0
  3
A7
350
3E1C1
  3
A8
350
3E1C2
  3
A9
350
3E1C3
  3
B0
350
3E1C4
  3
B1
350
3E1C5
  3
B2
350
3E1C6
  3
B3
350
3E1C7
  3
B4
350
3E1C8
  3
B5
350
3E1C9
  3
B6
350
3E1CA
  0
DICTIONARY
  5
3E1CD
102
{ACAD_REACTORS
330
C
102
}
330
C
100
AcDbDictionary
281
     1
  3
Imperial24
350
3E1CE
  0
DICTIONARY
  5
3E1B7
102
{ACAD_REACTORS
330
C
102
}
330
C
100
AcDbDictionary
281
     1
  3
Standard
350
3E1B8
  0
DICTIONARY
  5
3E19D
102
{ACAD_REACTORS
330
C
102
}
330
C
100
AcDbDictionary
281
     1
  3
2dWireframe
350
3E1A3
  3
Basic
350
3E1A2
  3
Brighten
350
3E1A9
  3
ColorChange
350
3E1AD
  3
Conceptual
350
3E1A6
  3
Dim
350
3E1A8
  3
EdgeColorOff
350
3E1B5
  3
Facepattern
350
3E1AC
  3
Flat
350
3E19E
  3
FlatWithEdges
350
3E19F
  3
Gouraud
350
3E1A0
  3
GouraudWithEdges
350
3E1A1
  3
Hidden
350
3E1A5
  3
JitterOff
350
3E1B3
  3
Linepattern
350
3E1AB
  3
OverhangOff
350
3E1B4
  3
Realistic
350
3E1A7
  3
Shaded
350
3E1B2
  3
Shaded with edges
350
3E1B1
  3
Shades of Gray
350
3E1AE
  3
Sketchy
350
3E1AF
  3
Thicken
350
3E1AA
  3
Wireframe
350
3E1A4
  3
X-Ray
350
3E1B0
  0
XRECORD
  5
C795
102
{ACAD_REACTORS
330
C
102
}
330
C
100
AcDbXrecord
280
     1
 90
   990106
  3

 60
     0
 61
     0
 62
     1
 63
     3
 64
     0
 65
     0
 66
     0
 67
     3
 68
     1
 69
     0
 70
     0
 71
     0
 72
     0
 40
3.504893568988336
170
     0
340
0
  0
XRECORD
  5
3E372
102
{ACAD_REACTORS
330
C
102
}
330
C
100
AcDbXrecord
280
     1
 90
        1
330
3E1B8
330
3E1CE
330
3E1D0
  0
DICTIONARY
  5
15F3
102
{ACAD_REACTORS
330
C
102
}
330
C
100
AcDbDictionary
281
     1
  3
CANNOSCALE
350
3E210
  3
CMLEADERSTYLE
350
3E20C
  3
CTABLESTYLE
350
3E20B
  3
CVIEWDETAILSTYLE
350
3E20D
  3
CVIEWSECTIONSTYLE
350
3E20E
  3
HPTRANSPARENCY
350
3E21F
  3
LAYEREVAL
350
3E212
  3
LAYERNOTIFY
350
3E213
  3
LIGHTINGUNITS
350
3E211
  3
MSLTSCALE
350
3E20F
  3
SORTENTS
350
15F4
  0
DICTIONARY
  5
39DD3
102
{ACAD_REACTORS
330
39DD2
102
}
330
39DD2
100
AcDbDictionary
281
     1
  0
XRECORD
  5
3E1E8
102
{ACAD_REACTORS
330
3E1E7
102
}
330
3E1E7
100
AcDbXrecord
280
     1
290
     1
  0
XRECORD
  5
3E1EA
102
{ACAD_REACTORS
330
3E1E9
102
}
330
3E1E9
100
AcDbXrecord
280
     1
290
     1
  0
XRECORD
  5
3E1EC
102
{ACAD_REACTORS
330
3E1EB
102
}
330
3E1EB
100
AcDbXrecord
280
     1
290
     1
  0
XRECORD
  5
3E1EE
102
{ACAD_REACTORS
330
3E1ED
102
}
330
3E1ED
100
AcDbXrecord
280
     1
290
     1
  0
XRECORD
  5
3E1F0
102
{ACAD_REACTORS
330
3E1EF
102
}
330
3E1EF
100
AcDbXrecord
280
     1
290
     1
  0
XRECORD
  5
3E1F2
102
{ACAD_REACTORS
330
3E1F1
102
}
330
3E1F1
100
AcDbXrecord
280
     1
290
     1
  0
XRECORD
  5
3E1F4
102
{ACAD_REACTORS
330
3E1F3
102
}
330
3E1F3
100
AcDbXrecord
280
     1
290
     1
  0
XRECORD
  5
3E1F6
102
{ACAD_REACTORS
330
3E1F5
102
}
330
3E1F5
100
AcDbXrecord
280
     1
290
     1
  0
XRECORD
  5
3E1F8
102
{ACAD_REACTORS
330
3E1F7
102
}
330
3E1F7
100
AcDbXrecord
280
     1
290
     1
  0
XRECORD
  5
3E1FA
102
{ACAD_REACTORS
330
3E1F9
102
}
330
3E1F9
100
AcDbXrecord
280
     1
290
     1
  0
XRECORD
  5
3E1FC
102
{ACAD_REACTORS
330
3E1FB
102
}
330
3E1FB
100
AcDbXrecord
280
     1
290
     1
  0
XRECORD
  5
3E1FE
102
{ACAD_REACTORS
330
3E1FD
102
}
330
3E1FD
100
AcDbXrecord
280
     1
290
     1
  0
XRECORD
  5
11CF
102
{ACAD_REACTORS
330
1198
102
}
330
1198
100
AcDbXrecord
280
     1
340
1E
  0
SORTENTSTABLE
  5
3E221
102
{ACAD_REACTORS
330
1198
102
}
330
1198
100
AcDbSortentsTable
330
1E
331
3BED7
  5
3BEF3
331
3C287
  5
3C2D6
331
3C2DE
  5
3C3B9
331
3C2DA
  5
3C31A
331
3C283
  5
3C2D1
331
3BB00
  5
3BEE0
331
3BE8B
  5
3BEF2
331
3C2D6
  5
3C301
331
3BAFC
  5
3BEDC
331
3C27B
  5
3C2CE
331
3C1EC
  5
3C286
331
3C2D2
  5
3C2FE
331
3C319
  5
3E177
331
37F2F
  5
37F4B
331
38BF6
  5
38C1C
331
3E293
  5
38B5B
331
37F27
  5
37F33
331
38B6C
  5
38B7E
331
38BF2
  5
38C10
331
38B1D
  5
38B59
331
38C2F
  5
38C7C
331
38C86
  5
38CB1
331
38CBD
  5
3B7D5
331
38BEE
  5
38C0B
331
38B68
  5
38B7A
331
38BA7
  5
38BD3
331
38C2B
  5
38C5C
331
38BEA
  5
38C05
331
38BA3
  5
38BCE
331
38B64
  5
38B76
331
3B7E3
  5
3BAD3
331
38C7E
  5
38CAC
331
38B60
  5
38B72
331
39A58
  5
3BA0E
331
38CB1
  5
3A3ED
331
38C23
  5
38C46
331
3E06B
  5
3E293
331
3BE87
  5
3BEF0
331
3C0A5
  5
3C283
331
3C311
  5
3E06C
331
3BE83
  5
3BEED
331
3BEFA
  5
3C1EC
331
3C0A1
  5
3C27B
331
3C2CE
  5
3C2F0
331
3C267
  5
3C2CA
331
3C400
  5
3E230
331
3C2CA
  5
3C2EB
331
3C263
  5
3C2C5
331
3C301
  5
3E06B
331
3E28F
  5
37F31
331
37F62
  5
38B3D
331
38BE6
  5
38BFD
331
3B7DF
  5
3BAB1
331
37F5E
  5
38B37
331
38BE2
  5
38BF9
331
38B5C
  5
38B6E
331
3B7DB
  5
3BA46
331
38C1D
  5
38C39
331
38BDE
  5
38BF5
331
38B58
  5
38B6A
331
38B9F
  5
38BCB
331
3B7D7
  5
3BA2E
331
3BA2E
  5
3BB03
331
38BDA
  5
38BF1
331
399EC
  5
3B8E7
331
3B7D3
  5
3BA18
331
38C5A
  5
38C98
331
3BE7F
  5
3BEEA
331
3BEF6
  5
3C0A4
331
3C09D
  5
3C278
331
3C099
  5
3C268
331
3BEF2
  5
3C09D
331
3C3F4
  5
3E22C
331
3C2C6
  5
3C2E4
331
3C2FD
  5
3D4BA
331
3BAD8
  5
3BE87
331
3BEEE
  5
3C034
331
3C035
  5
3C266
331
3C2C2
  5
3C2E0
331
3BEEA
  5
3BFFC
331
3BAD4
  5
3BE83
331
3C2A6
  5
3C2DE
331
3C2F1
  5
3D4B6
331
3C3C0
  5
3E229
331
37F52
  5
37F60
331
38BD6
  5
38BED
331
3B7CF
  5
3BA15
331
38BD2
  5
38BE9
331
38B38
  5
38B64
331
38BCE
  5
38BE6
331
3BA16
  5
3BAFE
331
38CA1
  5
390AE
331
38BCA
  5
38BE2
331
38C46
  5
38C94
331
38C99
  5
38CCA
331
3BEE6
  5
3BFF8
331
3BFFD
  5
3C239
331
3BFF9
  5
3C21F
331
3BDFB
  5
3BEE6
331
3BEE2
  5
3BFE9
331
3C29E
  5
3C2D9
331
3C2ED
  5
3D4AC
331
3BEDE
  5
3BEFA
331
3BFF5
  5
3C21D
331
3BEDA
  5
3BEF6
331
3C2E5
  5
3C3F6
331
3C21F
  5
3C2A6
331
3C3B4
  5
3E220
331
3C21B
  5
3C2A0
331
3C28A
  5
3C2D8
331
3C2E1
  5
3C3F2
331
37F46
  5
37F5E
331
38C05
  5
38C2B
331
38B7F
  5
38BAD
331
3BA0E
  5
3BAEE
331
38B7B
  5
38BA6
331
38C01
  5
38C29
331
38B2C
  5
38B5E
331
38C95
  5
38CC5
331
38CCC
  5
3B7DF
331
37F32
  5
37F5C
331
38BFD
  5
38C24
331
38B77
  5
38BA2
331
38C3A
  5
38C8E
331
38C91
  5
38CBE
331
38BF9
  5
38C1F
331
38B73
  5
38B9C
331
38C36
  5
38C88
331
38C8D
  5
38CB8
331
38C89
  5
38CB6
331
38C32
  5
38C81
331
3BFE9
  5
3C21A
331
3BB03
  5
3BEE3
331
3C286
  5
3C2D5
331
3C2DD
  5
3C3B7
331
3BAFF
  5
3BEDF
331
3C2D9
  5
3C319
331
3C282
  5
3C2D0
331
3BAFB
  5
3BEDB
331
3C2D5
  5
3C300
331
3C2D1
  5
3C2FD
331
3C318
  5
3E06D
331
38B6F
  5
38B81
331
38BF5
  5
38C1B
331
37F26
  5
37F32
331
38B1C
  5
38B58
331
38B6B
  5
38B7D
331
38BF1
  5
38C0F
331
3E179
  5
3E298
331
38C2E
  5
38C7B
331
38C85
  5
38CB0
331
38BED
  5
38C0A
331
38B67
  5
38B79
331
38BA6
  5
38BD2
331
38C2A
  5
38C5B
331
38C81
  5
38CAF
331
38CB8
  5
3B7D1
331
38BA2
  5
38BCD
331
38B63
  5
38B75
331
38BE9
  5
38C04
331
38C7D
  5
38CAB
331
38CB0
  5
39A59
331
38C22
  5
38C44
331
3BAF7
  5
3BED9
331
3E177
  5
3E296
331
3E06A
  5
3E292
331
3BE86
  5
3BEEF
331
3C0A4
  5
3C282
331
3D4BA
  5
3E27F
331
3C2CD
  5
3C2EE
331
3C266
  5
3C2C9
331
3BE82
  5
3BEEC
331
3BEF9
  5
3C0A7
331
3C0A0
  5
3C279
331
3C2C9
  5
3C2E6
331
3C300
  5
3E06A
331
37F61
  5
38B3A
331
3B7DE
  5
3BA99
331
38B5F
  5
38B71
331
38BE5
  5
38BFC
331
37F5D
  5
38B36
331
3B7DA
  5
3BA43
331
38B5B
  5
38B6D
331
38BE1
  5
38BF8
331
3BA2D
  5
3BB02
331
3B7D6
  5
3BA2D
331
38BDD
  5
38BF4
331
38B57
  5
38B69
331
38C1C
  5
38C38
331
3B7D2
  5
3BA17
331
38CAC
  5
399ED
331
38C5D
  5
38C9B
331
38BD9
  5
38BF0
331
38C59
  5
38C96
331
3C3F7
  5
3E22F
331
3D4B6
  5
3E27D
331
3BEF5
  5
3C0A3
331
3C098
  5
3C267
331
3C2FC
  5
3D4B9
331
3C2C5
  5
3C2E3
331
3C3F3
  5
3E22B
331
3BE7A
  5
3BEE9
331
3BEF1
  5
3C099
331
3D4AE
  5
3E233
331
3BEED
  5
3BFFF
331
3C2C1
  5
3C2DF
331
3BAD7
  5
3BE86
331
3C034
  5
3C265
331
3BEE9
  5
3BFFB
331
3BAD3
  5
3BE82
331
3C2A1
  5
3C2DB
331
3C2F0
  5
3D4B1
331
3B7CE
  5
3BA14
331
38B96
  5
38BC5
331
38B3F
  5
38B68
331
38BD5
  5
38BEC
331
3BA19
  5
3BB01
331
38C10
  5
38C34
331
38BD1
  5
38BE8
331
3BA15
  5
3BAFD
331
38BCD
  5
38BE5
331
38CA0
  5
38CCF
331
38B37
  5
38B63
331
38C0C
  5
38C31
331
3BA11
  5
3BAFA
331
38B82
  5
38BB5
331
38C98
  5
38CC9
331
3C3BF
  5
3E228
331
3BEE5
  5
3BFF5
331
3BFFC
  5
3C238
331
3BFF8
  5
3C21E
331
3C2EC
  5
3C40A
331
3BDFA
  5
3BEE5
331
3BEE1
  5
3BFE7
331
3C3B7
  5
3E222
331
3BEDD
  5
3BEF9
331
3BFF4
  5
3C21C
331
3C2E4
  5
3C3F5
331
3C21E
  5
3C2A4
331
3BED9
  5
3BEF5
331
3BFF0
  5
3C21B
331
3C21A
  5
3C29E
331
3C289
  5
3C2D7
331
3C2E0
  5
3C3C0
331
3BA0D
  5
3BAED
331
38CCF
  5
3B7E3
331
38B7E
  5
38BAC
331
38BC5
  5
38BE0
331
38C04
  5
38C2A
331
38C00
  5
38C28
331
38C3D
  5
38C90
331
38C94
  5
38CC3
331
38CCB
  5
3B7DE
331
38B7A
  5
38BA5
331
37F31
  5
37F5B
331
38BFC
  5
38C22
331
38C39
  5
38C8D
331
38C90
  5
38CBD
331
38B76
  5
38BA1
331
38BB5
  5
38BDE
331
38BB1
  5
38BDC
331
38CC3
  5
3B7D8
331
38C35
  5
38C87
331
38B72
  5
38B96
331
38BF8
  5
38C1E
331
38C88
  5
38CB3
331
38C31
  5
38C7E
331
3BA47
  5
3BE79
331
3C285
  5
3C2D4
331
3C2DC
  5
3C3B4
331
3BA43
  5
3BDFB
331
3BB02
  5
3BEE2
331
3C2D8
  5
3C318
331
3C20A
  5
3C287
331
3BA3F
  5
3BDFA
331
3BAFE
  5
3BEDE
331
3C40A
  5
3E231
331
3C2D4
  5
3C2FF
331
3BAFA
  5
3BEDA
331
3C279
  5
3C2CD
331
3C2D0
  5
3C2FC
331
3E2AD
  5
38BD9
331
3E291
  5
38C2E
331
38B6E
  5
38B80
331
38BAD
  5
38BDB
331
38BF4
  5
38C1A
331
3E178
  5
3E297
331
38C2D
  5
38C73
331
38CBB
  5
3B7D3
331
38B6A
  5
38B7C
331
38BF0
  5
38C0E
331
3B7E5
  5
3BAD7
331
38BEC
  5
38C07
331
38C29
  5
38C5A
331
38CB7
  5
3B7CF
331
38B66
  5
38B78
331
38BA5
  5
38BD1
331
38BE8
  5
38C01
331
38BA1
  5
38BCC
331
38CB3
  5
3B7CD
331
38C7C
  5
38CAA
331
38B62
  5
38B74
331
38C21
  5
38C43
331
3E06D
  5
3E295
331
3E069
  5
3E291
331
3C0A7
  5
3C285
331
3C0A3
  5
3C27C
331
3BE85
  5
3BEEE
331
3BAEE
  5
3BED7
331
3D4B9
  5
3E27E
331
3C2CC
  5
3C2ED
331
3C265
  5
3C2C7
331
3BE81
  5
3BEEB
331
3BEF8
  5
3C0A6
331
37F60
  5
38B39
331
38B5E
  5
38B70
331
38BE4
  5
38BFB
331
37F5C
  5
38B32
331
38C1F
  5
38C3C
331
38BE0
  5
38BF7
331
38B5A
  5
38B6C
331
3B7D9
  5
3BA3F
331
38BDC
  5
38BF3
331
38C1B
  5
38C37
331
38CAF
  5
39A58
331
38B9D
  5
38BCA
331
3B7D5
  5
3BA19
331
38BD8
  5
38BEF
331
38CAB
  5
399EC
331
38C5C
  5
38C9A
331
399EA
  5
3B8D8
331
3B7D1
  5
3BA16
331
3C3F6
  5
3E22E
331
3C2FF
  5
3E069
331
3BEF4
  5
3C0A1
331
3C3F2
  5
3E22A
331
3C2C4
  5
3C2E2
331
3BADA
  5
3BE88
331
3BE79
  5
3BEE8
331
3BEF0
  5
3C098
331
3BEEC
  5
3BFFE
331
3C2A4
  5
3C2DD
331
3BEE8
  5
3BFFA
331
3C239
  5
3C2C4
331
3C2A0
  5
3C2DA
331
38BD4
  5
38BEB
331
38C13
  5
38C35
331
3B7CD
  5
3BA13
331
38C0F
  5
38C33
331
38B3A
  5
38B66
331
3BA18
  5
3BB00
331
38C0B
  5
38C30
331
38BCC
  5
38BE4
331
38B36
  5
38B62
331
3A3ED
  5
3BA10
331
3BA14
  5
3BAFC
331
38B81
  5
38BB3
331
38C9B
  5
38CCC
331
38C44
  5
38C92
331
38B32
  5
38B60
331
3BA10
  5
3BAF7
331
3BFFF
  5
3C264
331
3BEE4
  5
3BFF4
331
3BFFB
  5
3C221
331
3C2EB
  5
3C400
331
3BAB2
  5
3BE81
331
3BEE0
  5
3BF4B
331
3BEDC
  5
3BEF8
331
3C221
  5
3C2C2
331
3BB55
  5
3BEE4
331
3C2E3
  5
3C3F4
331
3C21D
  5
3C2A3
331
3BED8
  5
3BEF4
331
3C219
  5
3C28A
331
38C07
  5
38C2D
331
38B7D
  5
38BA8
331
38BC4
  5
38BDF
331
38C3C
  5
38C8F
331
38CCA
  5
3B7DC
331
38B79
  5
38BA4
331
37F30
  5
37F52
331
38BFB
  5
38C21
331
38CC6
  5
3B7DA
331
38C38
  5
38C8A
331
38C8F
  5
38CBB
331
38B26
  5
38B5D
331
38B75
  5
38B9F
331
38C34
  5
38C86
331
38B71
  5
38B84
331
38C30
  5
38C7D
331
3C3A6
  5
3E179
331
3C2DF
  5
3C3BF
331
3BA46
  5
3BE38
331
3C284
  5
3C2D2
331
3C2DB
  5
3C3A6
331
3BB01
  5
3BEE1
331
3BFE7
  5
3C219
331
3C2D7
  5
3C311
331
3BA3E
  5
3BB55
331
3BAFD
  5
3BEDD
331
3C27C
  5
3C2CF
331
3C31A
  5
3E178
331
3BE88
  5
3BEF1
331
3C278
  5
3C2CC
331
38BF7
  5
38C1D
331
37F28
  5
37F46
331
37FA7
  5
38B57
331
38CBE
  5
3B7D6
331
38B6D
  5
38B7F
331
38C87
  5
38CB2
331
38B1E
  5
38B5C
331
38BAC
  5
38BDA
331
38BF3
  5
38C13
331
37F24
  5
37F26
331
38BEF
  5
38C0C
331
38C2C
  5
38C5D
331
38CBA
  5
3B7D2
331
38B69
  5
38B7B
331
38BA8
  5
38BD4
331
3B8D8
  5
3BAD8
331
38BEB
  5
38C06
331
38CB6
  5
3B7CE
331
38C28
  5
38C59
331
38B65
  5
38B77
331
38BA4
  5
38BCF
331
38CB2
  5
3B7CC
331
38C24
  5
38C4B
331
38C7B
  5
38CA1
331
38B61
  5
38B73
331
39A59
  5
3BA0F
331
38C20
  5
38C3D
331
3E06C
  5
3E294
331
3BAF5
  5
3BED8
331
3BF4B
  5
3C218
331
3E068
  5
3E290
331
3C0A6
  5
3C284
331
3BEFB
  5
3C20A
331
3C2CF
  5
3C2F1
331
3C268
  5
3C2CB
331
3BAED
  5
3BE8B
331
3C2CB
  5
3C2EC
331
3C264
  5
3C2C6
331
37F63
  5
38B3F
331
38BE7
  5
38C00
331
37F5F
  5
38B38
331
38BE3
  5
38BFA
331
38B5D
  5
38B6F
331
3B7DC
  5
3BA47
331
37F5B
  5
38B2C
331
38C1E
  5
38C3A
331
38BDF
  5
38BF6
331
38B59
  5
38B6B
331
3B7D8
  5
3BA3E
331
38C73
  5
38CA0
331
38BDB
  5
38BF2
331
38B9C
  5
38BC7
331
38C1A
  5
38C36
331
399ED
  5
3BA0D
331
38CAA
  5
399EA
331
38C5B
  5
38C99
331
3BEF7
  5
3C0A5
331
3C3F5
  5
3E22D
331
3C2C7
  5
3C2E5
331
3C2FE
  5
3E068
331
3BEF3
  5
3C0A0
331
3C2C3
  5
3C2E1
331
3BEEF
  5
3C035
331
3D4AC
  5
3E232
331
3BEEB
  5
3BFFD
331
3BAD5
  5
3BE85
331
3C2A3
  5
3C2DC
331
3BE38
  5
3BEE7
331
3C238
  5
3C2C3
331
38BD7
  5
38BEE
331
38BD3
  5
38BEA
331
38B3D
  5
38B67
331
3B7CC
  5
3BA11
331
37F4B
  5
37F5F
331
38C0E
  5
38C32
331
38B39
  5
38B65
331
38BCF
  5
38BE7
331
3BA17
  5
3BAFF
331
38C4B
  5
38C95
331
38C0A
  5
38C2F
331
38BCB
  5
38BE3
331
38B35
  5
38B61
331
38B84
  5
38BC4
331
3BA13
  5
3BAFB
331
38B80
  5
38BB1
331
38B31
  5
38B5F
331
38C9A
  5
38CCB
331
38C43
  5
38C91
331
3BEE7
  5
3BFF9
331
3BFFE
  5
3C263
331
3BFFA
  5
3C220
331
3C2EE
  5
3D4AE
331
3BEE3
  5
3BFF0
331
3BEDF
  5
3BEFB
331
3C3B9
  5
3E223
331
3BAB1
  5
3BE7F
331
3C220
  5
3C2C1
331
3C2E6
  5
3C3F7
331
3BEDB
  5
3BEF7
331
3C2E2
  5
3C3F3
331
3C21C
  5
3C2A1
331
3BA99
  5
3BE7A
331
3C218
  5
3C289
331
38C06
  5
38C2C
331
38BC7
  5
38BE1
331
3BA0F
  5
3BAF5
331
38B7C
  5
38BA7
331
38C96
  5
38CC6
331
37F33
  5
37F5D
331
38B78
  5
38BA3
331
3B8E7
  5
3BADA
331
38C92
  5
38CC1
331
38CC9
  5
3B7DB
331
38BB3
  5
38BDD
331
38B74
  5
38B9D
331
38BFA
  5
38C20
331
38CC5
  5
3B7D9
331
38C37
  5
38C89
331
38C8E
  5
38CBA
331
38B70
  5
38B82
331
38C8A
  5
38CB7
331
38C33
  5
38C85
331
38CC1
  5
3B7D7
  0
XRECORD
  5
11CE
102
{ACAD_REACTORS
330
119A
102
}
330
119A
100
AcDbXrecord
280
     1
340
1A
  0
ACDBDETAILVIEWSTYLE
  5
3E1D0
102
{ACAD_XDICTIONARY
360
3E208
102
}
102
{ACAD_REACTORS
330
3E1CF
102
}
330
3E1CF
100
AcDbModelDocViewStyle
 70
     0
  3
Imperial24
290
     0
100
AcDbDetailViewStyle
 70
     0
 71
     0
 90
        3
 71
     1
340
11
 62
   256
 40
0.24
340
0
 62
   256
 40
0.24
300

 40
0.36
280
     3
 71
     2
340
15
 90
       25
 62
   256
 71
     3
340
11
 62
   256
 40
0.24
 90
        1
 40
0.75
 90
        1
300
%<\AcVar ViewType \f "%tc1">% %<\AcVar ViewDetailId>%\PSCALE %<\AcVar ViewScale \f "%sn">%
 71
     4
340
15
 90
       25
 62
   256
340
15
 90
       25
 62
   256
280
     0
  0
LAYOUT
  5
21
102
{ACAD_REACTORS
330
19
102
}
330
19
100
AcDbPlotSettings
  1

  2
RICOH imagio Neo C285 RPCS_3
  4
A4
  6

 40
5.873749732971191
 41
5.873747825622558
 42
5.873748779296875
 43
5.873748779296875
 44
209.9733276367187
 45
296.9259948730469
 46
0.0
 47
0.0
 48
2749.450438798551
 49
7537.766041329998
140
3158.450438798551
141
7816.766041329997
142
1.0
143
1.434189472501725
 70
 11952
 72
     1
 73
     1
 74
     4
  7
monochrome.ctb
 75
     0
147
0.6972579419758617
 76
     0
 77
     2
 78
   300
148
-2749.450438798551
149
-7537.766041329998
100
AcDbLayout
  1
Model
 70
     1
 71
     0
 10
0.0
 20
0.0
 11
12.0
 21
9.0
 12
0.0
 22
0.0
 32
0.0
 14
0.0
 24
0.0
 34
0.0
 15
0.0
 25
0.0
 35
0.0
146
0.0
 13
0.0
 23
0.0
 33
0.0
 16
1.0
 26
0.0
 36
0.0
 17
0.0
 27
1.0
 37
0.0
 76
     0
330
1E
331
3E182
  0
LAYOUT
  5
1D
102
{ACAD_REACTORS
330
19
102
}
330
19
100
AcDbPlotSettings
  1

  2
RICOH imagio MP C2200 RPCS
  4
A3
  6

 40
5.873749732971191
 41
5.873747825622558
 42
5.873748779296875
 43
5.873748779296875
 44
296.9259948730469
 45
419.9466552734374
 46
0.0
 47
0.0
 48
-2.836074990290081
 49
2.329968313616386
140
409.8223813546984
141
285.8434856308782
142
1.0
143
1.010924318636559
 70
   688
 72
     1
 73
     1
 74
     4
  7
monochrome.ctb
 75
     0
147
0.9891937324731754
 76
     0
 77
     2
 78
   300
148
2.836074990290081
149
-2.329968313616386
100
AcDbLayout
  1
ﾚｲｱｳﾄ1
 70
     1
 71
     1
 10
-8.773990472843097
 20
-3.607948133029188
 11
415.7602958731588
 21
296.5617609194883
 12
0.0
 22
0.0
 32
0.0
 14
-11.45606450302114
 24
-7.038343525048844
 34
-0.0000000000112498
 15
420.7744103806057
 25
297.3359490236088
 35
0.0000000000002956
146
0.0
 13
0.0
 23
0.0
 33
0.0
 16
1.0
 26
0.0
 36
0.0
 17
0.0
 27
1.0
 37
0.0
 76
     0
330
1A
331
26D
  0
MATERIAL
  5
3E18D
102
{ACAD_XDICTIONARY
360
3E18E
102
}
102
{ACAD_REACTORS
330
3E184
102
}
330
3E184
100
AcDbMaterial
  1
ByBlock
 72
     0
 43
0.0208333333333333
 43
0.0
 43
0.0
 43
0.0
 43
0.0
 43
0.0208333333333333
 43
0.0
 43
0.0
 43
0.0
 43
0.0
 43
1.0
 43
0.0
 43
0.0
 43
0.0
 43
0.0
 43
1.0
 77
     0
 47
0.0208333333333333
 47
0.0
 47
0.0
 47
0.0
 47
0.0
 47
0.0208333333333333
 47
0.0
 47
0.0
 47
0.0
 47
0.0
 47
1.0
 47
0.0
 47
0.0
 47
0.0
 47
0.0
 47
1.0
171
     0
 49
0.0208333333333333
 49
0.0
 49
0.0
 49
0.0
 49
0.0
 49
0.0208333333333333
 49
0.0
 49
0.0
 49
0.0
 49
0.0
 49
1.0
 49
0.0
 49
0.0
 49
0.0
 49
0.0
 49
1.0
175
     0
142
0.0208333333333333
142
0.0
142
0.0
142
0.0
142
0.0
142
0.0208333333333333
142
0.0
142
0.0
142
0.0
142
0.0
142
1.0
142
0.0
142
0.0
142
0.0
142
0.0
142
1.0
179
     0
144
0.0208333333333333
144
0.0
144
0.0
144
0.0
144
0.0
144
0.0208333333333333
144
0.0
144
0.0
144
0.0
144
0.0
144
1.0
144
0.0
144
0.0
144
0.0
144
0.0
144
1.0
147
0.0208333333333333
147
0.0
147
0.0
147
0.0
147
0.0
147
0.0208333333333333
147
0.0
147
0.0
147
0.0
147
0.0
147
1.0
147
0.0
147
0.0
147
0.0
147
0.0
147
1.0
  0
MATERIAL
  5
3E185
102
{ACAD_XDICTIONARY
360
3E186
102
}
102
{ACAD_REACTORS
330
3E184
102
}
330
3E184
100
AcDbMaterial
  1
ByLayer
 72
     0
 43
0.0208333333333333
 43
0.0
 43
0.0
 43
0.0
 43
0.0
 43
0.0208333333333333
 43
0.0
 43
0.0
 43
0.0
 43
0.0
 43
1.0
 43
0.0
 43
0.0
 43
0.0
 43
0.0
 43
1.0
 77
     0
 47
0.0208333333333333
 47
0.0
 47
0.0
 47
0.0
 47
0.0
 47
0.0208333333333333
 47
0.0
 47
0.0
 47
0.0
 47
0.0
 47
1.0
 47
0.0
 47
0.0
 47
0.0
 47
0.0
 47
1.0
171
     0
 49
0.0208333333333333
 49
0.0
 49
0.0
 49
0.0
 49
0.0
 49
0.0208333333333333
 49
0.0
 49
0.0
 49
0.0
 49
0.0
 49
1.0
 49
0.0
 49
0.0
 49
0.0
 49
0.0
 49
1.0
175
     0
142
0.0208333333333333
142
0.0
142
0.0
142
0.0
142
0.0
142
0.0208333333333333
142
0.0
142
0.0
142
0.0
142
0.0
142
1.0
142
0.0
142
0.0
142
0.0
142
0.0
142
1.0
179
     0
144
0.0208333333333333
144
0.0
144
0.0
144
0.0
144
0.0
144
0.0208333333333333
144
0.0
144
0.0
144
0.0
144
0.0
144
1.0
144
0.0
144
0.0
144
0.0
144
0.0
144
1.0
147
0.0208333333333333
147
0.0
147
0.0
147
0.0
147
0.0
147
0.0208333333333333
147
0.0
147
0.0
147
0.0
147
0.0
147
1.0
147
0.0
147
0.0
147
0.0
147
0.0
147
1.0
  0
MATERIAL
  5
3E195
102
{ACAD_XDICTIONARY
360
3E196
102
}
102
{ACAD_REACTORS
330
3E184
102
}
330
3E184
100
AcDbMaterial
  1
Global
 72
     0
 43
0.0208333333333333
 43
0.0
 43
0.0
 43
0.0
 43
0.0
 43
0.0208333333333333
 43
0.0
 43
0.0
 43
0.0
 43
0.0
 43
1.0
 43
0.0
 43
0.0
 43
0.0
 43
0.0
 43
1.0
 77
     0
 47
0.0208333333333333
 47
0.0
 47
0.0
 47
0.0
 47
0.0
 47
0.0208333333333333
 47
0.0
 47
0.0
 47
0.0
 47
0.0
 47
1.0
 47
0.0
 47
0.0
 47
0.0
 47
0.0
 47
1.0
171
     0
 49
0.0208333333333333
 49
0.0
 49
0.0
 49
0.0
 49
0.0
 49
0.0208333333333333
 49
0.0
 49
0.0
 49
0.0
 49
0.0
 49
1.0
 49
0.0
 49
0.0
 49
0.0
 49
0.0
 49
1.0
175
     0
142
0.0208333333333333
142
0.0
142
0.0
142
0.0
142
0.0
142
0.0208333333333333
142
0.0
142
0.0
142
0.0
142
0.0
142
1.0
142
0.0
142
0.0
142
0.0
142
0.0
142
1.0
179
     0
144
0.0208333333333333
144
0.0
144
0.0
144
0.0
144
0.0
144
0.0208333333333333
144
0.0
144
0.0
144
0.0
144
0.0
144
1.0
144
0.0
144
0.0
144
0.0
144
0.0
144
1.0
147
0.0208333333333333
147
0.0
147
0.0
147
0.0
147
0.0
147
0.0208333333333333
147
0.0
147
0.0
147
0.0
147
0.0
147
1.0
147
0.0
147
0.0
147
0.0
147
0.0
147
1.0
  0
MLEADERSTYLE
  5
3E1CC
102
{ACAD_REACTORS
330
3E1CB
102
}
330
3E1CB
100
AcDbMLeaderStyle
179
     2
170
     2
171
     1
172
     0
 90
        2
 40
0.0
 41
0.0
173
     1
 91
-1056964608
340
13
 92
       -2
290
     1
 42
0.09
291
     1
 43
0.36
  3
Standard
 44
0.18
300

342
11
174
     1
178
     6
175
     1
176
     0
 93
-1056964608
 45
0.18
292
     0
297
     0
 46
0.18
 94
-1056964608
 47
1.0
 49
1.0
140
1.0
293
     1
141
0.0
294
     1
177
     0
142
1.0
295
     1
296
     0
143
0.125
271
     0
272
     9
273
     9
298
     1
  0
MLINESTYLE
  5
17
102
{ACAD_REACTORS
330
16
102
}
330
16
100
AcDbMlineStyle
  2
STANDARD
 70
     0
  3

 62
   256
 51
90.0
 52
90.0
 71
     2
 49
0.5
 62
   256
  6
BYLAYER
 49
-0.5
 62
   256
  6
BYLAYER
  0
ACDBPLACEHOLDER
  5
F
102
{ACAD_REACTORS
330
E
102
}
330
E
  0
SCALE
  5
3E1BA
102
{ACAD_REACTORS
330
3E1B9
102
}
330
3E1B9
100
AcDbScale
 70
     0
300
1:1
140
1.0
141
1.0
290
     1
  0
SCALE
  5
3E1BB
102
{ACAD_REACTORS
330
3E1B9
102
}
330
3E1B9
100
AcDbScale
 70
     0
300
1/128" = 1'-0"
140
0.0078125
141
12.0
290
     0
  0
SCALE
  5
3E1BC
102
{ACAD_REACTORS
330
3E1B9
102
}
330
3E1B9
100
AcDbScale
 70
     0
300
1/64" = 1'-0"
140
0.015625
141
12.0
290
     0
  0
SCALE
  5
3E1BD
102
{ACAD_REACTORS
330
3E1B9
102
}
330
3E1B9
100
AcDbScale
 70
     0
300
1/32" = 1'-0"
140
0.03125
141
12.0
290
     0
  0
SCALE
  5
3E1BE
102
{ACAD_REACTORS
330
3E1B9
102
}
330
3E1B9
100
AcDbScale
 70
     0
300
1/16" = 1'-0"
140
0.0625
141
12.0
290
     0
  0
SCALE
  5
3E1BF
102
{ACAD_REACTORS
330
3E1B9
102
}
330
3E1B9
100
AcDbScale
 70
     0
300
3/32" = 1'-0"
140
0.09375
141
12.0
290
     0
  0
SCALE
  5
3E1C0
102
{ACAD_REACTORS
330
3E1B9
102
}
330
3E1B9
100
AcDbScale
 70
     0
300
1/8" = 1'-0"
140
0.125
141
12.0
290
     0
  0
SCALE
  5
3E1C1
102
{ACAD_REACTORS
330
3E1B9
102
}
330
3E1B9
100
AcDbScale
 70
     0
300
3/16" = 1'-0"
140
0.1875
141
12.0
290
     0
  0
SCALE
  5
3E1C2
102
{ACAD_REACTORS
330
3E1B9
102
}
330
3E1B9
100
AcDbScale
 70
     0
300
1/4" = 1'-0"
140
0.25
141
12.0
290
     0
  0
SCALE
  5
3E1C3
102
{ACAD_REACTORS
330
3E1B9
102
}
330
3E1B9
100
AcDbScale
 70
     0
300
3/8" = 1'-0"
140
0.375
141
12.0
290
     0
  0
SCALE
  5
3E1C4
102
{ACAD_REACTORS
330
3E1B9
102
}
330
3E1B9
100
AcDbScale
 70
     0
300
1/2" = 1'-0"
140
0.5
141
12.0
290
     0
  0
SCALE
  5
3E1C5
102
{ACAD_REACTORS
330
3E1B9
102
}
330
3E1B9
100
AcDbScale
 70
     0
300
3/4" = 1'-0"
140
0.75
141
12.0
290
     0
  0
SCALE
  5
3E1C6
102
{ACAD_REACTORS
330
3E1B9
102
}
330
3E1B9
100
AcDbScale
 70
     0
300
1" = 1'-0"
140
1.0
141
12.0
290
     0
  0
SCALE
  5
3E1C7
102
{ACAD_REACTORS
330
3E1B9
102
}
330
3E1B9
100
AcDbScale
 70
     0
300
1-1/2" = 1'-0"
140
1.5
141
12.0
290
     0
  0
SCALE
  5
3E1C8
102
{ACAD_REACTORS
330
3E1B9
102
}
330
3E1B9
100
AcDbScale
 70
     0
300
3" = 1'-0"
140
3.0
141
12.0
290
     0
  0
SCALE
  5
3E1C9
102
{ACAD_REACTORS
330
3E1B9
102
}
330
3E1B9
100
AcDbScale
 70
     0
300
6" = 1'-0"
140
6.0
141
12.0
290
     0
  0
SCALE
  5
3E1CA
102
{ACAD_REACTORS
330
3E1B9
102
}
330
3E1B9
100
AcDbScale
 70
     0
300
1'-0" = 1'-0"
140
12.0
141
12.0
290
     0
  0
ACDBSECTIONVIEWSTYLE
  5
3E1CE
102
{ACAD_XDICTIONARY
360
3E206
102
}
102
{ACAD_REACTORS
330
3E1CD
102
}
330
3E1CD
100
AcDbModelDocViewStyle
 70
     0
  3
Imperial24
290
     0
100
AcDbSectionViewStyle
 70
     0
 71
     0
 90
       78
 71
     1
340
11
 62
   256
 40
0.24
340
0
340
0
 62
   256
 40
0.24
300
I, O, Q, S, X, Z
 40
0.48
 90
        3
 40
0.18
 90
        1
 71
     2
340
15
 90
       25
 62
   256
340
15
 90
       50
 62
   256
 40
0.24
 40
0.0
 40
0.24
 71
     3
340
11
 62
   256
 40
0.24
 90
        1
 40
0.75
 90
        1
300
%<\AcVar ViewType \f "%tc1">% %<\AcVar ViewSectionStartId>%-%<\AcVar ViewSectionEndId>%\PSCALE %<\AcVar ViewScale \f "%sn">%
 71
     4
 62
   256
 62
   257
300
ANSI31
 40
1.0
 90
        0
290
     0
290
     0
 90
        6
 40
0.0
 40
1.570796326794896
 40
0.2617993877991494
 40
1.308996938995747
 40
-0.2617993877991494
 40
1.832595714594046
  0
TABLESTYLE
  5
3E1B8
102
{ACAD_XDICTIONARY
360
3E36E
102
}
102
{ACAD_REACTORS
330
3E1B7
102
}
330
3E1B7
100
AcDbTableStyle
280
     0
  3
Standard
 70
     0
 71
     0
 40
0.06
 41
0.06
280
     0
281
     0
  7
STANDARD
140
0.18
170
     2
 62
     0
 63
     7
283
     0
 90
      512
 91
        0
  1

274
    -2
284
     1
 64
     0
275
    -2
285
     1
 65
     0
276
    -2
286
     1
 66
     0
277
    -2
287
     1
 67
     0
278
    -2
288
     1
 68
     0
279
    -2
289
     1
 69
     0
  7
STANDARD
140
0.25
170
     5
 62
     0
 63
     7
283
     0
 90
      512
 91
        0
  1

274
    -2
284
     1
 64
     0
275
    -2
285
     1
 65
     0
276
    -2
286
     1
 66
     0
277
    -2
287
     1
 67
     0
278
    -2
288
     1
 68
     0
279
    -2
289
     1
 69
     0
  7
STANDARD
140
0.18
170
     5
 62
     0
 63
     7
283
     0
 90
      512
 91
        0
  1

274
    -2
284
     1
 64
     0
275
    -2
285
     1
 65
     0
276
    -2
286
     1
 66
     0
277
    -2
287
     1
 67
     0
278
    -2
288
     1
 68
     0
279
    -2
289
     1
 69
     0
  0
VISUALSTYLE
  5
3E1A3
102
{ACAD_REACTORS
330
3E19D
102
}
330
3E19D
100
AcDbVisualStyle
  2
2dWireframe
 70
     4
177
     3
291
     0
 70
    58
 90
        0
176
     1
 90
        2
176
     1
 90
        0
176
     1
 90
        0
176
     1
 40
0.6
176
     1
 40
30.0
176
     1
 62
     7
420
 16777215
176
     1
 90
        1
176
     1
 90
        4
176
     1
 62
     7
176
     1
 62
   257
176
     1
 90
        1
176
     1
 90
        1
176
     1
 40
1.0
176
     1
 90
        0
176
     1
 62
   257
176
     1
 40
1.0
176
     1
 90
        1
176
     1
 90
        6
176
     1
 90
        2
176
     1
 62
     7
176
     1
 90
        5
176
     1
 90
        0
176
     1
 90
        0
176
     1
290
     0
176
     1
 90
        1
176
     1
 40
0.0
176
     1
 90
        0
176
     1
290
     1
176
     1
290
     1
176
     1
290
     0
176
     1
290
     0
176
     1
290
     0
176
     1
290
     0
176
     1
290
     0
176
     1
290
     0
176
     1
290
     0
176
     1
 90
       50
176
     1
 40
0.0
176
     1
 40
1.0
176
     1
 90
        0
176
     1
 62
    18
420
        0
176
     1
 90
       50
176
     1
 90
        3
176
     1
 62
     5
420
      255
176
     1
290
     0
176
     1
 90
       50
176
     1
 90
       50
176
     1
 90
       50
176
     1
290
     0
176
     1
 90
       50
176
     1
 62
   256
176
     0
 40
1.0
176
     0
 90
        2
176
     1
  1
strokes_ogs.tif
176
     1
290
     0
176
     1
 40
1.0
176
     1
 40
1.0
176
     1
  0
VISUALSTYLE
  5
3E1A2
102
{ACAD_REACTORS
330
3E19D
102
}
330
3E19D
100
AcDbVisualStyle
  2
Basic
 70
     7
177
     3
291
     1
 70
    58
 90
        1
176
     1
 90
        0
176
     1
 90
        1
176
     1
 90
        0
176
     1
 40
0.6
176
     1
 40
30.0
176
     1
 62
     7
420
 16777215
176
     1
 90
        0
176
     1
 90
        4
176
     1
 62
     7
176
     1
 62
   257
176
     1
 90
        1
176
     1
 90
        1
176
     1
 40
1.0
176
     1
 90
        8
176
     1
 62
     7
176
     1
 40
1.0
176
     1
 90
        1
176
     1
 90
        6
176
     1
 90
        2
176
     1
 62
     7
176
     1
 90
        5
176
     1
 90
        0
176
     1
 90
        0
176
     1
290
     0
176
     1
 90
        1
176
     1
 40
0.0
176
     1
 90
        0
176
     1
290
     0
176
     1
290
     1
176
     1
290
     1
176
     1
290
     0
176
     1
290
     0
176
     1
290
     0
176
     1
290
     0
176
     1
290
     0
176
     1
290
     0
176
     1
 90
       50
176
     1
 40
0.0
176
     1
 40
1.0
176
     1
 90
        0
176
     1
 62
    18
420
        0
176
     1
 90
       50
176
     1
 90
        3
176
     1
 62
     5
420
      255
176
     1
290
     0
176
     1
 90
       50
176
     1
 90
       50
176
     1
 90
       50
176
     1
290
     0
176
     1
 90
       50
176
     1
 62
   256
176
     0
 40
1.0
176
     0
 90
        2
176
     1
  1
strokes_ogs.tif
176
     1
290
     0
176
     1
 40
1.0
176
     1
 40
1.0
176
     1
  0
VISUALSTYLE
  5
3E1A9
102
{ACAD_REACTORS
330
3E19D
102
}
330
3E19D
100
AcDbVisualStyle
  2
Brighten
 70
    12
177
     3
291
     1
 70
    58
 90
        2
176
     1
 90
        2
176
     1
 90
        0
176
     1
 90
        0
176
     1
 40
0.6
176
     1
 40
30.0
176
     1
 62
     7
420
 16777215
176
     1
 90
        1
176
     1
 90
        4
176
     1
 62
     7
176
     1
 62
   257
176
     1
 90
        1
176
     1
 90
        1
176
     1
 40
1.0
176
     1
 90
        8
176
     1
 62
     7
176
     1
 40
1.0
176
     1
 90
        1
176
     1
 90
        6
176
     1
 90
        2
176
     1
 62
     7
176
     1
 90
        5
176
     1
 90
        0
176
     1
 90
        0
176
     1
290
     0
176
     1
 90
        1
176
     1
 40
50.0
176
     1
 90
        0
176
     1
290
     0
176
     1
290
     1
176
     1
290
     1
176
     1
290
     0
176
     1
290
     0
176
     1
290
     0
176
     1
290
     0
176
     1
290
     0
176
     1
290
     0
176
     1
 90
       50
176
     1
 40
0.0
176
     1
 40
1.0
176
     1
 90
        0
176
     1
 62
    18
420
        0
176
     1
 90
       50
176
     1
 90
        3
176
     1
 62
     5
420
      255
176
     1
290
     0
176
     1
 90
       50
176
     1
 90
       50
176
     1
 90
       50
176
     1
290
     0
176
     1
 90
       50
176
     1
 62
   256
176
     0
 40
1.0
176
     0
 90
        2
176
     1
  1
strokes_ogs.tif
176
     1
290
     0
176
     1
 40
1.0
176
     1
 40
1.0
176
     1
  0
VISUALSTYLE
  5
3E1AD
102
{ACAD_REACTORS
330
3E19D
102
}
330
3E19D
100
AcDbVisualStyle
  2
ColorChange
 70
    16
177
     3
291
     1
 70
    58
 90
        2
176
     1
 90
        2
176
     1
 90
        3
176
     1
 90
        0
176
     1
 40
0.6
176
     1
 40
30.0
176
     1
 62
     8
420
  8421504
176
     1
 90
        1
176
     1
 90
        4
176
     1
 62
     7
176
     1
 62
   257
176
     1
 90
        1
176
     1
 90
        1
176
     1
 40
1.0
176
     1
 90
        8
176
     1
 62
     8
420
  8421504
176
     1
 40
1.0
176
     1
 90
        1
176
     1
 90
        6
176
     1
 90
        2
176
     1
 62
     7
176
     1
 90
        5
176
     1
 90
        0
176
     1
 90
        0
176
     1
290
     0
176
     1
 90
        1
176
     1
 40
0.0
176
     1
 90
        0
176
     1
290
     0
176
     1
290
     1
176
     1
290
     1
176
     1
290
     0
176
     1
290
     0
176
     1
290
     0
176
     1
290
     0
176
     1
290
     0
176
     1
290
     0
176
     1
 90
       50
176
     1
 40
0.0
176
     1
 40
1.0
176
     1
 90
        0
176
     1
 62
    18
420
        0
176
     1
 90
       50
176
     1
 90
        3
176
     1
 62
     5
420
      255
176
     1
290
     0
176
     1
 90
       50
176
     1
 90
       50
176
     1
 90
       50
176
     1
290
     0
176
     1
 90
       50
176
     1
 62
   256
176
     0
 40
1.0
176
     0
 90
        2
176
     1
  1
strokes_ogs.tif
176
     1
290
     0
176
     1
 40
1.0
176
     1
 40
1.0
176
     1
  0
VISUALSTYLE
  5
3E1A6
102
{ACAD_REACTORS
330
3E19D
102
}
330
3E19D
100
AcDbVisualStyle
  2
Conceptual
 70
     9
177
     3
291
     0
 70
    58
 90
        3
176
     1
 90
        2
176
     1
 90
        0
176
     1
 90
        0
176
     1
 40
0.6
176
     1
 40
30.0
176
     1
 62
     7
420
 16777215
176
     1
 90
        2
176
     1
 90
        2
176
     1
 62
     7
176
     1
 62
   257
176
     1
 90
        1
176
     1
 90
        1
176
     1
 40
179.0
176
     1
 90
        8
176
     1
 62
     7
176
     1
 40
1.0
176
     1
 90
        1
176
     1
 90
        6
176
     1
 90
        2
176
     1
 62
     7
176
     1
 90
        3
176
     1
 90
        0
176
     1
 90
        0
176
     1
290
     0
176
     1
 90
        1
176
     1
 40
0.0
176
     1
 90
        0
176
     1
290
     0
176
     1
290
     1
176
     1
290
     1
176
     1
290
     0
176
     1
290
     0
176
     1
290
     0
176
     1
290
     0
176
     1
290
     0
176
     1
290
     0
176
     1
 90
       50
176
     1
 40
0.0
176
     1
 40
1.0
176
     1
 90
        0
176
     1
 62
    18
420
        0
176
     1
 90
       50
176
     1
 90
        3
176
     1
 62
     5
420
      255
176
     1
290
     0
176
     1
 90
       50
176
     1
 90
       50
176
     1
 90
       50
176
     1
290
     0
176
     1
 90
       50
176
     1
 62
   256
176
     0
 40
1.0
176
     0
 90
        2
176
     1
  1
strokes_ogs.tif
176
     1
290
     0
176
     1
 40
1.0
176
     1
 40
1.0
176
     1
  0
VISUALSTYLE
  5
3E1A8
102
{ACAD_REACTORS
330
3E19D
102
}
330
3E19D
100
AcDbVisualStyle
  2
Dim
 70
    11
177
     3
291
     1
 70
    58
 90
        2
176
     1
 90
        2
176
     1
 90
        0
176
     1
 90
        0
176
     1
 40
0.6
176
     1
 40
30.0
176
     1
 62
     7
420
 16777215
176
     1
 90
        1
176
     1
 90
        4
176
     1
 62
     7
176
     1
 62
   257
176
     1
 90
        1
176
     1
 90
        1
176
     1
 40
1.0
176
     1
 90
        8
176
     1
 62
     7
176
     1
 40
1.0
176
     1
 90
        1
176
     1
 90
        6
176
     1
 90
        2
176
     1
 62
     7
176
     1
 90
        5
176
     1
 90
        0
176
     1
 90
        0
176
     1
290
     0
176
     1
 90
        1
176
     1
 40
-50.0
176
     1
 90
        0
176
     1
290
     0
176
     1
290
     1
176
     1
290
     1
176
     1
290
     0
176
     1
290
     0
176
     1
290
     0
176
     1
290
     0
176
     1
290
     0
176
     1
290
     0
176
     1
 90
       50
176
     1
 40
0.0
176
     1
 40
1.0
176
     1
 90
        0
176
     1
 62
    18
420
        0
176
     1
 90
       50
176
     1
 90
        3
176
     1
 62
     5
420
      255
176
     1
290
     0
176
     1
 90
       50
176
     1
 90
       50
176
     1
 90
       50
176
     1
290
     0
176
     1
 90
       50
176
     1
 62
   256
176
     0
 40
1.0
176
     0
 90
        2
176
     1
  1
strokes_ogs.tif
176
     1
290
     0
176
     1
 40
1.0
176
     1
 40
1.0
176
     1
  0
VISUALSTYLE
  5
3E1B5
102
{ACAD_REACTORS
330
3E19D
102
}
330
3E19D
100
AcDbVisualStyle
  2
EdgeColorOff
 70
    22
177
     3
291
     1
 70
    58
 90
        2
176
     0
 90
        2
176
     0
 90
        0
176
     0
 90
        0
176
     0
 40
0.6
176
     0
 40
30.0
176
     0
 62
     7
420
 16777215
176
     0
 90
        1
176
     0
 90
        4
176
     0
 62
     7
176
     0
 62
   257
176
     0
 90
        1
176
     0
 90
        1
176
     0
 40
1.0
176
     0
 90
        8
176
     2
 62
     7
176
     0
 40
1.0
176
     0
 90
        1
176
     0
 90
        6
176
     0
 90
        2
176
     0
 62
     7
176
     0
 90
        5
176
     0
 90
        0
176
     0
 90
        0
176
     0
290
     0
176
     0
 90
        1
176
     0
 40
0.0
176
     0
 90
        0
176
     0
290
     0
176
     0
290
     1
176
     0
290
     1
176
     0
290
     0
176
     0
290
     0
176
     0
290
     0
176
     0
290
     0
176
     0
290
     0
176
     0
290
     0
176
     0
 90
       50
176
     0
 40
0.0
176
     0
 40
1.0
176
     0
 90
        0
176
     0
 62
    18
420
        0
176
     0
 90
       50
176
     0
 90
        3
176
     0
 62
     5
420
      255
176
     0
290
     0
176
     0
 90
       50
176
     0
 90
       50
176
     0
 90
       50
176
     0
290
     0
176
     0
 90
       50
176
     0
 62
   256
176
     0
 40
1.0
176
     0
 90
        2
176
     0
  1
strokes_ogs.tif
176
     0
290
     0
176
     0
 40
1.0
176
     0
 40
1.0
176
     0
  0
VISUALSTYLE
  5
3E1AC
102
{ACAD_REACTORS
330
3E19D
102
}
330
3E19D
100
AcDbVisualStyle
  2
Facepattern
 70
    15
177
     3
291
     1
 70
    58
 90
        2
176
     1
 90
        2
176
     1
 90
        0
176
     1
 90
        0
176
     1
 40
0.6
176
     1
 40
30.0
176
     1
 62
     7
420
 16777215
176
     1
 90
        1
176
     1
 90
        4
176
     1
 62
     7
176
     1
 62
   257
176
     1
 90
        1
176
     1
 90
        1
176
     1
 40
1.0
176
     1
 90
        8
176
     1
 62
     7
176
     1
 40
1.0
176
     1
 90
        1
176
     1
 90
        6
176
     1
 90
        2
176
     1
 62
     7
176
     1
 90
        5
176
     1
 90
        0
176
     1
 90
        0
176
     1
290
     0
176
     1
 90
        1
176
     1
 40
0.0
176
     1
 90
        0
176
     1
290
     0
176
     1
290
     1
176
     1
290
     1
176
     1
290
     0
176
     1
290
     0
176
     1
290
     0
176
     1
290
     0
176
     1
290
     0
176
     1
290
     0
176
     1
 90
       50
176
     1
 40
0.0
176
     1
 40
1.0
176
     1
 90
        0
176
     1
 62
    18
420
        0
176
     1
 90
       50
176
     1
 90
        3
176
     1
 62
     5
420
      255
176
     1
290
     0
176
     1
 90
       50
176
     1
 90
       50
176
     1
 90
       50
176
     1
290
     0
176
     1
 90
       50
176
     1
 62
   256
176
     0
 40
1.0
176
     0
 90
        2
176
     1
  1
strokes_ogs.tif
176
     1
290
     0
176
     1
 40
1.0
176
     1
 40
1.0
176
     1
  0
VISUALSTYLE
  5
3E19E
102
{ACAD_REACTORS
330
3E19D
102
}
330
3E19D
100
AcDbVisualStyle
  2
Flat
 70
     0
177
     3
291
     1
 70
    58
 90
        2
176
     1
 90
        1
176
     1
 90
        1
176
     1
 90
        2
176
     1
 40
0.6
176
     1
 40
30.0
176
     1
 62
     7
420
 16777215
176
     1
 90
        0
176
     1
 90
        0
176
     1
 62
     7
176
     1
 62
   257
176
     1
 90
        1
176
     1
 90
        1
176
     1
 40
1.0
176
     1
 90
        8
176
     1
 62
     7
176
     1
 40
1.0
176
     1
 90
        1
176
     1
 90
        6
176
     1
 90
        2
176
     1
 62
     7
176
     1
 90
        5
176
     1
 90
        0
176
     1
 90
        0
176
     1
290
     0
176
     1
 90
       13
176
     1
 40
0.0
176
     1
 90
        0
176
     1
290
     0
176
     1
290
     1
176
     1
290
     1
176
     1
290
     0
176
     1
290
     0
176
     1
290
     0
176
     1
290
     0
176
     1
290
     0
176
     1
290
     0
176
     1
 90
       50
176
     1
 40
0.0
176
     1
 40
1.0
176
     1
 90
        0
176
     1
 62
    18
420
        0
176
     1
 90
       50
176
     1
 90
        3
176
     1
 62
     5
420
      255
176
     1
290
     0
176
     1
 90
       50
176
     1
 90
       50
176
     1
 90
       50
176
     1
290
     0
176
     1
 90
       50
176
     1
 62
   256
176
     0
 40
1.0
176
     0
 90
        2
176
     1
  1
strokes_ogs.tif
176
     1
290
     0
176
     1
 40
1.0
176
     1
 40
1.0
176
     1
  0
VISUALSTYLE
  5
3E19F
102
{ACAD_REACTORS
330
3E19D
102
}
330
3E19D
100
AcDbVisualStyle
  2
FlatWithEdges
 70
     1
177
     3
291
     1
 70
    58
 90
        2
176
     1
 90
        1
176
     1
 90
        1
176
     1
 90
        2
176
     1
 40
0.6
176
     1
 40
30.0
176
     1
 62
     7
420
 16777215
176
     1
 90
        1
176
     1
 90
        0
176
     1
 62
     7
176
     1
 62
   257
176
     1
 90
        1
176
     1
 90
        1
176
     1
 40
1.0
176
     1
 90
        0
176
     1
 62
   257
176
     1
 40
1.0
176
     1
 90
        1
176
     1
 90
        6
176
     1
 90
        2
176
     1
 62
     7
176
     1
 90
        5
176
     1
 90
        0
176
     1
 90
        0
176
     1
290
     0
176
     1
 90
       13
176
     1
 40
0.0
176
     1
 90
        0
176
     1
290
     0
176
     1
290
     1
176
     1
290
     1
176
     1
290
     0
176
     1
290
     0
176
     1
290
     0
176
     1
290
     0
176
     1
290
     0
176
     1
290
     0
176
     1
 90
       50
176
     1
 40
0.0
176
     1
 40
1.0
176
     1
 90
        0
176
     1
 62
    18
420
        0
176
     1
 90
       50
176
     1
 90
        3
176
     1
 62
     5
420
      255
176
     1
290
     0
176
     1
 90
       50
176
     1
 90
       50
176
     1
 90
       50
176
     1
290
     0
176
     1
 90
       50
176
     1
 62
   256
176
     0
 40
1.0
176
     0
 90
        2
176
     1
  1
strokes_ogs.tif
176
     1
290
     0
176
     1
 40
1.0
176
     1
 40
1.0
176
     1
  0
VISUALSTYLE
  5
3E1A0
102
{ACAD_REACTORS
330
3E19D
102
}
330
3E19D
100
AcDbVisualStyle
  2
Gouraud
 70
     2
177
     3
291
     1
 70
    58
 90
        2
176
     1
 90
        2
176
     1
 90
        1
176
     1
 90
        2
176
     1
 40
0.6
176
     1
 40
30.0
176
     1
 62
     7
420
 16777215
176
     1
 90
        0
176
     1
 90
        0
176
     1
 62
     7
176
     1
 62
   257
176
     1
 90
        1
176
     1
 90
        1
176
     1
 40
1.0
176
     1
 90
        0
176
     1
 62
     7
176
     1
 40
1.0
176
     1
 90
        1
176
     1
 90
        6
176
     1
 90
        2
176
     1
 62
     7
176
     1
 90
        5
176
     1
 90
        0
176
     1
 90
        0
176
     1
290
     0
176
     1
 90
       13
176
     1
 40
0.0
176
     1
 90
        0
176
     1
290
     0
176
     1
290
     1
176
     1
290
     1
176
     1
290
     0
176
     1
290
     0
176
     1
290
     0
176
     1
290
     0
176
     1
290
     0
176
     1
290
     0
176
     1
 90
       50
176
     1
 40
0.0
176
     1
 40
1.0
176
     1
 90
        0
176
     1
 62
    18
420
        0
176
     1
 90
       50
176
     1
 90
        3
176
     1
 62
     5
420
      255
176
     1
290
     0
176
     1
 90
       50
176
     1
 90
       50
176
     1
 90
       50
176
     1
290
     0
176
     1
 90
       50
176
     1
 62
   256
176
     0
 40
1.0
176
     0
 90
        2
176
     1
  1
strokes_ogs.tif
176
     1
290
     0
176
     1
 40
1.0
176
     1
 40
1.0
176
     1
  0
VISUALSTYLE
  5
3E1A1
102
{ACAD_REACTORS
330
3E19D
102
}
330
3E19D
100
AcDbVisualStyle
  2
GouraudWithEdges
 70
     3
177
     3
291
     1
 70
    58
 90
        2
176
     1
 90
        2
176
     1
 90
        1
176
     1
 90
        2
176
     1
 40
0.6
176
     1
 40
30.0
176
     1
 62
     7
420
 16777215
176
     1
 90
        1
176
     1
 90
        0
176
     1
 62
     7
176
     1
 62
   257
176
     1
 90
        1
176
     1
 90
        1
176
     1
 40
1.0
176
     1
 90
        0
176
     1
 62
   257
176
     1
 40
1.0
176
     1
 90
        1
176
     1
 90
        6
176
     1
 90
        2
176
     1
 62
     7
176
     1
 90
        5
176
     1
 90
        0
176
     1
 90
        0
176
     1
290
     0
176
     1
 90
       13
176
     1
 40
0.0
176
     1
 90
        0
176
     1
290
     0
176
     1
290
     1
176
     1
290
     1
176
     1
290
     0
176
     1
290
     0
176
     1
290
     0
176
     1
290
     0
176
     1
290
     0
176
     1
290
     0
176
     1
 90
       50
176
     1
 40
0.0
176
     1
 40
1.0
176
     1
 90
        0
176
     1
 62
    18
420
        0
176
     1
 90
       50
176
     1
 90
        3
176
     1
 62
     5
420
      255
176
     1
290
     0
176
     1
 90
       50
176
     1
 90
       50
176
     1
 90
       50
176
     1
290
     0
176
     1
 90
       50
176
     1
 62
   256
176
     0
 40
1.0
176
     0
 90
        2
176
     1
  1
strokes_ogs.tif
176
     1
290
     0
176
     1
 40
1.0
176
     1
 40
1.0
176
     1
  0
VISUALSTYLE
  5
3E1A5
102
{ACAD_REACTORS
330
3E19D
102
}
330
3E19D
100
AcDbVisualStyle
  2
Hidden
 70
     6
177
     3
291
     0
 70
    58
 90
        1
176
     1
 90
        2
176
     1
 90
        2
176
     1
 90
        0
176
     1
 40
0.6
176
     1
 40
30.0
176
     1
 62
     7
420
 16777215
176
     1
 90
        2
176
     1
 90
        2
176
     1
 62
     7
176
     1
 62
   257
176
     1
 90
        2
176
     1
 90
        1
176
     1
 40
40.0
176
     1
 90
        0
176
     1
 62
   257
176
     1
 40
1.0
176
     1
 90
        1
176
     1
 90
        6
176
     1
 90
        2
176
     1
 62
     7
176
     1
 90
        3
176
     1
 90
        0
176
     1
 90
        0
176
     1
290
     0
176
     1
 90
        1
176
     1
 40
0.0
176
     1
 90
        0
176
     1
290
     0
176
     1
290
     1
176
     1
290
     1
176
     1
290
     0
176
     1
290
     0
176
     1
290
     0
176
     1
290
     0
176
     1
290
     0
176
     1
290
     0
176
     1
 90
       50
176
     1
 40
0.0
176
     1
 40
1.0
176
     1
 90
        0
176
     1
 62
    18
420
        0
176
     1
 90
       50
176
     1
 90
        3
176
     1
 62
     5
420
      255
176
     1
290
     0
176
     1
 90
       50
176
     1
 90
       50
176
     1
 90
       50
176
     1
290
     0
176
     1
 90
       50
176
     1
 62
   256
176
     0
 40
1.0
176
     0
 90
        2
176
     1
  1
strokes_ogs.tif
176
     1
290
     0
176
     1
 40
1.0
176
     1
 40
1.0
176
     1
  0
VISUALSTYLE
  5
3E1B3
102
{ACAD_REACTORS
330
3E19D
102
}
330
3E19D
100
AcDbVisualStyle
  2
JitterOff
 70
    20
177
     3
291
     1
 70
    58
 90
        2
176
     0
 90
        2
176
     0
 90
        0
176
     0
 90
        0
176
     0
 40
0.6
176
     0
 40
30.0
176
     0
 62
     7
420
 16777215
176
     0
 90
        1
176
     0
 90
        4
176
     0
 62
     7
176
     0
 62
   257
176
     0
 90
        1
176
     0
 90
        1
176
     0
 40
1.0
176
     0
 90
       10
176
     2
 62
     7
176
     0
 40
1.0
176
     0
 90
        1
176
     0
 90
        6
176
     0
 90
        2
176
     0
 62
     7
176
     0
 90
        5
176
     0
 90
        0
176
     0
 90
        0
176
     0
290
     0
176
     0
 90
        1
176
     0
 40
0.0
176
     0
 90
        0
176
     0
290
     0
176
     0
290
     1
176
     0
290
     1
176
     0
290
     0
176
     0
290
     0
176
     0
290
     0
176
     0
290
     0
176
     0
290
     0
176
     0
290
     0
176
     0
 90
       50
176
     0
 40
0.0
176
     0
 40
1.0
176
     0
 90
        0
176
     0
 62
    18
420
        0
176
     0
 90
       50
176
     0
 90
        3
176
     0
 62
     5
420
      255
176
     0
290
     0
176
     0
 90
       50
176
     0
 90
       50
176
     0
 90
       50
176
     0
290
     0
176
     0
 90
       50
176
     0
 62
   256
176
     0
 40
1.0
176
     0
 90
        2
176
     0
  1
strokes_ogs.tif
176
     0
290
     0
176
     0
 40
1.0
176
     0
 40
1.0
176
     0
  0
VISUALSTYLE
  5
3E1AB
102
{ACAD_REACTORS
330
3E19D
102
}
330
3E19D
100
AcDbVisualStyle
  2
Linepattern
 70
    14
177
     3
291
     1
 70
    58
 90
        2
176
     1
 90
        2
176
     1
 90
        0
176
     1
 90
        0
176
     1
 40
0.6
176
     1
 40
30.0
176
     1
 62
     7
420
 16777215
176
     1
 90
        1
176
     1
 90
        4
176
     1
 62
     7
176
     1
 62
   257
176
     1
 90
        7
176
     1
 90
        7
176
     1
 40
1.0
176
     1
 90
        8
176
     1
 62
     7
176
     1
 40
1.0
176
     1
 90
        1
176
     1
 90
        6
176
     1
 90
        2
176
     1
 62
     7
176
     1
 90
        5
176
     1
 90
        0
176
     1
 90
        0
176
     1
290
     0
176
     1
 90
        1
176
     1
 40
0.0
176
     1
 90
        0
176
     1
290
     0
176
     1
290
     1
176
     1
290
     1
176
     1
290
     0
176
     1
290
     0
176
     1
290
     0
176
     1
290
     0
176
     1
290
     0
176
     1
290
     0
176
     1
 90
       50
176
     1
 40
0.0
176
     1
 40
1.0
176
     1
 90
        0
176
     1
 62
    18
420
        0
176
     1
 90
       50
176
     1
 90
        3
176
     1
 62
     5
420
      255
176
     1
290
     0
176
     1
 90
       50
176
     1
 90
       50
176
     1
 90
       50
176
     1
290
     0
176
     1
 90
       50
176
     1
 62
   256
176
     0
 40
1.0
176
     0
 90
        2
176
     1
  1
strokes_ogs.tif
176
     1
290
     0
176
     1
 40
1.0
176
     1
 40
1.0
176
     1
  0
VISUALSTYLE
  5
3E1B4
102
{ACAD_REACTORS
330
3E19D
102
}
330
3E19D
100
AcDbVisualStyle
  2
OverhangOff
 70
    21
177
     3
291
     1
 70
    58
 90
        2
176
     0
 90
        2
176
     0
 90
        0
176
     0
 90
        0
176
     0
 40
0.6
176
     0
 40
30.0
176
     0
 62
     7
420
 16777215
176
     0
 90
        1
176
     0
 90
        4
176
     0
 62
     7
176
     0
 62
   257
176
     0
 90
        1
176
     0
 90
        1
176
     0
 40
1.0
176
     0
 90
        9
176
     2
 62
     7
176
     0
 40
1.0
176
     0
 90
        1
176
     0
 90
        6
176
     0
 90
        2
176
     0
 62
     7
176
     0
 90
        5
176
     0
 90
        0
176
     0
 90
        0
176
     0
290
     0
176
     0
 90
        1
176
     0
 40
0.0
176
     0
 90
        0
176
     0
290
     0
176
     0
290
     1
176
     0
290
     1
176
     0
290
     0
176
     0
290
     0
176
     0
290
     0
176
     0
290
     0
176
     0
290
     0
176
     0
290
     0
176
     0
 90
       50
176
     0
 40
0.0
176
     0
 40
1.0
176
     0
 90
        0
176
     0
 62
    18
420
        0
176
     0
 90
       50
176
     0
 90
        3
176
     0
 62
     5
420
      255
176
     0
290
     0
176
     0
 90
       50
176
     0
 90
       50
176
     0
 90
       50
176
     0
290
     0
176
     0
 90
       50
176
     0
 62
   256
176
     0
 40
1.0
176
     0
 90
        2
176
     0
  1
strokes_ogs.tif
176
     0
290
     0
176
     0
 40
1.0
176
     0
 40
1.0
176
     0
  0
VISUALSTYLE
  5
3E1A7
102
{ACAD_REACTORS
330
3E19D
102
}
330
3E19D
100
AcDbVisualStyle
  2
Realistic
 70
     8
177
     3
291
     0
 70
    58
 90
        2
176
     1
 90
        3
176
     1
 90
        0
176
     1
 90
        2
176
     1
 40
0.6
176
     1
 40
30.0
176
     1
 62
     7
420
 16777215
176
     1
 90
        0
176
     1
 90
        0
176
     1
 62
     7
176
     1
 62
   257
176
     1
 90
        1
176
     1
 90
        1
176
     1
 40
1.0
176
     1
 90
        8
176
     1
 62
   257
176
     1
 40
1.0
176
     1
 90
        1
176
     1
 90
        6
176
     1
 90
        2
176
     1
 62
     7
176
     1
 90
        3
176
     1
 90
        0
176
     1
 90
        0
176
     1
290
     0
176
     1
 90
       13
176
     1
 40
0.0
176
     1
 90
        0
176
     1
290
     0
176
     1
290
     1
176
     1
290
     1
176
     1
290
     0
176
     1
290
     0
176
     1
290
     0
176
     1
290
     0
176
     1
290
     0
176
     1
290
     0
176
     1
 90
       50
176
     1
 40
0.0
176
     1
 40
1.0
176
     1
 90
        0
176
     1
 62
    18
420
        0
176
     1
 90
       50
176
     1
 90
        3
176
     1
 62
     5
420
      255
176
     1
290
     0
176
     1
 90
       50
176
     1
 90
       50
176
     1
 90
       50
176
     1
290
     0
176
     1
 90
       50
176
     1
 62
   256
176
     0
 40
1.0
176
     0
 90
        2
176
     1
  1
strokes_ogs.tif
176
     1
290
     0
176
     1
 40
1.0
176
     1
 40
1.0
176
     1
  0
VISUALSTYLE
  5
3E1B2
102
{ACAD_REACTORS
330
3E19D
102
}
330
3E19D
100
AcDbVisualStyle
  2
Shaded
 70
    27
177
     3
291
     0
 70
    58
 90
        2
176
     1
 90
        2
176
     1
 90
        1
176
     1
 90
        2
176
     1
 40
0.6
176
     1
 40
30.0
176
     1
 62
     7
420
 16777215
176
     1
 90
        0
176
     1
 90
        4
176
     1
 62
     7
176
     1
 62
   257
176
     1
 90
        1
176
     1
 90
        1
176
     1
 40
1.0
176
     1
 90
        8
176
     1
 62
   257
176
     1
 40
1.0
176
     1
 90
        1
176
     1
 90
        6
176
     1
 90
        2
176
     1
 62
     8
420
  7895160
176
     1
 90
        3
176
     1
 90
        0
176
     1
 90
        0
176
     1
290
     0
176
     1
 90
        5
176
     1
 40
0.0
176
     1
 90
        0
176
     1
290
     0
176
     1
290
     1
176
     1
290
     1
176
     1
290
     0
176
     1
290
     0
176
     1
290
     0
176
     1
290
     0
176
     1
290
     0
176
     1
290
     0
176
     1
 90
       50
176
     1
 40
0.0
176
     1
 40
1.0
176
     1
 90
        0
176
     1
 62
    18
420
        0
176
     1
 90
       50
176
     1
 90
        3
176
     1
 62
     5
420
      255
176
     1
290
     0
176
     1
 90
       50
176
     1
 90
       50
176
     1
 90
       50
176
     1
290
     0
176
     1
 90
       50
176
     1
 62
   256
176
     0
 40
1.0
176
     0
 90
        2
176
     1
  1
strokes_ogs.tif
176
     1
290
     0
176
     1
 40
1.0
176
     1
 40
1.0
176
     1
  0
VISUALSTYLE
  5
3E1B1
102
{ACAD_REACTORS
330
3E19D
102
}
330
3E19D
100
AcDbVisualStyle
  2
Shaded with edges
 70
    26
177
     3
291
     0
 70
    58
 90
        2
176
     1
 90
        2
176
     1
 90
        1
176
     1
 90
        2
176
     1
 40
0.6
176
     1
 40
30.0
176
     1
 62
     7
420
 16777215
176
     1
 90
        1
176
     1
 90
       10
176
     1
 62
     7
176
     1
 62
   257
176
     1
 90
        2
176
     1
 90
        1
176
     1
 40
1.0
176
     1
 90
        8
176
     1
 62
   257
176
     1
 40
1.0
176
     1
 90
        1
176
     1
 90
        6
176
     1
 90
        2
176
     1
 62
     7
176
     1
 90
        3
176
     1
 90
        0
176
     1
 90
        0
176
     1
290
     0
176
     1
 90
        5
176
     1
 40
0.0
176
     1
 90
        0
176
     1
290
     0
176
     1
290
     1
176
     1
290
     1
176
     1
290
     0
176
     1
290
     0
176
     1
290
     0
176
     1
290
     0
176
     1
290
     0
176
     1
290
     0
176
     1
 90
       50
176
     1
 40
0.0
176
     1
 40
1.0
176
     1
 90
        0
176
     1
 62
    18
420
        0
176
     1
 90
       50
176
     1
 90
        3
176
     1
 62
     5
420
      255
176
     1
290
     0
176
     1
 90
       50
176
     1
 90
       50
176
     1
 90
       50
176
     1
290
     0
176
     1
 90
       50
176
     1
 62
   256
176
     0
 40
1.0
176
     0
 90
        2
176
     1
  1
strokes_ogs.tif
176
     1
290
     0
176
     1
 40
1.0
176
     1
 40
1.0
176
     1
  0
VISUALSTYLE
  5
3E1AE
102
{ACAD_REACTORS
330
3E19D
102
}
330
3E19D
100
AcDbVisualStyle
  2
Shades of Gray
 70
    23
177
     3
291
     0
 70
    58
 90
        2
176
     1
 90
        2
176
     1
 90
        3
176
     1
 90
        0
176
     1
 40
0.6
176
     1
 40
30.0
176
     1
 62
     7
420
 16777215
176
     1
 90
        2
176
     1
 90
        2
176
     1
 62
     7
176
     1
 62
     7
176
     1
 90
        1
176
     1
 90
        1
176
     1
 40
40.0
176
     1
 90
        8
176
     1
 62
     7
176
     1
 40
1.0
176
     1
 90
        1
176
     1
 90
        6
176
     1
 90
        2
176
     1
 62
     7
176
     1
 90
        3
176
     1
 90
        0
176
     1
 90
        0
176
     1
290
     0
176
     1
 90
        1
176
     1
 40
0.0
176
     1
 90
        0
176
     1
290
     0
176
     1
290
     1
176
     1
290
     1
176
     1
290
     0
176
     1
290
     0
176
     1
290
     0
176
     1
290
     0
176
     1
290
     0
176
     1
290
     0
176
     1
 90
       50
176
     1
 40
0.0
176
     1
 40
1.0
176
     1
 90
        0
176
     1
 62
    18
420
        0
176
     1
 90
       50
176
     1
 90
        3
176
     1
 62
     5
420
      255
176
     1
290
     0
176
     1
 90
       50
176
     1
 90
       50
176
     1
 90
       50
176
     1
290
     0
176
     1
 90
       50
176
     1
 62
   256
176
     0
 40
1.0
176
     0
 90
        2
176
     1
  1
strokes_ogs.tif
176
     1
290
     0
176
     1
 40
1.0
176
     1
 40
1.0
176
     1
  0
VISUALSTYLE
  5
3E1AF
102
{ACAD_REACTORS
330
3E19D
102
}
330
3E19D
100
AcDbVisualStyle
  2
Sketchy
 70
    24
177
     3
291
     0
 70
    58
 90
        1
176
     1
 90
        2
176
     1
 90
        2
176
     1
 90
        0
176
     1
 40
0.6
176
     1
 40
30.0
176
     1
 62
     7
420
 16777215
176
     1
 90
        2
176
     1
 90
        2
176
     1
 62
     7
176
     1
 62
     7
176
     1
 90
        1
176
     1
 90
        1
176
     1
 40
40.0
176
     1
 90
       11
176
     1
 62
     7
176
     1
 40
1.0
176
     1
 90
        1
176
     1
 90
        6
176
     1
 90
        2
176
     1
 62
     7
176
     1
 90
        6
176
     1
 90
        0
176
     1
 90
        0
176
     1
290
     0
176
     1
 90
        1
176
     1
 40
0.0
176
     1
 90
        0
176
     1
290
     0
176
     1
290
     1
176
     1
290
     1
176
     1
290
     0
176
     1
290
     0
176
     1
290
     0
176
     1
290
     0
176
     1
290
     0
176
     1
290
     0
176
     1
 90
       50
176
     1
 40
0.0
176
     1
 40
1.0
176
     1
 90
        0
176
     1
 62
    18
420
        0
176
     1
 90
       50
176
     1
 90
        3
176
     1
 62
     5
420
      255
176
     1
290
     0
176
     1
 90
       50
176
     1
 90
       50
176
     1
 90
       50
176
     1
290
     0
176
     1
 90
       50
176
     1
 62
   256
176
     0
 40
1.0
176
     0
 90
        2
176
     1
  1
strokes_ogs.tif
176
     1
290
     0
176
     1
 40
1.0
176
     1
 40
1.0
176
     1
  0
VISUALSTYLE
  5
3E1AA
102
{ACAD_REACTORS
330
3E19D
102
}
330
3E19D
100
AcDbVisualStyle
  2
Thicken
 70
    13
177
     3
291
     1
 70
    58
 90
        2
176
     1
 90
        2
176
     1
 90
        0
176
     1
 90
        0
176
     1
 40
0.6
176
     1
 40
30.0
176
     1
 62
     7
420
 16777215
176
     1
 90
        1
176
     1
 90
        4
176
     1
 62
     7
176
     1
 62
   257
176
     1
 90
        1
176
     1
 90
        1
176
     1
 40
1.0
176
     1
 90
       12
176
     1
 62
     7
176
     1
 40
1.0
176
     1
 90
        1
176
     1
 90
        6
176
     1
 90
        2
176
     1
 62
     7
176
     1
 90
        5
176
     1
 90
        0
176
     1
 90
        0
176
     1
290
     0
176
     1
 90
        1
176
     1
 40
0.0
176
     1
 90
        0
176
     1
290
     0
176
     1
290
     1
176
     1
290
     1
176
     1
290
     0
176
     1
290
     0
176
     1
290
     0
176
     1
290
     0
176
     1
290
     0
176
     1
290
     0
176
     1
 90
       50
176
     1
 40
0.0
176
     1
 40
1.0
176
     1
 90
        0
176
     1
 62
    18
420
        0
176
     1
 90
       50
176
     1
 90
        3
176
     1
 62
     5
420
      255
176
     1
290
     0
176
     1
 90
       50
176
     1
 90
       50
176
     1
 90
       50
176
     1
290
     0
176
     1
 90
       50
176
     1
 62
   256
176
     0
 40
1.0
176
     0
 90
        2
176
     1
  1
strokes_ogs.tif
176
     1
290
     0
176
     1
 40
1.0
176
     1
 40
1.0
176
     1
  0
VISUALSTYLE
  5
3E1A4
102
{ACAD_REACTORS
330
3E19D
102
}
330
3E19D
100
AcDbVisualStyle
  2
Wireframe
 70
     5
177
     3
291
     0
 70
    58
 90
        0
176
     1
 90
        2
176
     1
 90
        0
176
     1
 90
        0
176
     1
 40
0.6
176
     1
 40
30.0
176
     1
 62
     7
420
 16777215
176
     1
 90
        1
176
     1
 90
        4
176
     1
 62
     7
176
     1
 62
   257
176
     1
 90
        1
176
     1
 90
        1
176
     1
 40
1.0
176
     1
 90
        0
176
     1
 62
   257
176
     1
 40
1.0
176
     1
 90
        1
176
     1
 90
        6
176
     1
 90
        2
176
     1
 62
     7
176
     1
 90
        3
176
     1
 90
        0
176
     1
 90
        0
176
     1
290
     0
176
     1
 90
        1
176
     1
 40
0.0
176
     1
 90
        0
176
     1
290
     0
176
     1
290
     1
176
     1
290
     1
176
     1
290
     0
176
     1
290
     0
176
     1
290
     0
176
     1
290
     0
176
     1
290
     0
176
     1
290
     0
176
     1
 90
       50
176
     1
 40
0.0
176
     1
 40
1.0
176
     1
 90
        0
176
     1
 62
    18
420
        0
176
     1
 90
       50
176
     1
 90
        3
176
     1
 62
     5
420
      255
176
     1
290
     0
176
     1
 90
       50
176
     1
 90
       50
176
     1
 90
       50
176
     1
290
     0
176
     1
 90
       50
176
     1
 62
   256
176
     0
 40
1.0
176
     0
 90
        2
176
     1
  1
strokes_ogs.tif
176
     1
290
     0
176
     1
 40
1.0
176
     1
 40
1.0
176
     1
  0
VISUALSTYLE
  5
3E1B0
102
{ACAD_REACTORS
330
3E19D
102
}
330
3E19D
100
AcDbVisualStyle
  2
X-Ray
 70
    25
177
     3
291
     0
 70
    58
 90
        2
176
     1
 90
        2
176
     1
 90
        1
176
     1
 90
        1
176
     1
 40
0.5
176
     1
 40
30.0
176
     1
 62
     7
420
 16777215
176
     1
 90
        1
176
     1
 90
        0
176
     1
 62
     7
176
     1
 62
   257
176
     1
 90
        1
176
     1
 90
        1
176
     1
 40
1.0
176
     1
 90
        8
176
     1
 62
     7
176
     1
 40
1.0
176
     1
 90
        1
176
     1
 90
        6
176
     1
 90
        2
176
     1
 62
     7
176
     1
 90
        3
176
     1
 90
        0
176
     1
 90
        0
176
     1
290
     0
176
     1
 90
       13
176
     1
 40
0.0
176
     1
 90
        0
176
     1
290
     0
176
     1
290
     1
176
     1
290
     1
176
     1
290
     0
176
     1
290
     0
176
     1
290
     0
176
     1
290
     0
176
     1
290
     0
176
     1
290
     0
176
     1
 90
       50
176
     1
 40
0.0
176
     1
 40
1.0
176
     1
 90
        0
176
     1
 62
    18
420
        0
176
     1
 90
       50
176
     1
 90
        3
176
     1
 62
     5
420
      255
176
     1
290
     0
176
     1
 90
       50
176
     1
 90
       50
176
     1
 90
       50
176
     1
290
     0
176
     1
 90
       50
176
     1
 62
   256
176
     0
 40
1.0
176
     0
 90
        2
176
     1
  1
strokes_ogs.tif
176
     1
290
     0
176
     1
 40
1.0
176
     1
 40
1.0
176
     1
  0
DICTIONARYVAR
  5
3E210
102
{ACAD_REACTORS
330
15F3
102
}
330
15F3
100
DictionaryVariables
280
     0
  1
1:1
  0
DICTIONARYVAR
  5
3E20C
102
{ACAD_REACTORS
330
15F3
102
}
330
15F3
100
DictionaryVariables
280
     0
  1
STANDARD
  0
DICTIONARYVAR
  5
3E20B
102
{ACAD_REACTORS
330
15F3
102
}
330
15F3
100
DictionaryVariables
280
     0
  1
STANDARD
  0
DICTIONARYVAR
  5
3E20D
102
{ACAD_REACTORS
330
15F3
102
}
330
15F3
100
DictionaryVariables
280
     0
  1
Imperial24
  0
DICTIONARYVAR
  5
3E20E
102
{ACAD_REACTORS
330
15F3
102
}
330
15F3
100
DictionaryVariables
280
     0
  1
Imperial24
  0
DICTIONARYVAR
  5
3E21F
102
{ACAD_REACTORS
330
15F3
102
}
330
15F3
100
DictionaryVariables
280
     0
  1
65
  0
DICTIONARYVAR
  5
3E212
102
{ACAD_REACTORS
330
15F3
102
}
330
15F3
100
DictionaryVariables
280
     0
  1
1
  0
DICTIONARYVAR
  5
3E213
102
{ACAD_REACTORS
330
15F3
102
}
330
15F3
100
DictionaryVariables
280
     0
  1
15
  0
DICTIONARYVAR
  5
3E211
102
{ACAD_REACTORS
330
15F3
102
}
330
15F3
100
DictionaryVariables
280
     0
  1
0
  0
DICTIONARYVAR
  5
3E20F
102
{ACAD_REACTORS
330
15F3
102
}
330
15F3
100
DictionaryVariables
280
     0
  1
0
  0
DICTIONARYVAR
  5
15F4
102
{ACAD_REACTORS
330
15F3
102
}
330
15F3
100
DictionaryVariables
280
     0
  1
96
  0
DICTIONARY
  5
3E208
330
3E1D0
100
AcDbDictionary
280
     1
281
     1
  3
ACAD_XREC_ROUNDTRIP
360
3E371
  0
DICTIONARY
  5
3E18E
330
3E18D
100
AcDbDictionary
280
     1
281
     1
  3
BUMPTILE
360
3E190
  3
DIFFUSETILE
360
3E18F
  3
OPACITYTILE
360
3E193
  3
REFLECTIONTILE
360
3E192
  3
REFRACTIONTILE
360
3E194
  3
SPECULARTILE
360
3E191
  0
DICTIONARY
  5
3E186
330
3E185
100
AcDbDictionary
280
     1
281
     1
  3
BUMPTILE
360
3E188
  3
DIFFUSETILE
360
3E187
  3
OPACITYTILE
360
3E18B
  3
REFLECTIONTILE
360
3E18A
  3
REFRACTIONTILE
360
3E18C
  3
SPECULARTILE
360
3E189
  0
DICTIONARY
  5
3E196
330
3E195
100
AcDbDictionary
280
     1
281
     1
  3
BUMPTILE
360
3E198
  3
DIFFUSETILE
360
3E197
  3
OPACITYTILE
360
3E19B
  3
REFLECTIONTILE
360
3E19A
  3
REFRACTIONTILE
360
3E19C
  3
SPECULARTILE
360
3E199
  0
DICTIONARY
  5
3E206
330
3E1CE
100
AcDbDictionary
280
     1
281
     1
  3
ACAD_XREC_ROUNDTRIP
360
3E370
  0
DICTIONARY
  5
3E36E
330
3E1B8
100
AcDbDictionary
280
     1
281
     1
  3
ACAD_ROUNDTRIP_2008_TABLESTYLE_CELLSTYLEMAP
360
3E36F
  0
XRECORD
  5
3E371
102
{ACAD_REACTORS
330
3E208
102
}
330
3E208
100
AcDbXrecord
280
     1
102
DISPLAYNAME
  1
Imperial24
102
FLAGS
 90
        0
  0
XRECORD
  5
3E190
102
{ACAD_REACTORS
330
3E18E
102
}
330
3E18E
100
AcDbXrecord
280
     1
270
     1
271
     1
  0
XRECORD
  5
3E18F
102
{ACAD_REACTORS
330
3E18E
102
}
330
3E18E
100
AcDbXrecord
280
     1
270
     1
271
     1
  0
XRECORD
  5
3E193
102
{ACAD_REACTORS
330
3E18E
102
}
330
3E18E
100
AcDbXrecord
280
     1
270
     1
271
     1
  0
XRECORD
  5
3E192
102
{ACAD_REACTORS
330
3E18E
102
}
330
3E18E
100
AcDbXrecord
280
     1
270
     1
271
     1
  0
XRECORD
  5
3E194
102
{ACAD_REACTORS
330
3E18E
102
}
330
3E18E
100
AcDbXrecord
280
     1
270
     1
271
     1
  0
XRECORD
  5
3E191
102
{ACAD_REACTORS
330
3E18E
102
}
330
3E18E
100
AcDbXrecord
280
     1
270
     1
271
     1
  0
XRECORD
  5
3E188
102
{ACAD_REACTORS
330
3E186
102
}
330
3E186
100
AcDbXrecord
280
     1
270
     1
271
     1
  0
XRECORD
  5
3E187
102
{ACAD_REACTORS
330
3E186
102
}
330
3E186
100
AcDbXrecord
280
     1
270
     1
271
     1
  0
XRECORD
  5
3E18B
102
{ACAD_REACTORS
330
3E186
102
}
330
3E186
100
AcDbXrecord
280
     1
270
     1
271
     1
  0
XRECORD
  5
3E18A
102
{ACAD_REACTORS
330
3E186
102
}
330
3E186
100
AcDbXrecord
280
     1
270
     1
271
     1
  0
XRECORD
  5
3E18C
102
{ACAD_REACTORS
330
3E186
102
}
330
3E186
100
AcDbXrecord
280
     1
270
     1
271
     1
  0
XRECORD
  5
3E189
102
{ACAD_REACTORS
330
3E186
102
}
330
3E186
100
AcDbXrecord
280
     1
270
     1
271
     1
  0
XRECORD
  5
3E198
102
{ACAD_REACTORS
330
3E196
102
}
330
3E196
100
AcDbXrecord
280
     1
270
     1
271
     1
  0
XRECORD
  5
3E197
102
{ACAD_REACTORS
330
3E196
102
}
330
3E196
100
AcDbXrecord
280
     1
270
     1
271
     1
  0
XRECORD
  5
3E19B
102
{ACAD_REACTORS
330
3E196
102
}
330
3E196
100
AcDbXrecord
280
     1
270
     1
271
     1
  0
XRECORD
  5
3E19A
102
{ACAD_REACTORS
330
3E196
102
}
330
3E196
100
AcDbXrecord
280
     1
270
     1
271
     1
  0
XRECORD
  5
3E19C
102
{ACAD_REACTORS
330
3E196
102
}
330
3E196
100
AcDbXrecord
280
     1
270
     1
271
     1
  0
XRECORD
  5
3E199
102
{ACAD_REACTORS
330
3E196
102
}
330
3E196
100
AcDbXrecord
280
     1
270
     1
271
     1
  0
XRECORD
  5
3E370
102
{ACAD_REACTORS
330
3E206
102
}
330
3E206
100
AcDbXrecord
280
     1
102
DISPLAYNAME
  1
Imperial24
102
FLAGS
 90
        0
  0
CELLSTYLEMAP
  5
3E36F
102
{ACAD_REACTORS
330
3E36E
102
}
330
3E36E
100
AcDbCellStyleMap
 90
        3
300
CELLSTYLE
  1
TABLEFORMAT_BEGIN
 90
        5
170
     1
 91
        0
 92
    32768
 62
   257
 93
        1
300
CONTENTFORMAT
  1
CONTENTFORMAT_BEGIN
 90
        0
 91
        0
 92
      512
 93
        0
300

 40
0.0
140
1.0
 94
        5
 62
     0
340
11
144
0.25
309
CONTENTFORMAT_END
171
     0
 94
        0
309
TABLEFORMAT_END
  1
CELLSTYLE_BEGIN
 90
        1
 91
        1
300
_TITLE
309
CELLSTYLE_END
300
CELLSTYLE
  1
TABLEFORMAT_BEGIN
 90
        5
170
     1
 91
        0
 92
        0
 62
   257
 93
        1
300
CONTENTFORMAT
  1
CONTENTFORMAT_BEGIN
 90
        0
 91
        0
 92
      512
 93
        0
300

 40
0.0
140
1.0
 94
        5
 62
     0
340
11
144
0.18
309
CONTENTFORMAT_END
171
     0
 94
        0
309
TABLEFORMAT_END
  1
CELLSTYLE_BEGIN
 90
        2
 91
        1
300
_HEADER
309
CELLSTYLE_END
300
CELLSTYLE
  1
TABLEFORMAT_BEGIN
 90
        5
170
     1
 91
        0
 92
        0
 62
   257
 93
        1
300
CONTENTFORMAT
  1
CONTENTFORMAT_BEGIN
 90
        0
 91
        0
 92
      512
 93
        0
300

 40
0.0
140
1.0
 94
        2
 62
     0
340
11
144
0.18
309
CONTENTFORMAT_END
171
     0
 94
        0
309
TABLEFORMAT_END
  1
CELLSTYLE_BEGIN
 90
        3
 91
        2
300
_DATA
309
CELLSTYLE_END
  0
ENDSEC
  0
SECTION
  2
ACDSDATA
 70
     2
 71
     6
  0
ACDSSCHEMA
 90
        0
  1
AcDb_Thumbnail_Schema
  2
AcDbDs::ID
280
    10
 91
        8
  2
Thumbnail_Data
280
    15
 91
        0
101
ACDSRECORD
 95
        0
 90
        1
  2
AcDbDs::TreatedAsObjectData
280
     1
291
     1
101
ACDSRECORD
 95
        0
 90
        2
  2
AcDbDs::Legacy
280
     1
291
     1
101
ACDSRECORD
  1
AcDbDs::ID
 90
        3
  2
AcDs:Indexable
280
     1
291
     1
101
ACDSRECORD
  1
AcDbDs::ID
 90
        4
  2
AcDbDs::HandleAttribute
280
     7
282
     1
  0
ACDSSCHEMA
 90
        1
  1
AcDbDs::TreatedAsObjectDataSchema
  2
AcDbDs::TreatedAsObjectData
280
     1
 91
        0
  0
ACDSSCHEMA
 90
        2
  1
AcDbDs::LegacySchema
  2
AcDbDs::Legacy
280
     1
 91
        0
  0
ACDSSCHEMA
 90
        3
  1
AcDbDs::IndexedPropertySchema
  2
AcDs:Indexable
280
     1
 91
        0
  0
ACDSSCHEMA
 90
        4
  1
AcDbDs::HandleAttributeSchema
  2
AcDbDs::HandleAttribute
280
     7
 91
        1
284
     1
  0
ACDSRECORD
 90
        0
  2
AcDbDs::ID
280
    10
320
21
  2
Thumbnail_Data
280
    15
 94
     2435
310
89504E470D0A1A0A0000000D4948445200000100000000700803000000C6F95E2100000300504C5445212830000000C8C8C80000000000000000000000000000000000000000000000000000330000660000990000CC0000FF0033000033330033660033990033CC0033FF0066000066330066660066990066CC0066FF0099
310
000099330099660099990099CC0099FF00CC0000CC3300CC6600CC9900CCCC00CCFF00FF0000FF3300FF6600FF9900FFCC00FFFF3300003300333300663300993300CC3300FF3333003333333333663333993333CC3333FF3366003366333366663366993366CC3366FF3399003399333399663399993399CC3399FF33CC00
310
33CC3333CC6633CC9933CCCC33CCFF33FF0033FF3333FF6633FF9933FFCC33FFFF6600006600336600666600996600CC6600FF6633006633336633666633996633CC6633FF6666006666336666666666996666CC6666FF6699006699336699666699996699CC6699FF66CC0066CC3366CC6666CC9966CCCC66CCFF66FF0066
310
FF3366FF6666FF9966FFCC66FFFF9900009900339900669900999900CC9900FF9933009933339933669933999933CC9933FF9966009966339966669966999966CC9966FF9999009999339999669999999999CC9999FF99CC0099CC3399CC6699CC9999CCCC99CCFF99FF0099FF3399FF6699FF9999FFCC99FFFFCC0000CC00
310
33CC0066CC0099CC00CCCC00FFCC3300CC3333CC3366CC3399CC33CCCC33FFCC6600CC6633CC6666CC6699CC66CCCC66FFCC9900CC9933CC9966CC9999CC99CCCC99FFCCCC00CCCC33CCCC66CCCC99CCCCCCCCCCFFCCFF00CCFF33CCFF66CCFF99CCFFCCCCFFFFFF0000FF0033FF0066FF0099FF00CCFF00FFFF3300FF3333
310
FF3366FF3399FF33CCFF33FFFF6600FF6633FF6666FF6699FF66CCFF66FFFF9900FF9933FF9966FF9999FF99CCFF99FFFFCC00FFCC33FFCC66FFCC99FFCCCCFFCCFFFFFF00FFFF33FFFF66FFFF99FFFFCCFFFFFF0000000D0D0D1A1A1A2828283535354343435050505D5D5D6B6B6B787878868686939393A1A1A1AEAEAEBB
310
BBBBC9C9C9D6D6D6E4E4E4F1F1F1FFFFFF000000000000000000000000000000000000000000000000000000000000B21171F6000003D34944415478DAED9DE991EB200C802947F366E8BF0055E222F47FCD656E3B76E6C520A4DDCDB18E26D68710121047291111916BF937ACFC0AC00BD0A1296573F003807700283E00B4
310
BB232357005E68991F01A0283B00D5319A29002A247404FBCB1F0065003673E33D604900890F2C00606FE460B0F9C32314AC030008118990C23098105801C0D1055C67581680377D77858501EC46C718B01200446DE200DA1B74E6EF0F7C3EC81B00641EA00A0F582113ACBA4096084C08E0A27CB90A82347D107C00603756
310
9323B0621EB027422EE859932380858AA1980AA73160E16AD096830B97C3B61A566B95C3E58448354C8C08407B796670A1AC9360107AFFE053623A4C641E56DC60D1552E5AFF7DD73C7B1F5D34E73D17E828A39A1080B7E319804259002C0AE02281EE2D90F00000B003C8073D68554C897FB001E05AD3000819807B5001E8
310
AC9B70E902D00000C96C08417BD5800F805E0B7B5F77D93163001A34F9E886CEDE0240301855FE9CD130484998AB3D601100FD2EB00A803827B82C00F7231EB02C0045D8F300506115053802B8C8030C80A410600120AD6B0C006FE9A907B82EC0CF03F66AE8030FE006202D6E4D29102CED05413C00203B0FD88B1F4FA00F
310
80C0EF20F295111F0026FF4704B71DA00460D705FC2E22F302F3EB7610300290AE05C6D5E178D4BF000F0F40E206C00D832A2C8CA7D510F89857C500620760DBB62E806DAB32418600683BF100640BE04884A80DC0277E0B7840DC1CD38E012B00501D00F639714D841AC3600B803BC0721834A9B076718EA8CA8442227400
310
609D08590C1500DE1E9095C3A42A00B65EE65C0C013427446A00F34C89C5B5DBB3DD2DD9AB3F0030C3CAD0F5C7FC4E836061202493609300A85FF10980D339C180306E9FF3B78A1B006D8CDCE24EC17C755895BD400D0D001F01E87E70B205604C0F082787C769DEEA025B6BB32C348C4FB6D20E05801A00FAA1B054AE7700
310
90DD3CD204406303284E139E2A1F3BA50540C3B904C0143140000800012041F02B0020A3C0FC00E0310090183005009FEB3FEB02A7CA3580746A646000F81F0074269BA607F0B80BC0101E90CB4D001DE59900E442F700F4943900A01F00A0453D60A40911DD16CAEE12B9506E264276C9A033C05AAD313CC09BD7F1D3AB0F
310
D53A3ABD26EE1FB50746005036AFBD0844D1D417DABAA35C6B63F1AE0300A8ECCB6CF8A4F9D529BD73E8235E40A168C47B725759000800012000460370F71A085F2973BEB6B8001000F301F8FDD70A8C05E0852F5610002F00383DAF58AE3E3D561F4DFE1F0FBF0760ACEF161100AF00684F7F7ED5053EE95679177073466C
310
3CA0C3F3C4037E0C60F5EF19121111612A7FF8783DA99A3C3EE50000000049454E44AE42608249FE0139B90A0DC25940330000000049454E44AE426082825D0880CC1188008498A409009C6A7AA0EA2EECF92D00729B623B2D66015C17780680A0A3025EE60322D5FB2E700F00524B32854B2F9C4F8F670120A39AAE128D52
310
A03701F09BFB2E0010ABAE0740812E80ACEA670128130C91E4C9E160E87700B85A2E1B5C1D908F452904609BF9DEA996004CDBE67A03B09B2A74F4454D00B8DEA5B30073B30FE802002F450064543F03002B6431E3790059D503C0A151E02E00D1D9B7250170AA9F06A05B0B50CC0C9902AADDE999A1220044479D96752370
310
E20C5EFB4B296601AB3ACDECF0D1038897F2BA095F5DE1A554A92EC0B7680BD914850F29DF8ED1512A7742A942002CB05765014C87921F6A3FA35C023095B479A26B158A0010EF2803C00AAC8EDB16CBD62AD80655280160C2C9BBEDA89616407187F2CA590076569F8F6088CA6B3F6001A58E5A427319D503C00030000C00
310
03C00070150028F4311017AA1E00AE06F0741900068001A00200A6A0FC04C0ABB09404F07A5D0FE0F570A9150022AA4BDE0E008434FC5725D5570FF5AD7FE0145505404AB2FF0EC0317BA5F2DB4E1E5D39ACC46900AF46E47A00FA3B7EA4645EB692C98B7C0300B295F8A50F607D82CA07ACAF0F5B80F22E5CE203B217D5FB
310
80F300EE143580BC0F5001E8436008913F2D90337B80EC976C0000000049454E44AE42608205A01200487C29E6AB96D94777F5993728455D01487ED76875000FCCCCEB6A9196AF0E6EBDF16717F80C220BC01F00A4AE391E8EF6B51840C684AC1860FE7E6C01C94E548C01C983E6C780F7007E29D900D22E9005600E812596
310
FC07D2CD1DFCCF1A3CBA0000000049454E44AE426082
  0
ACDSRECORD
 90
        0
  2
AcDbDs::ID
280
    10
320
1D
  2
Thumbnail_Data
280
    15
 94
     2560
310
89504E470D0A1A0A0000000D4948445200000100000000B5080300000087DCD12600000300504C5445FFFFFF000000C8C8C80000000000000000000000000000000000000000000000000000330000660000990000CC0000FF0033000033330033660033990033CC0033FF0066000066330066660066990066CC0066FF0099
310
000099330099660099990099CC0099FF00CC0000CC3300CC6600CC9900CCCC00CCFF00FF0000FF3300FF6600FF9900FFCC00FFFF3300003300333300663300993300CC3300FF3333003333333333663333993333CC3333FF3366003366333366663366993366CC3366FF3399003399333399663399993399CC3399FF33CC00
310
33CC3333CC6633CC9933CCCC33CCFF33FF0033FF3333FF6633FF9933FFCC33FFFF6600006600336600666600996600CC6600FF6633006633336633666633996633CC6633FF6666006666336666666666996666CC6666FF6699006699336699666699996699CC6699FF66CC0066CC3366CC6666CC9966CCCC66CCFF66FF0066
310
FF3366FF6666FF9966FFCC66FFFF9900009900339900669900999900CC9900FF9933009933339933669933999933CC9933FF9966009966339966669966999966CC9966FF9999009999339999669999999999CC9999FF99CC0099CC3399CC6699CC9999CCCC99CCFF99FF0099FF3399FF6699FF9999FFCC99FFFFCC0000CC00
310
33CC0066CC0099CC00CCCC00FFCC3300CC3333CC3366CC3399CC33CCCC33FFCC6600CC6633CC6666CC6699CC66CCCC66FFCC9900CC9933CC9966CC9999CC99CCCC99FFCCCC00CCCC33CCCC66CCCC99CCCCCCCCCCFFCCFF00CCFF33CCFF66CCFF99CCFFCCCCFFFFFF0000FF0033FF0066FF0099FF00CCFF00FFFF3300FF3333
310
FF3366FF3399FF33CCFF33FFFF6600FF6633FF6666FF6699FF66CCFF66FFFF9900FF9933FF9966FF9999FF99CCFF99FFFFCC00FFCC33FFCC66FFCC99FFCCCCFFCCFFFFFF00FFFF33FFFF66FFFF99FFFFCCFFFFFF0000000D0D0D1A1A1A2828283535354343435050505D5D5D6B6B6B787878868686939393A1A1A1AEAEAEBB
310
BBBBC9C9C9D6D6D6E4E4E4F1F1F1FFFFFF000000000000000000000000000000000000000000000000000000000000B0E2D235000006BB4944415478DAED9D0B9283200C40731C6667B8FF01B8494EB25605C22788162CBFECCE6E3FD8C833091090022C59B264C992C9E56F52B10066BCC8B4DA3D0310D712008019014068
310
FE7D02504F0140E0FEB30108C3424B00F873966900DFC4C5FE00E02179070E07E0A8B9328F629FD2AF0530543E00302E01B9BE0130D14B680B402F06207856303000D6023030FFD15C60AF92B43EEF54DE2730260044613DDE04C19D0882EB05A301D87D40A1124A6D7F51E9EBAD6C93804303382AA34DDEDABB0D825E7338
310
3400E2EFA415705B823101ECFD00384C40DBBE05405F1F1B803100DC82C18EE0A0427D600A00787685AD0BCC00E08C78677750E910A87F6606E0F4856E0F06DB06705666EB04C84F3FE010FD7FEF181C3FBBD89EF470002E5CC058C07800F26240632E703F2B97DD0AE85690B6025301D026801F00E76810C105F0FB56A03E
310
00307D9FA900306301B7FEC38F06D11B0DE2E8008E7C80D02D7F900FF042E0B819219B033EAEB9D2D1708E94D8D90F406BF74A27C4A60260331F343F384556984D8BFBF302D301186D6628E902D4FA7F393728A5AC5DD9880619B60A89DE573500F23837590D82B41A12002ED60754B380EDA4EC79D54090AFE0670B24E859
310
396758CA265C059279A70D00DA6065498FF03E89D3D00880D33B255403A0354809CD0280EA0060015800A4D0ED3DE9F18A749B279C7E02DB4CF602E07E9E2973D1645F16105EC43C0B48BCD12E007DB5B6DFEF01A88E016C8FE60440CE38BB15604382EABB151052B8690061D20122CC07E8839814028A1E01C42D20CC0808
310
67D01CB500EFA03E5A01C1B8401A00E3023D02D85E76DAF1D9018819014CEF0236B445B2C2330170168E4E0A00F49CE802B000AC1830230038A6C7E1060067903415002F95B63F1F0A005E018864C31A07104BDF6D00303D3F7E61012606740B809E3459283909002124069DE0612D209E0FA08B81823563435BC02E0BC027
310
2BECAC111B180087E5110054489796E2F6BC4700671ED8DE35C70070B3C2FB223A45D7D66E2F28E716ABF6011CF92F45D60A670038E6933EB5B7071D7FCE7B8D7AB200FFDEE11C1710D602C0B500ECCE02807484480C3043E10B0080CA595FDF610CA000729B4102C0447FFABF5F0B305B48403680EEF301742C60D788E758
310
00F2009C773A038025004037009CD120E601D0B7DBA25271000A559F00325D401F3384050441D007008F82208ED30CC24CAD800B00F2008CD50F885900A67B8238444F901F0B5C00B0B79C9BD120F6381A149B05E89DA47200E8D1E021C38D061113EDA06701A6FB6C4683D8E36810CF6901DB8C2B73DFF0D800BC9E601600
310
9315427A6375A7AD800B001E00E8BC1F10190B5CCC8CB400E0F16E1157630172FE67AB069D0010130078B6AD755E3FE0B3541831393D1C6A147071C89B31E03900F3AA8C5B408E2A84D4014301881BDBE400D20B4BFB0390B381827FF911C8DE5B7D03309B292BFB2CA90A89C960DC0BAA00507500986981730789488D4458
310
7F3D06408812E811C0B9A96AAC4682F77F260EBC01004A01B8AE9080788F4731DDA06200DC7352FE6D5AD93D2216002625DC41265DBE060033FE0EF560BE2FF00092AD80590D43009C53C818B3492C0D0021A6AE2000F7A3CCC28F148073F7B99700680B80DA00B22D802CAC7FC5022ABBC07D00CEFE832F58003580365CC0
310
B9A3624200EE37B0BCE10264D6B59520F82200778FEF665C606600EE3280379A4180D65C00060680D716F0B60BBC0920B8791A754298C600F819008C5C9FB200EC34592B001C0305E57AC45B31C001003F0340E6AE1D755F0D87E947459608A19E0F690000BE05009B05605290955CE0548057AD40EF0088C5B408809E1E64
310
E46B4A01C8CF0780F349E215007A0370E5AE472D08C0CE0BA0AF6101A01A04E6CE57B70B201A041F5900A4662A8A06C11900C4A520800B053F06C0493100970ACA00C0D90154B480D8FC5359009C86462C607A0023C7009921187D18CA6D0598333DBC6F359055DE7EF07716B06F2DEFC1A5EB3162E5417EA923B1E289D5A1
310
D882DF00885E4CBA222752FEEEBAE2880E8C2DFABED0A1D882CF0130B6CC022854FD24005687620B3E05C0FA320320E5FB3775B000B275D082CF0024AE6614C0F93D19B7AB0F0CE218806C1D6EC1470052B12C064042182C9FEB8803C8D6E1152CFE4D53892008C534F041F0B62C000BC002B0002C000B404100DCD0A3A8FC
310
EC8B9616800560385900168005A06500A2B82C000B4025007FDD48250088F50A276601A285FD57981A17B60076055385C27C79BF307D6501A80DA0CDC27FE9E769007F23CA2D0037D0DF896B370B670929EC1F1ED6C91E72092057F5DB3180039017038602F024086603684492009EC4805C00738D06271558B264C9F4F20F
310
2B759B2167FC0CD50000000049454E44AE426082
  0
ENDSEC
  0
EOF
