  0
SECTION
  2
HEADER
  9
$ACADVER
  1
AC1027
  9
$ACADMAINTVER
 70
    55
  9
$DWGCODEPAGE
  3
ANSI_932
  9
$LASTSAVEDBY
  1
石井
  9
$REQUIREDVERSIONS
160
                 0
  9
$INSBASE
 10
0.0
 20
0.0
 30
0.0
  9
$EXTMIN
 10
80.57226414256001
 20
8396.390798436511
 30
0.0
  9
$EXTMAX
 10
489.5722641636675
 20
8677.390804102094
 30
0.0
  9
$LIMMIN
 10
0.0
 20
0.0
  9
$LIMMAX
 10
42000.0
 20
29700.0
  9
$ORTHOMODE
 70
     1
  9
$REGENMODE
 70
     1
  9
$FILLMODE
 70
     1
  9
$QTEXTMODE
 70
     0
  9
$MIRRTEXT
 70
     1
  9
$LTSCALE
 40
1.0
  9
$ATTMODE
 70
     1
  9
$TEXTSIZE
 40
0.2
  9
$TRACEWID
 40
0.05
  9
$TEXTSTYLE
  7
明朝
  9
$CLAYER
  8
1-0_本体
  9
$CELTYPE
  6
CONTINUOUS
  9
$CECOLOR
 62
     7
  9
$CELTSCALE
 40
0.5
  9
$DISPSILH
 70
     0
  9
$DIMSCALE
 40
1.0
  9
$DIMASZ
 40
1.0
  9
$DIMEXO
 40
3.0
  9
$DIMDLI
 40
3.75
  9
$DIMRND
 40
0.0
  9
$DIMDLE
 40
0.0
  9
$DIMEXE
 40
1.0
  9
$DIMTP
 40
0.0
  9
$DIMTM
 40
0.0
  9
$DIMTXT
 40
3.0
  9
$DIMCEN
 40
1.5
  9
$DIMTSZ
 40
0.0
  9
$DIMTOL
 70
     0
  9
$DIMLIM
 70
     0
  9
$DIMTIH
 70
     0
  9
$DIMTOH
 70
     0
  9
$DIMSE1
 70
     0
  9
$DIMSE2
 70
     0
  9
$DIMTAD
 70
     1
  9
$DIMZIN
 70
     8
  9
$DIMBLK
  1
Dot
  9
$DIMASO
 70
     1
  9
$DIMSHO
 70
     1
  9
$DIMPOST
  1

  9
$DIMAPOST
  1

  9
$DIMALT
 70
     0
  9
$DIMALTD
 70
     3
  9
$DIMALTF
 40
0.03937007874016
  9
$DIMLFAC
 40
1.0
  9
$DIMTOFL
 70
     1
  9
$DIMTVP
 40
0.0
  9
$DIMTIX
 70
     0
  9
$DIMSOXD
 70
     0
  9
$DIMSAH
 70
     0
  9
$DIMBLK1
  1

  9
$DIMBLK2
  1

  9
$DIMSTYLE
  2
ISO-25
  9
$DIMCLRD
 70
     3
  9
$DIMCLRE
 70
     3
  9
$DIMCLRT
 70
     3
  9
$DIMTFAC
 40
1.0
  9
$DIMGAP
 40
0.625
  9
$DIMJUST
 70
     0
  9
$DIMSD1
 70
     0
  9
$DIMSD2
 70
     0
  9
$DIMTOLJ
 70
     0
  9
$DIMTZIN
 70
     8
  9
$DIMALTZ
 70
     0
  9
$DIMALTTZ
 70
     0
  9
$DIMUPT
 70
     0
  9
$DIMDEC
 70
     2
  9
$DIMTDEC
 70
     2
  9
$DIMALTU
 70
     2
  9
$DIMALTTD
 70
     3
  9
$DIMTXSTY
  7
明朝
  9
$DIMAUNIT
 70
     0
  9
$DIMADEC
 70
     0
  9
$DIMALTRND
 40
0.0
  9
$DIMAZIN
 70
     0
  9
$DIMDSEP
 70
    46
  9
$DIMATFIT
 70
     3
  9
$DIMFRAC
 70
     0
  9
$DIMLDRBLK
  1

  9
$DIMLUNIT
 70
     2
  9
$DIMLWD
 70
    -2
  9
$DIMLWE
 70
    -2
  9
$DIMTMOVE
 70
     0
  9
$DIMFXL
 40
1.0
  9
$DIMFXLON
 70
     0
  9
$DIMJOGANG
 40
0.7853981633974483
  9
$DIMTFILL
 70
     0
  9
$DIMTFILLCLR
 70
     0
  9
$DIMARCSYM
 70
     0
  9
$DIMLTYPE
  6

  9
$DIMLTEX1
  6

  9
$DIMLTEX2
  6

  9
$DIMTXTDIRECTION
 70
     0
  9
$LUNITS
 70
     2
  9
$LUPREC
 70
     4
  9
$SKETCHINC
 40
0.1
  9
$FILLETRAD
 40
7.5
  9
$AUNITS
 70
     0
  9
$AUPREC
 70
     0
  9
$MENU
  1
.
  9
$ELEVATION
 40
0.0
  9
$PELEVATION
 40
0.0
  9
$THICKNESS
 40
0.0
  9
$LIMCHECK
 70
     0
  9
$CHAMFERA
 40
1.5
  9
$CHAMFERB
 40
1.5
  9
$CHAMFERC
 40
0.0
  9
$CHAMFERD
 40
0.0
  9
$SKPOLY
 70
     0
  9
$TDCREATE
 40
2453535.375353912
  9
$TDUCREATE
 40
2453535.000353912
  9
$TDUPDATE
 40
2457815.582626782
  9
$TDUUPDATE
 40
2457815.207626782
  9
$TDINDWG
 40
3.0073998032
  9
$TDUSRTIMER
 40
3.0073998032
  9
$USRTIMER
 70
     1
  9
$ANGBASE
 50
0.0
  9
$ANGDIR
 70
     0
  9
$PDMODE
 70
     0
  9
$PDSIZE
 40
0.0
  9
$PLINEWID
 40
0.0
  9
$SPLFRAME
 70
     0
  9
$SPLINETYPE
 70
     6
  9
$SPLINESEGS
 70
 30000
  9
$HANDSEED
  5
18404
  9
$SURFTAB1
 70
     6
  9
$SURFTAB2
 70
     6
  9
$SURFTYPE
 70
     6
  9
$SURFU
 70
     6
  9
$SURFV
 70
     6
  9
$UCSBASE
  2

  9
$UCSNAME
  2

  9
$UCSORG
 10
0.0
 20
0.0
 30
0.0
  9
$UCSXDIR
 10
1.0
 20
0.0
 30
0.0
  9
$UCSYDIR
 10
0.0
 20
1.0
 30
0.0
  9
$UCSORTHOREF
  2

  9
$UCSORTHOVIEW
 70
     0
  9
$UCSORGTOP
 10
0.0
 20
0.0
 30
0.0
  9
$UCSORGBOTTOM
 10
0.0
 20
0.0
 30
0.0
  9
$UCSORGLEFT
 10
0.0
 20
0.0
 30
0.0
  9
$UCSORGRIGHT
 10
0.0
 20
0.0
 30
0.0
  9
$UCSORGFRONT
 10
0.0
 20
0.0
 30
0.0
  9
$UCSORGBACK
 10
0.0
 20
0.0
 30
0.0
  9
$PUCSBASE
  2

  9
$PUCSNAME
  2

  9
$PUCSORG
 10
0.0
 20
0.0
 30
0.0
  9
$PUCSXDIR
 10
1.0
 20
0.0
 30
0.0
  9
$PUCSYDIR
 10
0.0
 20
1.0
 30
0.0
  9
$PUCSORTHOREF
  2

  9
$PUCSORTHOVIEW
 70
     0
  9
$PUCSORGTOP
 10
0.0
 20
0.0
 30
0.0
  9
$PUCSORGBOTTOM
 10
0.0
 20
0.0
 30
0.0
  9
$PUCSORGLEFT
 10
0.0
 20
0.0
 30
0.0
  9
$PUCSORGRIGHT
 10
0.0
 20
0.0
 30
0.0
  9
$PUCSORGFRONT
 10
0.0
 20
0.0
 30
0.0
  9
$PUCSORGBACK
 10
0.0
 20
0.0
 30
0.0
  9
$USERI1
 70
     0
  9
$USERI2
 70
     0
  9
$USERI3
 70
     0
  9
$USERI4
 70
     0
  9
$USERI5
 70
     0
  9
$USERR1
 40
0.0
  9
$USERR2
 40
0.0
  9
$USERR3
 40
0.0
  9
$USERR4
 40
0.0
  9
$USERR5
 40
0.0
  9
$WORLDVIEW
 70
     1
  9
$SHADEDGE
 70
     3
  9
$SHADEDIF
 70
    70
  9
$TILEMODE
 70
     1
  9
$MAXACTVP
 70
    48
  9
$PINSBASE
 10
0.0
 20
0.0
 30
0.0
  9
$PLIMCHECK
 70
     0
  9
$PEXTMIN
 10
12.94094296603259
 20
8.144786810508776
 30
0.0
  9
$PEXTMAX
 10
398.8732999224315
 20
281.7982811985451
 30
0.0
  9
$PLIMMIN
 10
13.06924150222671
 20
10.62321312202526
  9
$PLIMMAX
 10
396.5639952991974
 20
281.7756556283633
  9
$UNITMODE
 70
     0
  9
$VISRETAIN
 70
     1
  9
$PLINEGEN
 70
     0
  9
$PSLTSCALE
 70
     0
  9
$TREEDEPTH
 70
  3020
  9
$CMLSTYLE
  2
Standard
  9
$CMLJUST
 70
     0
  9
$CMLSCALE
 40
1.0
  9
$PROXYGRAPHICS
 70
     1
  9
$MEASUREMENT
 70
     0
  9
$CELWEIGHT
370
    35
  9
$ENDCAPS
280
     0
  9
$JOINSTYLE
280
     0
  9
$LWDISPLAY
290
     1
  9
$INSUNITS
 70
     0
  9
$HYPERLINKBASE
  1

  9
$STYLESHEET
  1
monochrome.ctb
  9
$XEDIT
290
     1
  9
$CEPSNTYPE
380
     0
  9
$PSTYLEMODE
290
     1
  9
$FINGERPRINTGUID
  2
{9EDDDDE4-70DF-410C-B5FF-732209A9D3A9}
  9
$VERSIONGUID
  2
{F445B555-B401-4890-B064-BD0F2819FFEB}
  9
$EXTNAMES
290
     1
  9
$PSVPSCALE
 40
0.0
  9
$OLESTARTUP
290
     0
  9
$SORTENTS
280
    96
  9
$INDEXCTL
280
     0
  9
$HIDETEXT
280
     0
  9
$XCLIPFRAME
280
     2
  9
$HALOGAP
280
     0
  9
$OBSCOLOR
 70
   257
  9
$OBSLTYPE
280
     0
  9
$INTERSECTIONDISPLAY
280
     0
  9
$INTERSECTIONCOLOR
 70
   257
  9
$DIMASSOC
280
     1
  9
$PROJECTNAME
  1

  9
$CAMERADISPLAY
290
     0
  9
$LENSLENGTH
 40
50.0
  9
$CAMERAHEIGHT
 40
0.0
  9
$STEPSPERSEC
 40
2.0
  9
$STEPSIZE
 40
6.0
  9
$3DDWFPREC
 40
2.0
  9
$PSOLWIDTH
 40
0.25
  9
$PSOLHEIGHT
 40
4.0
  9
$LOFTANG1
 40
1.570796326794896
  9
$LOFTANG2
 40
1.570796326794896
  9
$LOFTMAG1
 40
0.0
  9
$LOFTMAG2
 40
0.0
  9
$LOFTPARAM
 70
     7
  9
$LOFTNORMALS
280
     1
  9
$LATITUDE
 40
37.795
  9
$LONGITUDE
 40
-122.394
  9
$NORTHDIRECTION
 40
0.0
  9
$TIMEZONE
 70
 -8000
  9
$LIGHTGLYPHDISPLAY
280
     1
  9
$TILEMODELIGHTSYNCH
280
     1
  9
$CMATERIAL
347
182CF
  9
$SOLIDHIST
280
     0
  9
$SHOWHIST
280
     1
  9
$DWFFRAME
280
     2
  9
$DGNFRAME
280
     0
  9
$REALWORLDSCALE
290
     1
  9
$INTERFERECOLOR
 62
     1
  9
$INTERFEREOBJVS
345
182F1
  9
$INTERFEREVPVS
346
182EE
  9
$CSHADOW
280
     0
  9
$SHADOWPLANELOCATION
 40
0.0
  0
ENDSEC
  0
SECTION
  2
CLASSES
  0
CLASS
  1
ACDBDICTIONARYWDFLT
  2
AcDbDictionaryWithDefault
  3
ObjectDBX Classes
 90
        0
 91
        1
280
     0
281
     0
  0
CLASS
  1
DICTIONARYVAR
  2
AcDbDictionaryVar
  3
ObjectDBX Classes
 90
        0
 91
       10
280
     0
281
     0
  0
CLASS
  1
MATERIAL
  2
AcDbMaterial
  3
ObjectDBX Classes
 90
     1153
 91
        3
280
     0
281
     0
  0
CLASS
  1
VISUALSTYLE
  2
AcDbVisualStyle
  3
ObjectDBX Classes
 90
     4095
 91
       24
280
     0
281
     0
  0
CLASS
  1
TABLESTYLE
  2
AcDbTableStyle
  3
ObjectDBX Classes
 90
     4095
 91
        1
280
     0
281
     0
  0
CLASS
  1
SCALE
  2
AcDbScale
  3
ObjectDBX Classes
 90
     1153
 91
       17
280
     0
281
     0
  0
CLASS
  1
MLEADERSTYLE
  2
AcDbMLeaderStyle
  3
ACDB_MLEADERSTYLE_CLASS
 90
     4095
 91
        1
280
     0
281
     0
  0
CLASS
  1
ACDBSECTIONVIEWSTYLE
  2
AcDbSectionViewStyle
  3
ObjectDBX Classes
 90
     1025
 91
        1
280
     0
281
     0
  0
CLASS
  1
ACDBDETAILVIEWSTYLE
  2
AcDbDetailViewStyle
  3
ObjectDBX Classes
 90
     1025
 91
        1
280
     0
281
     0
  0
CLASS
  1
SORTENTSTABLE
  2
AcDbSortentsTable
  3
ObjectDBX Classes
 90
        0
 91
        1
280
     0
281
     0
  0
CLASS
  1
CELLSTYLEMAP
  2
AcDbCellStyleMap
  3
ObjectDBX Classes
 90
     1152
 91
        1
280
     0
281
     0
  0
ENDSEC
  0
SECTION
  2
TABLES
  0
TABLE
  2
VPORT
  5
8
330
0
100
AcDbSymbolTable
 70
     1
  0
VPORT
  5
182C6
330
8
100
AcDbSymbolTableRecord
100
AcDbViewportTableRecord
  2
*Active
 70
     0
 10
0.0
 20
0.0
 11
1.0
 21
1.0
 12
274.9318957807407
 22
8781.001365656381
 13
0.0
 23
0.0
 14
1.0
 24
1.0
 15
0.0
 25
0.0
 16
0.0
 26
0.0
 36
1.0
 17
0.0
 27
0.0
 37
0.0
 40
784.097968329883
 41
0.9001663893510814
 42
50.0
 43
0.0
 44
0.0
 50
0.0
 51
0.0
 71
     0
 72
 20000
 73
     1
 74
     1
 75
     0
 76
     0
 77
     0
 78
     0
281
     0
 65
     1
110
0.0
120
0.0
130
0.0
111
1.0
121
0.0
131
0.0
112
0.0
122
1.0
132
0.0
 79
     0
146
0.0
348
182ED
 60
     3
 61
     5
292
     1
282
     1
141
0.0
142
0.0
 63
   250
421
  3355443
1001
ACAD_NAV_VCDISPLAY
1070
     3
  0
ENDTAB
  0
TABLE
  2
LTYPE
  5
5
330
0
100
AcDbSymbolTable
 70
     4
  0
LTYPE
  5
13
330
5
100
AcDbSymbolTableRecord
100
AcDbLinetypeTableRecord
  2
ByBlock
 70
     0
  3

 72
    65
 73
     0
 40
0.0
  0
LTYPE
  5
14
330
5
100
AcDbSymbolTableRecord
100
AcDbLinetypeTableRecord
  2
ByLayer
 70
     0
  3

 72
    65
 73
     0
 40
0.0
  0
LTYPE
  5
15
330
5
100
AcDbSymbolTableRecord
100
AcDbLinetypeTableRecord
  2
CONTINUOUS
 70
     0
  3
実線
 72
    65
 73
     0
 40
0.0
  0
LTYPE
  5
14816
330
5
100
AcDbSymbolTableRecord
100
AcDbLinetypeTableRecord
  2
かくれ線
 70
     0
  3
ISO dash __ __ __ __ __ __ __ __ __ __ __
 72
    65
 73
     2
 40
8.0
 49
6.0
 74
     0
 49
-2.0
 74
     0
  0
LTYPE
  5
14817
330
5
100
AcDbSymbolTableRecord
100
AcDbLinetypeTableRecord
  2
中心線
 70
     0
  3
ISO long-dash dot ____ . ____ . ____ . ____ . _
 72
    65
 73
     4
 40
38.0
 49
30.0
 74
     0
 49
-2.0
 74
     0
 49
4.0
 74
     0
 49
-2.0
 74
     0
  0
LTYPE
  5
14818
330
5
100
AcDbSymbolTableRecord
100
AcDbLinetypeTableRecord
  2
想像線
 70
     0
  3
ISO long-dash double-dot ____ .. ____ .. ____ .
 72
    65
 73
     6
 40
40.0
 49
26.0
 74
     0
 49
-2.0
 74
     0
 49
4.0
 74
     0
 49
-2.0
 74
     0
 49
4.0
 74
     0
 49
-2.0
 74
     0
  0
ENDTAB
  0
TABLE
  2
LAYER
  5
2
102
{ACAD_XDICTIONARY
360
12DB0
102
}
330
0
100
AcDbSymbolTable
 70
    13
  0
LAYER
  5
10
102
{ACAD_XDICTIONARY
360
18329
102
}
330
2
100
AcDbSymbolTableRecord
100
AcDbLayerTableRecord
  2
0
 70
     0
 62
     7
  6
CONTINUOUS
370
    18
390
F
347
182DF
348
0
  0
LAYER
  5
CA7
330
2
100
AcDbSymbolTableRecord
100
AcDbLayerTableRecord
  2
Defpoints
 70
     0
 62
     7
  6
CONTINUOUS
290
     0
370
    18
390
F
347
182DF
348
0
  0
LAYER
  5
1175
102
{ACAD_XDICTIONARY
360
1832B
102
}
330
2
100
AcDbSymbolTableRecord
100
AcDbLayerTableRecord
  2
印刷されない線
 70
     0
 62
   110
  6
CONTINUOUS
290
     0
370
    18
390
F
347
182DF
348
0
  0
LAYER
  5
1178
102
{ACAD_XDICTIONARY
360
1832D
102
}
330
2
100
AcDbSymbolTableRecord
100
AcDbLayerTableRecord
  2
図枠
 70
     0
 62
   110
  6
CONTINUOUS
370
    35
390
F
347
182DF
348
0
  0
LAYER
  5
14819
102
{ACAD_XDICTIONARY
360
1832F
102
}
330
2
100
AcDbSymbolTableRecord
100
AcDbLayerTableRecord
  2
1-0_本体
 70
     0
 62
     7
  6
CONTINUOUS
370
    35
390
F
347
182DF
348
0
  0
LAYER
  5
1481A
102
{ACAD_XDICTIONARY
360
18331
102
}
330
2
100
AcDbSymbolTableRecord
100
AcDbLayerTableRecord
  2
1-A_中心
 70
     0
 62
     6
  6
中心線
370
    18
390
F
347
182DF
348
0
  0
LAYER
  5
1481B
102
{ACAD_XDICTIONARY
360
18333
102
}
330
2
100
AcDbSymbolTableRecord
100
AcDbLayerTableRecord
  2
1-4_ビス
 70
     0
 62
     7
  6
CONTINUOUS
370
    35
390
F
347
182DF
348
0
  0
LAYER
  5
1481C
102
{ACAD_XDICTIONARY
360
18335
102
}
330
2
100
AcDbSymbolTableRecord
100
AcDbLayerTableRecord
  2
1-2_扉･枠
 70
     0
 62
     4
  6
想像線
370
    18
390
F
347
182DF
348
0
  0
LAYER
  5
1481D
102
{ACAD_XDICTIONARY
360
18337
102
}
330
2
100
AcDbSymbolTableRecord
100
AcDbLayerTableRecord
  2
1-B_寸法
 70
     0
 62
     3
  6
CONTINUOUS
370
    18
390
F
347
182DF
348
0
  0
LAYER
  5
1481E
102
{ACAD_XDICTIONARY
360
18339
102
}
330
2
100
AcDbSymbolTableRecord
100
AcDbLayerTableRecord
  2
1-C_文字
 70
     0
 62
     3
  6
CONTINUOUS
370
    18
390
F
347
182DF
348
0
  0
LAYER
  5
1481F
102
{ACAD_XDICTIONARY
360
1833B
102
}
330
2
100
AcDbSymbolTableRecord
100
AcDbLayerTableRecord
  2
1-1_本体2
 70
     0
 62
     7
  6
かくれ線
370
    18
390
F
347
182DF
348
0
  0
LAYER
  5
14820
102
{ACAD_XDICTIONARY
360
1833D
102
}
330
2
100
AcDbSymbolTableRecord
100
AcDbLayerTableRecord
  2
1-5_ビス2
 70
     0
 62
     7
  6
かくれ線
370
    18
390
F
347
182DF
348
0
  0
LAYER
  5
14821
102
{ACAD_XDICTIONARY
360
1833F
102
}
330
2
100
AcDbSymbolTableRecord
100
AcDbLayerTableRecord
  2
1-3_付属
 70
     0
 62
     7
  6
CONTINUOUS
370
    18
390
F
347
182DF
348
0
  0
ENDTAB
  0
TABLE
  2
STYLE
  5
3
330
0
100
AcDbSymbolTable
 70
     4
  0
STYLE
  5
11
330
3
100
AcDbSymbolTableRecord
100
AcDbTextStyleTableRecord
  2
STANDARD
 70
     0
 40
0.0
 41
1.0
 50
0.0
 71
     0
 42
0.2
  3
simplex.shx
  4
bigfont.shx
  0
STYLE
  5
D84A
330
3
100
AcDbSymbolTableRecord
100
AcDbTextStyleTableRecord
  2
明朝
 70
     0
 40
3.0
 41
1.0
 50
0.0
 71
     0
 42
0.2
  3

  4

1001
ACAD
1000
MS Gothic
1071
    32817
  0
STYLE
  5
11A10
330
3
100
AcDbSymbolTableRecord
100
AcDbTextStyleTableRecord
  2
丸ゴシック
 70
     0
 40
3.0
 41
0.5
 50
0.0
 71
     0
 42
0.2
  3
HGRSMP.TTF
  4

1001
ACAD
1000
HGMaruGothicMPRO
1071
    32818
  0
STYLE
  5
12C29
330
3
100
AcDbSymbolTableRecord
100
AcDbTextStyleTableRecord
  2
白抜
 70
     0
 40
3.0
 41
1.0
 50
0.0
 71
     0
 42
0.2
  3
HGPGothicE.ttf
  4

1001
ACAD
1000
HGPGothicE
1071
    32818
  0
ENDTAB
  0
TABLE
  2
VIEW
  5
6
330
0
100
AcDbSymbolTable
 70
     0
  0
ENDTAB
  0
TABLE
  2
UCS
  5
7
330
0
100
AcDbSymbolTable
 70
     0
  0
ENDTAB
  0
TABLE
  2
APPID
  5
9
330
0
100
AcDbSymbolTable
 70
     3
  0
APPID
  5
12
330
9
100
AcDbSymbolTableRecord
100
AcDbRegAppTableRecord
  2
ACAD
 70
     0
  0
APPID
  5
18348
330
9
100
AcDbSymbolTableRecord
100
AcDbRegAppTableRecord
  2
ACAD_NAV_VCDISPLAY
 70
     0
  0
APPID
  5
18362
330
9
100
AcDbSymbolTableRecord
100
AcDbRegAppTableRecord
  2
ACAD_EXEMPT_FROM_CAD_STANDARDS
 70
     0
  0
ENDTAB
  0
TABLE
  2
DIMSTYLE
  5
A
330
0
100
AcDbSymbolTable
 70
     1
100
AcDbDimStyleTable
 71
     1
340
CAD
  0
DIMSTYLE
105
CAD
102
{ACAD_REACTORS
330
174C1
330
174C8
330
174CD
330
174CF
330
174D6
330
174FE
330
17500
330
17501
330
17502
330
1750D
330
1750E
330
1750F
330
175F0
330
175F1
330
175F2
330
175F3
330
175F4
330
175F5
330
175F7
330
175F8
330
175F9
330
175FA
330
175FD
330
175FE
102
}
330
A
100
AcDbSymbolTableRecord
100
AcDbDimStyleTableRecord
  2
ISO-25
 70
     0
 41
1.0
 42
3.0
 43
3.75
 44
1.0
 73
     0
 74
     0
 77
     1
 78
     8
140
3.0
141
1.5
143
0.03937007874016
147
0.625
171
     3
172
     1
176
     3
177
     3
178
     3
271
     2
272
     2
274
     3
283
     0
284
     8
340
D84A
342
91D9
  0
ENDTAB
  0
TABLE
  2
BLOCK_RECORD
  5
1
330
0
100
AcDbSymbolTable
 70
    25
  0
BLOCK_RECORD
  5
1E
102
{ACAD_XDICTIONARY
360
1198
102
}
330
1
100
AcDbSymbolTableRecord
100
AcDbBlockTableRecord
  2
*Model_Space
340
21
 70
     0
280
     1
281
     0
  0
BLOCK_RECORD
  5
1A
102
{ACAD_XDICTIONARY
360
119A
102
}
330
1
100
AcDbSymbolTableRecord
100
AcDbBlockTableRecord
  2
*Paper_Space
340
1D
 70
     0
280
     1
281
     0
  0
BLOCK_RECORD
  5
91D9
330
1
100
AcDbSymbolTableRecord
100
AcDbBlockTableRecord
  2
_Dot
340
0
102
{BLKREFS
331
181E4
331
181E5
331
181F6
331
181F7
331
181FF
331
18200
331
18208
331
18209
331
18213
331
18214
331
1821C
331
1821D
331
18225
331
18226
331
1822E
331
1822F
331
18242
331
18243
331
1824B
331
1824C
331
18254
331
18255
331
1825D
331
1825E
331
18266
331
18267
331
1826F
331
18270
331
18278
331
18279
331
18281
331
18282
331
1828A
331
1828B
331
18293
331
18294
331
1829C
331
1829D
331
182A5
331
182A6
331
182AE
331
182AF
331
182B7
331
182B8
331
18385
331
18386
331
18390
331
18391
102
}
 70
     0
280
     1
281
     0
  0
BLOCK_RECORD
  5
17635
330
1
100
AcDbSymbolTableRecord
100
AcDbBlockTableRecord
  2
*D1
340
0
 70
     0
280
     1
281
     0
  0
BLOCK_RECORD
  5
17641
330
1
100
AcDbSymbolTableRecord
100
AcDbBlockTableRecord
  2
*D2
340
0
 70
     0
280
     1
281
     0
  0
BLOCK_RECORD
  5
1764D
330
1
100
AcDbSymbolTableRecord
100
AcDbBlockTableRecord
  2
*D3
340
0
 70
     0
280
     1
281
     0
  0
BLOCK_RECORD
  5
17659
330
1
100
AcDbSymbolTableRecord
100
AcDbBlockTableRecord
  2
*D4
340
0
 70
     0
280
     1
281
     0
  0
BLOCK_RECORD
  5
17665
330
1
100
AcDbSymbolTableRecord
100
AcDbBlockTableRecord
  2
*D5
340
0
 70
     0
280
     1
281
     0
  0
BLOCK_RECORD
  5
17671
330
1
100
AcDbSymbolTableRecord
100
AcDbBlockTableRecord
  2
*D6
340
0
 70
     0
280
     1
281
     0
  0
BLOCK_RECORD
  5
1767D
330
1
100
AcDbSymbolTableRecord
100
AcDbBlockTableRecord
  2
*D7
340
0
 70
     0
280
     1
281
     0
  0
BLOCK_RECORD
  5
17689
330
1
100
AcDbSymbolTableRecord
100
AcDbBlockTableRecord
  2
*D8
340
0
 70
     0
280
     1
281
     0
  0
BLOCK_RECORD
  5
17695
330
1
100
AcDbSymbolTableRecord
100
AcDbBlockTableRecord
  2
*D9
340
0
 70
     0
280
     1
281
     0
  0
BLOCK_RECORD
  5
176A1
330
1
100
AcDbSymbolTableRecord
100
AcDbBlockTableRecord
  2
*D10
340
0
 70
     0
280
     1
281
     0
  0
BLOCK_RECORD
  5
176AD
330
1
100
AcDbSymbolTableRecord
100
AcDbBlockTableRecord
  2
*D11
340
0
 70
     0
280
     1
281
     0
  0
BLOCK_RECORD
  5
176B9
330
1
100
AcDbSymbolTableRecord
100
AcDbBlockTableRecord
  2
*D12
340
0
 70
     0
280
     1
281
     0
  0
BLOCK_RECORD
  5
176C5
330
1
100
AcDbSymbolTableRecord
100
AcDbBlockTableRecord
  2
*D13
340
0
 70
     0
280
     1
281
     0
  0
BLOCK_RECORD
  5
176D1
330
1
100
AcDbSymbolTableRecord
100
AcDbBlockTableRecord
  2
*D14
340
0
 70
     0
280
     1
281
     0
  0
BLOCK_RECORD
  5
176DD
330
1
100
AcDbSymbolTableRecord
100
AcDbBlockTableRecord
  2
*D15
340
0
 70
     0
280
     1
281
     0
  0
BLOCK_RECORD
  5
176E9
330
1
100
AcDbSymbolTableRecord
100
AcDbBlockTableRecord
  2
*D16
340
0
 70
     0
280
     1
281
     0
  0
BLOCK_RECORD
  5
176F5
330
1
100
AcDbSymbolTableRecord
100
AcDbBlockTableRecord
  2
*D17
340
0
 70
     0
280
     1
281
     0
  0
BLOCK_RECORD
  5
17701
330
1
100
AcDbSymbolTableRecord
100
AcDbBlockTableRecord
  2
*D18
340
0
 70
     0
280
     1
281
     0
  0
BLOCK_RECORD
  5
1770D
330
1
100
AcDbSymbolTableRecord
100
AcDbBlockTableRecord
  2
*D19
340
0
 70
     0
280
     1
281
     0
  0
BLOCK_RECORD
  5
17719
330
1
100
AcDbSymbolTableRecord
100
AcDbBlockTableRecord
  2
*D20
340
0
 70
     0
280
     1
281
     0
  0
BLOCK_RECORD
  5
17727
330
1
100
AcDbSymbolTableRecord
100
AcDbBlockTableRecord
  2
*D21
340
0
 70
     0
280
     1
281
     0
  0
BLOCK_RECORD
  5
17733
330
1
100
AcDbSymbolTableRecord
100
AcDbBlockTableRecord
  2
*D22
340
0
 70
     0
280
     1
281
     0
  0
BLOCK_RECORD
  5
1773F
330
1
100
AcDbSymbolTableRecord
100
AcDbBlockTableRecord
  2
*D23
340
0
 70
     0
280
     1
281
     0
  0
BLOCK_RECORD
  5
1774B
330
1
100
AcDbSymbolTableRecord
100
AcDbBlockTableRecord
  2
*D24
340
0
 70
     0
280
     1
281
     0
  0
ENDTAB
  0
ENDSEC
  0
SECTION
  2
BLOCKS
  0
BLOCK
  5
1F
330
1E
100
AcDbEntity
  8
0
100
AcDbBlockBegin
  2
*Model_Space
 70
     0
 10
0.0
 20
0.0
 30
0.0
  3
*Model_Space
  1

  0
ENDBLK
  5
20
330
1E
100
AcDbEntity
  8
0
100
AcDbBlockEnd
  0
BLOCK
  5
1B
330
1A
100
AcDbEntity
 67
     1
  8
0
100
AcDbBlockBegin
  2
*Paper_Space
 70
     0
 10
0.0
 20
0.0
 30
0.0
  3
*Paper_Space
  1

  0
ENDBLK
  5
1C
330
1A
100
AcDbEntity
 67
     1
  8
0
100
AcDbBlockEnd
  0
BLOCK
  5
91DC
330
91D9
100
AcDbEntity
  8
0
 48
0.5
370
    13
100
AcDbBlockBegin
  2
_Dot
 70
     0
 10
0.0
 20
0.0
 30
0.0
  3
_Dot
  1

  0
LWPOLYLINE
  5
91DA
330
91D9
100
AcDbEntity
  8
0
  6
ByBlock
 62
     0
370
    13
100
AcDbPolyline
 90
        2
 70
     1
 43
0.5
 10
-0.25
 20
0.0
 42
1.0
 10
0.25
 20
0.0
 42
1.0
  0
LINE
  5
91DB
330
91D9
100
AcDbEntity
  8
0
  6
ByBlock
 62
     0
370
    -2
100
AcDbLine
 10
-0.5
 20
0.0
 30
0.0
 11
-1.0
 21
0.0
 31
0.0
  0
ENDBLK
  5
91DD
330
91D9
100
AcDbEntity
  8
0
 48
0.5
370
    13
100
AcDbBlockEnd
  0
BLOCK
  5
1763F
330
17635
100
AcDbEntity
  8
0
 62
     7
 48
0.5
370
    35
100
AcDbBlockBegin
  2
*D1
 70
     1
 10
0.0
 20
0.0
 30
0.0
  3
*D1
  1

  0
LINE
  5
182B4
330
17635
100
AcDbEntity
  8
1-B_寸法
  6
Continuous
 62
     3
440
 16777216
 48
0.5
370
    -2
100
AcDbLine
 10
160.3773260816565
 20
8478.517564288143
 30
0.0
 11
147.3773260816579
 21
8478.517564288143
 31
0.0
  0
LINE
  5
182B5
330
17635
100
AcDbEntity
  8
1-B_寸法
  6
Continuous
 62
     3
440
 16777216
 48
0.5
370
    -2
100
AcDbLine
 10
160.3773260816565
 20
8496.517564288142
 30
0.0
 11
147.3773260816579
 21
8496.517564288142
 31
0.0
  0
LINE
  5
182B6
330
17635
100
AcDbEntity
  8
1-B_寸法
  6
Continuous
 62
     3
440
 16777216
 48
0.5
370
    -2
100
AcDbLine
 10
148.3773260816579
 20
8479.517564288142
 30
0.0
 11
148.3773260816579
 21
8495.517564288142
 31
0.0
  0
INSERT
  5
182B7
330
17635
100
AcDbEntity
  8
1-B_寸法
  6
Continuous
 62
     3
440
 16777216
 48
0.5
370
    -2
100
AcDbBlockReference
  2
_Dot
 10
148.3773260816579
 20
8478.517564288143
 30
0.0
 50
270.0
  0
INSERT
  5
182B8
330
17635
100
AcDbEntity
  8
1-B_寸法
  6
Continuous
 62
     3
440
 16777216
 48
0.5
370
    -2
100
AcDbBlockReference
  2
_Dot
 10
148.3773260816579
 20
8496.517564288142
 30
0.0
 50
90.0
  0
MTEXT
  5
182B9
330
17635
100
AcDbEntity
  8
1-B_寸法
  6
Continuous
 62
     3
440
 16777216
 48
0.5
370
    18
100
AcDbMText
 10
146.2523260816565
 20
8487.517564288143
 30
0.0
 40
3.0
 41
0.0
 46
0.0
 71
     5
 72
     1
  1
18
  7
明朝
 11
0.0000000000000001
 21
1.0
 31
0.0
 73
     1
 44
1.0
  0
POINT
  5
182BA
330
17635
100
AcDbEntity
  8
Defpoints
  6
Continuous
 62
     0
440
 16777216
 48
0.5
370
    35
100
AcDbPoint
 10
163.3773260816565
 20
8478.517564288143
 30
0.0
  0
POINT
  5
182BB
330
17635
100
AcDbEntity
  8
Defpoints
  6
Continuous
 62
     0
440
 16777216
 48
0.5
370
    35
100
AcDbPoint
 10
163.3773260816565
 20
8496.517564288142
 30
0.0
  0
POINT
  5
182BC
330
17635
100
AcDbEntity
  8
Defpoints
  6
Continuous
 62
     0
440
 16777216
 48
0.5
370
    35
100
AcDbPoint
 10
148.3773260816579
 20
8496.517564288142
 30
0.0
  0
ENDBLK
  5
17640
330
17635
100
AcDbEntity
  8
0
 62
     7
 48
0.5
370
    35
100
AcDbBlockEnd
  0
BLOCK
  5
1764B
330
17641
100
AcDbEntity
  8
0
 62
     7
 48
0.5
370
    35
100
AcDbBlockBegin
  2
*D2
 70
     1
 10
0.0
 20
0.0
 30
0.0
  3
*D2
  1

  0
LINE
  5
181F3
330
17641
100
AcDbEntity
  8
1-B_寸法
  6
Continuous
 62
     3
440
 16777216
 48
0.5
370
    -2
100
AcDbLine
 10
160.3773260816565
 20
8468.517564288141
 30
0.0
 11
139.8773260816579
 21
8468.517564288141
 31
0.0
  0
LINE
  5
181F4
330
17641
100
AcDbEntity
  8
1-B_寸法
  6
Continuous
 62
     3
440
 16777216
 48
0.5
370
    -2
100
AcDbLine
 10
160.3773260816565
 20
8620.517564288142
 30
0.0
 11
139.8773260816579
 21
8620.517564288142
 31
0.0
  0
LINE
  5
181F5
330
17641
100
AcDbEntity
  8
1-B_寸法
  6
Continuous
 62
     3
440
 16777216
 48
0.5
370
    -2
100
AcDbLine
 10
140.8773260816579
 20
8469.517564288143
 30
0.0
 11
140.8773260816579
 21
8619.517564288143
 31
0.0
  0
INSERT
  5
181F6
330
17641
100
AcDbEntity
  8
1-B_寸法
  6
Continuous
 62
     3
440
 16777216
 48
0.5
370
    -2
100
AcDbBlockReference
  2
_Dot
 10
140.8773260816579
 20
8468.517564288141
 30
0.0
 50
270.0
  0
INSERT
  5
181F7
330
17641
100
AcDbEntity
  8
1-B_寸法
  6
Continuous
 62
     3
440
 16777216
 48
0.5
370
    -2
100
AcDbBlockReference
  2
_Dot
 10
140.8773260816579
 20
8620.517564288142
 30
0.0
 50
90.0
  0
MTEXT
  5
181F8
330
17641
100
AcDbEntity
  8
1-B_寸法
  6
Continuous
 62
     3
440
 16777216
 48
0.5
370
    18
100
AcDbMText
 10
138.7523260816565
 20
8544.517564288142
 30
0.0
 40
3.0
 41
0.0
 46
0.0
 71
     5
 72
     1
  1
152
  7
明朝
 11
0.0000000000000001
 21
1.0
 31
0.0
 73
     1
 44
1.0
  0
POINT
  5
181F9
330
17641
100
AcDbEntity
  8
Defpoints
  6
Continuous
 62
     0
440
 16777216
 48
0.5
370
    35
100
AcDbPoint
 10
163.3773260816565
 20
8468.517564288141
 30
0.0
  0
POINT
  5
181FA
330
17641
100
AcDbEntity
  8
Defpoints
  6
Continuous
 62
     0
440
 16777216
 48
0.5
370
    35
100
AcDbPoint
 10
163.3773260816565
 20
8620.517564288142
 30
0.0
  0
POINT
  5
181FB
330
17641
100
AcDbEntity
  8
Defpoints
  6
Continuous
 62
     0
440
 16777216
 48
0.5
370
    35
100
AcDbPoint
 10
140.8773260816579
 20
8620.517564288142
 30
0.0
  0
ENDBLK
  5
1764C
330
17641
100
AcDbEntity
  8
0
 62
     7
 48
0.5
370
    35
100
AcDbBlockEnd
  0
BLOCK
  5
17657
330
1764D
100
AcDbEntity
  8
0
 62
     7
 48
0.5
370
    35
100
AcDbBlockBegin
  2
*D3
 70
     1
 10
0.0
 20
0.0
 30
0.0
  3
*D3
  1

  0
LINE
  5
18382
330
1764D
100
AcDbEntity
  8
1-B_寸法
  6
Continuous
 62
     3
440
 16777216
 48
0.5
370
    -2
100
AcDbLine
 10
258.3773260816565
 20
8468.517564288141
 30
0.0
 11
278.8773260816579
 21
8468.517564288141
 31
0.0
  0
LINE
  5
18383
330
1764D
100
AcDbEntity
  8
1-B_寸法
  6
Continuous
 62
     3
440
 16777216
 48
0.5
370
    -2
100
AcDbLine
 10
258.3773260816565
 20
8543.517564288142
 30
0.0
 11
278.8773260816579
 21
8543.517564288142
 31
0.0
  0
LINE
  5
18384
330
1764D
100
AcDbEntity
  8
1-B_寸法
  6
Continuous
 62
     3
440
 16777216
 48
0.5
370
    -2
100
AcDbLine
 10
277.8773260816579
 20
8469.517564288143
 30
0.0
 11
277.8773260816579
 21
8542.517564288143
 31
0.0
  0
INSERT
  5
18385
330
1764D
100
AcDbEntity
  8
1-B_寸法
  6
Continuous
 62
     3
440
 16777216
 48
0.5
370
    -2
100
AcDbBlockReference
  2
_Dot
 10
277.8773260816579
 20
8468.517564288141
 30
0.0
 50
270.0
  0
INSERT
  5
18386
330
1764D
100
AcDbEntity
  8
1-B_寸法
  6
Continuous
 62
     3
440
 16777216
 48
0.5
370
    -2
100
AcDbBlockReference
  2
_Dot
 10
277.8773260816579
 20
8543.517564288142
 30
0.0
 50
90.0
  0
MTEXT
  5
18387
330
1764D
100
AcDbEntity
  8
1-B_寸法
  6
Continuous
 62
     3
440
 16777216
 48
0.5
370
    18
100
AcDbMText
 10
275.7523260816565
 20
8506.517564288143
 30
0.0
 40
3.0
 41
0.0
 46
0.0
 71
     5
 72
     1
  1
75
  7
明朝
 11
0.0000000000000001
 21
1.0
 31
0.0
 73
     1
 44
1.0
  0
POINT
  5
18388
330
1764D
100
AcDbEntity
  8
Defpoints
  6
Continuous
 62
     0
440
 16777216
 48
0.5
370
    35
100
AcDbPoint
 10
255.3773260816565
 20
8468.517564288141
 30
0.0
  0
POINT
  5
18389
330
1764D
100
AcDbEntity
  8
Defpoints
  6
Continuous
 62
     0
440
 16777216
 48
0.5
370
    35
100
AcDbPoint
 10
255.3773260816565
 20
8543.517564288142
 30
0.0
  0
POINT
  5
1838A
330
1764D
100
AcDbEntity
  8
Defpoints
  6
Continuous
 62
     0
440
 16777216
 48
0.5
370
    35
100
AcDbPoint
 10
277.8773260816579
 20
8543.517564288142
 30
0.0
  0
ENDBLK
  5
17658
330
1764D
100
AcDbEntity
  8
0
 62
     7
 48
0.5
370
    35
100
AcDbBlockEnd
  0
BLOCK
  5
17663
330
17659
100
AcDbEntity
  8
0
 62
     7
 48
0.5
370
    35
100
AcDbBlockBegin
  2
*D4
 70
     1
 10
0.0
 20
0.0
 30
0.0
  3
*D4
  1

  0
LINE
  5
181E1
330
17659
100
AcDbEntity
  8
1-B_寸法
  6
Continuous
 62
     3
440
 16777216
 48
0.5
370
    -2
100
AcDbLine
 10
160.3773260816565
 20
8468.517564288141
 30
0.0
 11
147.3773260816579
 21
8468.517564288141
 31
0.0
  0
LINE
  5
181E2
330
17659
100
AcDbEntity
  8
1-B_寸法
  6
Continuous
 62
     3
440
 16777216
 48
0.5
370
    -2
100
AcDbLine
 10
160.3773260816565
 20
8478.517564288143
 30
0.0
 11
147.3773260816579
 21
8478.517564288143
 31
0.0
  0
LINE
  5
181E3
330
17659
100
AcDbEntity
  8
1-B_寸法
  6
Continuous
 62
     3
440
 16777216
 48
0.5
370
    -2
100
AcDbLine
 10
148.3773260816579
 20
8469.517564288143
 30
0.0
 11
148.3773260816579
 21
8477.517564288142
 31
0.0
  0
INSERT
  5
181E4
330
17659
100
AcDbEntity
  8
1-B_寸法
  6
Continuous
 62
     3
440
 16777216
 48
0.5
370
    -2
100
AcDbBlockReference
  2
_Dot
 10
148.3773260816579
 20
8468.517564288141
 30
0.0
 50
270.0
  0
INSERT
  5
181E5
330
17659
100
AcDbEntity
  8
1-B_寸法
  6
Continuous
 62
     3
440
 16777216
 48
0.5
370
    -2
100
AcDbBlockReference
  2
_Dot
 10
148.3773260816579
 20
8478.517564288143
 30
0.0
 50
90.0
  0
MTEXT
  5
181E6
330
17659
100
AcDbEntity
  8
1-B_寸法
  6
Continuous
 62
     3
440
 16777216
 48
0.5
370
    18
100
AcDbMText
 10
146.2523260816565
 20
8473.517564288142
 30
0.0
 40
3.0
 41
0.0
 46
0.0
 71
     5
 72
     1
  1
10
  7
明朝
 11
0.0000000000000001
 21
1.0
 31
0.0
 73
     1
 44
1.0
  0
POINT
  5
181E7
330
17659
100
AcDbEntity
  8
Defpoints
  6
Continuous
 62
     0
440
 16777216
 48
0.5
370
    35
100
AcDbPoint
 10
163.3773260816565
 20
8468.517564288141
 30
0.0
  0
POINT
  5
181E8
330
17659
100
AcDbEntity
  8
Defpoints
  6
Continuous
 62
     0
440
 16777216
 48
0.5
370
    35
100
AcDbPoint
 10
163.3773260816565
 20
8478.517564288143
 30
0.0
  0
POINT
  5
181E9
330
17659
100
AcDbEntity
  8
Defpoints
  6
Continuous
 62
     0
440
 16777216
 48
0.5
370
    35
100
AcDbPoint
 10
148.3773260816579
 20
8478.517564288143
 30
0.0
  0
ENDBLK
  5
17664
330
17659
100
AcDbEntity
  8
0
 62
     7
 48
0.5
370
    35
100
AcDbBlockEnd
  0
BLOCK
  5
1766F
330
17665
100
AcDbEntity
  8
0
 62
     7
 48
0.5
370
    35
100
AcDbBlockBegin
  2
*D5
 70
     1
 10
0.0
 20
0.0
 30
0.0
  3
*D5
  1

  0
LINE
  5
18205
330
17665
100
AcDbEntity
  8
1-B_寸法
  6
Continuous
 62
     3
440
 16777216
 48
0.5
370
    -2
100
AcDbLine
 10
172.3773311587483
 20
8465.517564288141
 30
0.0
 11
172.3773311587483
 21
8456.267564288143
 31
0.0
  0
LINE
  5
18206
330
17665
100
AcDbEntity
  8
1-B_寸法
  6
Continuous
 62
     3
440
 16777216
 48
0.5
370
    -2
100
AcDbLine
 10
178.3773311584118
 20
8465.51756428858
 30
0.0
 11
178.3773311584118
 21
8456.267564288143
 31
0.0
  0
LINE
  5
18207
330
17665
100
AcDbEntity
  8
1-B_寸法
  6
Continuous
 62
     3
440
 16777216
 48
0.5
370
    -2
100
AcDbLine
 10
173.3773311587483
 20
8457.267564288143
 30
0.0
 11
177.3773311584118
 21
8457.267564288143
 31
0.0
  0
INSERT
  5
18208
330
17665
100
AcDbEntity
  8
1-B_寸法
  6
Continuous
 62
     3
440
 16777216
 48
0.5
370
    -2
100
AcDbBlockReference
  2
_Dot
 10
172.3773311587483
 20
8457.267564288143
 30
0.0
 50
180.0
  0
INSERT
  5
18209
330
17665
100
AcDbEntity
  8
1-B_寸法
  6
Continuous
 62
     3
440
 16777216
 48
0.5
370
    -2
100
AcDbBlockReference
  2
_Dot
 10
178.3773311584118
 20
8457.267564288143
 30
0.0
  0
MTEXT
  5
1820A
330
17665
100
AcDbEntity
  8
1-B_寸法
  6
Continuous
 62
     3
440
 16777216
 48
0.5
370
    18
100
AcDbMText
 10
175.3770610816573
 20
8459.392564288142
 30
0.0
 40
3.0
 41
0.0
 46
0.0
 71
     5
 72
     1
  1
6
  7
明朝
 73
     1
 44
1.0
  0
POINT
  5
1820B
330
17665
100
AcDbEntity
  8
Defpoints
  6
Continuous
 62
     0
440
 16777216
 48
0.5
370
    35
100
AcDbPoint
 10
172.3773311587483
 20
8468.517564288141
 30
0.0
  0
POINT
  5
1820C
330
17665
100
AcDbEntity
  8
Defpoints
  6
Continuous
 62
     0
440
 16777216
 48
0.5
370
    35
100
AcDbPoint
 10
178.3773311584118
 20
8468.51756428858
 30
0.0
  0
POINT
  5
1820D
330
17665
100
AcDbEntity
  8
Defpoints
  6
Continuous
 62
     0
440
 16777216
 48
0.5
370
    35
100
AcDbPoint
 10
178.3773311584118
 20
8457.267564288143
 30
0.0
  0
ENDBLK
  5
17670
330
17665
100
AcDbEntity
  8
0
 62
     7
 48
0.5
370
    35
100
AcDbBlockEnd
  0
BLOCK
  5
1767B
330
17671
100
AcDbEntity
  8
0
 62
     7
 48
0.5
370
    35
100
AcDbBlockBegin
  2
*D6
 70
     1
 10
0.0
 20
0.0
 30
0.0
  3
*D6
  1

  0
LINE
  5
181FC
330
17671
100
AcDbEntity
  8
1-B_寸法
  6
Continuous
 62
     3
440
 16777216
 48
0.5
370
    -2
100
AcDbLine
 10
163.3773260816565
 20
8465.517564288141
 30
0.0
 11
163.3773260816565
 21
8448.767564288143
 31
0.0
  0
LINE
  5
181FD
330
17671
100
AcDbEntity
  8
1-B_寸法
  6
Continuous
 62
     3
440
 16777216
 48
0.5
370
    -2
100
AcDbLine
 10
187.3773260816565
 20
8465.517564288141
 30
0.0
 11
187.3773260816565
 21
8448.767564288143
 31
0.0
  0
LINE
  5
181FE
330
17671
100
AcDbEntity
  8
1-B_寸法
  6
Continuous
 62
     3
440
 16777216
 48
0.5
370
    -2
100
AcDbLine
 10
164.3773260816565
 20
8449.767564288142
 30
0.0
 11
186.3773260816565
 21
8449.767564288142
 31
0.0
  0
INSERT
  5
181FF
330
17671
100
AcDbEntity
  8
1-B_寸法
  6
Continuous
 62
     3
440
 16777216
 48
0.5
370
    -2
100
AcDbBlockReference
  2
_Dot
 10
163.3773260816565
 20
8449.767564288142
 30
0.0
 50
180.0
  0
INSERT
  5
18200
330
17671
100
AcDbEntity
  8
1-B_寸法
  6
Continuous
 62
     3
440
 16777216
 48
0.5
370
    -2
100
AcDbBlockReference
  2
_Dot
 10
187.3773260816565
 20
8449.767564288142
 30
0.0
  0
MTEXT
  5
18201
330
17671
100
AcDbEntity
  8
1-B_寸法
  6
Continuous
 62
     3
440
 16777216
 48
0.5
370
    18
100
AcDbMText
 10
175.3773260816565
 20
8451.892564288142
 30
0.0
 40
3.0
 41
0.0
 46
0.0
 71
     5
 72
     1
  1
24
  7
明朝
 73
     1
 44
1.0
  0
POINT
  5
18202
330
17671
100
AcDbEntity
  8
Defpoints
  6
Continuous
 62
     0
440
 16777216
 48
0.5
370
    35
100
AcDbPoint
 10
163.3773260816565
 20
8468.517564288141
 30
0.0
  0
POINT
  5
18203
330
17671
100
AcDbEntity
  8
Defpoints
  6
Continuous
 62
     0
440
 16777216
 48
0.5
370
    35
100
AcDbPoint
 10
187.3773260816565
 20
8468.517564288141
 30
0.0
  0
POINT
  5
18204
330
17671
100
AcDbEntity
  8
Defpoints
  6
Continuous
 62
     0
440
 16777216
 48
0.5
370
    35
100
AcDbPoint
 10
187.3773260816565
 20
8449.767564288142
 30
0.0
  0
ENDBLK
  5
1767C
330
17671
100
AcDbEntity
  8
0
 62
     7
 48
0.5
370
    35
100
AcDbBlockEnd
  0
BLOCK
  5
17687
330
1767D
100
AcDbEntity
  8
0
 62
     7
 48
0.5
370
    35
100
AcDbBlockBegin
  2
*D7
 70
     1
 10
0.0
 20
0.0
 30
0.0
  3
*D7
  1

  0
LINE
  5
182AB
330
1767D
100
AcDbEntity
  8
1-B_寸法
  6
Continuous
 62
     3
440
 16777216
 48
0.5
370
    -2
100
AcDbLine
 10
160.3773260816565
 20
8496.517564288142
 30
0.0
 11
147.3773260816579
 21
8496.517564288142
 31
0.0
  0
LINE
  5
182AC
330
1767D
100
AcDbEntity
  8
1-B_寸法
  6
Continuous
 62
     3
440
 16777216
 48
0.5
370
    -2
100
AcDbLine
 10
160.3773260816565
 20
8585.517564288142
 30
0.0
 11
147.3773260816579
 21
8585.517564288142
 31
0.0
  0
LINE
  5
182AD
330
1767D
100
AcDbEntity
  8
1-B_寸法
  6
Continuous
 62
     3
440
 16777216
 48
0.5
370
    -2
100
AcDbLine
 10
148.3773260816579
 20
8497.517564288143
 30
0.0
 11
148.3773260816579
 21
8584.517564288143
 31
0.0
  0
INSERT
  5
182AE
330
1767D
100
AcDbEntity
  8
1-B_寸法
  6
Continuous
 62
     3
440
 16777216
 48
0.5
370
    -2
100
AcDbBlockReference
  2
_Dot
 10
148.3773260816579
 20
8496.517564288142
 30
0.0
 50
270.0
  0
INSERT
  5
182AF
330
1767D
100
AcDbEntity
  8
1-B_寸法
  6
Continuous
 62
     3
440
 16777216
 48
0.5
370
    -2
100
AcDbBlockReference
  2
_Dot
 10
148.3773260816579
 20
8585.517564288142
 30
0.0
 50
90.0
  0
MTEXT
  5
182B0
330
1767D
100
AcDbEntity
  8
1-B_寸法
  6
Continuous
 62
     3
440
 16777216
 48
0.5
370
    18
100
AcDbMText
 10
146.2523260816565
 20
8541.017564288143
 30
0.0
 40
3.0
 41
0.0
 46
0.0
 71
     5
 72
     1
  1
89
  7
明朝
 11
0.0000000000000001
 21
1.0
 31
0.0
 73
     1
 44
1.0
  0
POINT
  5
182B1
330
1767D
100
AcDbEntity
  8
Defpoints
  6
Continuous
 62
     0
440
 16777216
 48
0.5
370
    35
100
AcDbPoint
 10
163.3773260816565
 20
8496.517564288142
 30
0.0
  0
POINT
  5
182B2
330
1767D
100
AcDbEntity
  8
Defpoints
  6
Continuous
 62
     0
440
 16777216
 48
0.5
370
    35
100
AcDbPoint
 10
163.3773260816565
 20
8585.517564288142
 30
0.0
  0
POINT
  5
182B3
330
1767D
100
AcDbEntity
  8
Defpoints
  6
Continuous
 62
     0
440
 16777216
 48
0.5
370
    35
100
AcDbPoint
 10
148.3773260816579
 20
8585.517564288142
 30
0.0
  0
ENDBLK
  5
17688
330
1767D
100
AcDbEntity
  8
0
 62
     7
 48
0.5
370
    35
100
AcDbBlockEnd
  0
BLOCK
  5
17693
330
17689
100
AcDbEntity
  8
0
 62
     7
 48
0.5
370
    35
100
AcDbBlockBegin
  2
*D8
 70
     1
 10
0.0
 20
0.0
 30
0.0
  3
*D8
  1

  0
LINE
  5
182A2
330
17689
100
AcDbEntity
  8
1-B_寸法
  6
Continuous
 62
     3
440
 16777216
 48
0.5
370
    -2
100
AcDbLine
 10
160.3773260816565
 20
8610.517564288143
 30
0.0
 11
147.3773260816579
 21
8610.517564288143
 31
0.0
  0
LINE
  5
182A3
330
17689
100
AcDbEntity
  8
1-B_寸法
  6
Continuous
 62
     3
440
 16777216
 48
0.5
370
    -2
100
AcDbLine
 10
160.3773260816565
 20
8620.517564288142
 30
0.0
 11
147.3773260816579
 21
8620.517564288142
 31
0.0
  0
LINE
  5
182A4
330
17689
100
AcDbEntity
  8
1-B_寸法
  6
Continuous
 62
     3
440
 16777216
 48
0.5
370
    -2
100
AcDbLine
 10
148.3773260816579
 20
8611.517564288142
 30
0.0
 11
148.3773260816579
 21
8619.517564288143
 31
0.0
  0
INSERT
  5
182A5
330
17689
100
AcDbEntity
  8
1-B_寸法
  6
Continuous
 62
     3
440
 16777216
 48
0.5
370
    -2
100
AcDbBlockReference
  2
_Dot
 10
148.3773260816579
 20
8610.517564288143
 30
0.0
 50
270.0
  0
INSERT
  5
182A6
330
17689
100
AcDbEntity
  8
1-B_寸法
  6
Continuous
 62
     3
440
 16777216
 48
0.5
370
    -2
100
AcDbBlockReference
  2
_Dot
 10
148.3773260816579
 20
8620.517564288142
 30
0.0
 50
90.0
  0
MTEXT
  5
182A7
330
17689
100
AcDbEntity
  8
1-B_寸法
  6
Continuous
 62
     3
440
 16777216
 48
0.5
370
    18
100
AcDbMText
 10
146.2523260816565
 20
8615.517564288142
 30
0.0
 40
3.0
 41
0.0
 46
0.0
 71
     5
 72
     1
  1
10
  7
明朝
 11
0.0000000000000001
 21
1.0
 31
0.0
 73
     1
 44
1.0
  0
POINT
  5
182A8
330
17689
100
AcDbEntity
  8
Defpoints
  6
Continuous
 62
     0
440
 16777216
 48
0.5
370
    35
100
AcDbPoint
 10
163.3773260816565
 20
8610.517564288143
 30
0.0
  0
POINT
  5
182A9
330
17689
100
AcDbEntity
  8
Defpoints
  6
Continuous
 62
     0
440
 16777216
 48
0.5
370
    35
100
AcDbPoint
 10
163.3773260816565
 20
8620.517564288142
 30
0.0
  0
POINT
  5
182AA
330
17689
100
AcDbEntity
  8
Defpoints
  6
Continuous
 62
     0
440
 16777216
 48
0.5
370
    35
100
AcDbPoint
 10
148.3773260816579
 20
8620.517564288142
 30
0.0
  0
ENDBLK
  5
17694
330
17689
100
AcDbEntity
  8
0
 62
     7
 48
0.5
370
    35
100
AcDbBlockEnd
  0
BLOCK
  5
1769F
330
17695
100
AcDbEntity
  8
0
 62
     7
 48
0.5
370
    35
100
AcDbBlockBegin
  2
*D9
 70
     1
 10
0.0
 20
0.0
 30
0.0
  3
*D9
  1

  0
LINE
  5
18299
330
17695
100
AcDbEntity
  8
1-B_寸法
  6
Continuous
 62
     3
440
 16777216
 48
0.5
370
    -2
100
AcDbLine
 10
160.3773260816565
 20
8610.517564288143
 30
0.0
 11
147.3773260816579
 21
8610.517564288143
 31
0.0
  0
LINE
  5
1829A
330
17695
100
AcDbEntity
  8
1-B_寸法
  6
Continuous
 62
     3
440
 16777216
 48
0.5
370
    -2
100
AcDbLine
 10
160.3773260816565
 20
8585.517564288142
 30
0.0
 11
147.3773260816579
 21
8585.517564288142
 31
0.0
  0
LINE
  5
1829B
330
17695
100
AcDbEntity
  8
1-B_寸法
  6
Continuous
 62
     3
440
 16777216
 48
0.5
370
    -2
100
AcDbLine
 10
148.3773260816579
 20
8609.517564288143
 30
0.0
 11
148.3773260816579
 21
8586.517564288142
 31
0.0
  0
INSERT
  5
1829C
330
17695
100
AcDbEntity
  8
1-B_寸法
  6
Continuous
 62
     3
440
 16777216
 48
0.5
370
    -2
100
AcDbBlockReference
  2
_Dot
 10
148.3773260816579
 20
8610.517564288143
 30
0.0
 50
90.0
  0
INSERT
  5
1829D
330
17695
100
AcDbEntity
  8
1-B_寸法
  6
Continuous
 62
     3
440
 16777216
 48
0.5
370
    -2
100
AcDbBlockReference
  2
_Dot
 10
148.3773260816579
 20
8585.517564288142
 30
0.0
 50
270.0
  0
MTEXT
  5
1829E
330
17695
100
AcDbEntity
  8
1-B_寸法
  6
Continuous
 62
     3
440
 16777216
 48
0.5
370
    18
100
AcDbMText
 10
146.2523260816565
 20
8598.017564288142
 30
0.0
 40
3.0
 41
0.0
 46
0.0
 71
     5
 72
     1
  1
25
  7
明朝
 11
0.0000000000000001
 21
1.0
 31
0.0
 73
     1
 44
1.0
  0
POINT
  5
1829F
330
17695
100
AcDbEntity
  8
Defpoints
  6
Continuous
 62
     0
440
 16777216
 48
0.5
370
    35
100
AcDbPoint
 10
163.3773260816565
 20
8610.517564288143
 30
0.0
  0
POINT
  5
182A0
330
17695
100
AcDbEntity
  8
Defpoints
  6
Continuous
 62
     0
440
 16777216
 48
0.5
370
    35
100
AcDbPoint
 10
163.3773260816565
 20
8585.517564288142
 30
0.0
  0
POINT
  5
182A1
330
17695
100
AcDbEntity
  8
Defpoints
  6
Continuous
 62
     0
440
 16777216
 48
0.5
370
    35
100
AcDbPoint
 10
148.3773260816579
 20
8585.517564288142
 30
0.0
  0
ENDBLK
  5
176A0
330
17695
100
AcDbEntity
  8
0
 62
     7
 48
0.5
370
    35
100
AcDbBlockEnd
  0
BLOCK
  5
176AB
330
176A1
100
AcDbEntity
  8
0
 62
     7
 48
0.5
370
    35
100
AcDbBlockBegin
  2
*D10
 70
     1
 10
0.0
 20
0.0
 30
0.0
  3
*D10
  1

  0
LINE
  5
18290
330
176A1
100
AcDbEntity
  8
1-B_寸法
  6
Continuous
 62
     3
440
 16777216
 48
0.5
370
    -2
100
AcDbLine
 10
258.3773260816565
 20
8545.517564288143
 30
0.0
 11
271.3773260816579
 21
8545.517564288143
 31
0.0
  0
LINE
  5
18291
330
176A1
100
AcDbEntity
  8
1-B_寸法
  6
Continuous
 62
     3
440
 16777216
 48
0.5
370
    -2
100
AcDbLine
 10
258.3773260233306
 20
8555.516660643311
 30
0.0
 11
271.3773260816579
 21
8555.516660643311
 31
0.0
  0
LINE
  5
18292
330
176A1
100
AcDbEntity
  8
1-B_寸法
  6
Continuous
 62
     3
440
 16777216
 48
0.5
370
    -2
100
AcDbLine
 10
270.3773260816579
 20
8546.517564288143
 30
0.0
 11
270.3773260816579
 21
8554.516660643313
 31
0.0
  0
INSERT
  5
18293
330
176A1
100
AcDbEntity
  8
1-B_寸法
  6
Continuous
 62
     3
440
 16777216
 48
0.5
370
    -2
100
AcDbBlockReference
  2
_Dot
 10
270.3773260816579
 20
8545.517564288143
 30
0.0
 50
270.0
  0
INSERT
  5
18294
330
176A1
100
AcDbEntity
  8
1-B_寸法
  6
Continuous
 62
     3
440
 16777216
 48
0.5
370
    -2
100
AcDbBlockReference
  2
_Dot
 10
270.3773260816579
 20
8555.516660643311
 30
0.0
 50
90.0
  0
MTEXT
  5
18295
330
176A1
100
AcDbEntity
  8
1-B_寸法
  6
Continuous
 62
     3
440
 16777216
 48
0.5
370
    18
100
AcDbMText
 10
268.2523260816565
 20
8550.517112465726
 30
0.0
 40
3.0
 41
0.0
 46
0.0
 71
     5
 72
     1
  1
10
  7
明朝
 11
0.0000000000000001
 21
1.0
 31
0.0
 73
     1
 44
1.0
  0
POINT
  5
18296
330
176A1
100
AcDbEntity
  8
Defpoints
  6
Continuous
 62
     0
440
 16777216
 48
0.5
370
    35
100
AcDbPoint
 10
255.3773260816565
 20
8545.517564288143
 30
0.0
  0
POINT
  5
18297
330
176A1
100
AcDbEntity
  8
Defpoints
  6
Continuous
 62
     0
440
 16777216
 48
0.5
370
    35
100
AcDbPoint
 10
255.3773260233306
 20
8555.516660643311
 30
0.0
  0
POINT
  5
18298
330
176A1
100
AcDbEntity
  8
Defpoints
  6
Continuous
 62
     0
440
 16777216
 48
0.5
370
    35
100
AcDbPoint
 10
270.3773260816579
 20
8555.516660643311
 30
0.0
  0
ENDBLK
  5
176AC
330
176A1
100
AcDbEntity
  8
0
 62
     7
 48
0.5
370
    35
100
AcDbBlockEnd
  0
BLOCK
  5
176B7
330
176AD
100
AcDbEntity
  8
0
 62
     7
 48
0.5
370
    35
100
AcDbBlockBegin
  2
*D11
 70
     1
 10
0.0
 20
0.0
 30
0.0
  3
*D11
  1

  0
LINE
  5
18287
330
176AD
100
AcDbEntity
  8
1-B_寸法
  6
Continuous
 62
     3
440
 16777216
 48
0.5
370
    -2
100
AcDbLine
 10
258.3773260233306
 20
8610.515756998482
 30
0.0
 11
271.377326081658
 21
8610.515756998482
 31
0.0
  0
LINE
  5
18288
330
176AD
100
AcDbEntity
  8
1-B_寸法
  6
Continuous
 62
     3
440
 16777216
 48
0.5
370
    -2
100
AcDbLine
 10
258.3773260233306
 20
8555.516660643311
 30
0.0
 11
271.3773260816579
 21
8555.516660643311
 31
0.0
  0
LINE
  5
18289
330
176AD
100
AcDbEntity
  8
1-B_寸法
  6
Continuous
 62
     3
440
 16777216
 48
0.5
370
    -2
100
AcDbLine
 10
270.3773260816579
 20
8609.515756998481
 30
0.0
 11
270.3773260816579
 21
8556.516660643312
 31
0.0
  0
INSERT
  5
1828A
330
176AD
100
AcDbEntity
  8
1-B_寸法
  6
Continuous
 62
     3
440
 16777216
 48
0.5
370
    -2
100
AcDbBlockReference
  2
_Dot
 10
270.3773260816579
 20
8610.515756998482
 30
0.0
 50
90.0
  0
INSERT
  5
1828B
330
176AD
100
AcDbEntity
  8
1-B_寸法
  6
Continuous
 62
     3
440
 16777216
 48
0.5
370
    -2
100
AcDbBlockReference
  2
_Dot
 10
270.3773260816579
 20
8555.516660643311
 30
0.0
 50
270.0
  0
MTEXT
  5
1828C
330
176AD
100
AcDbEntity
  8
1-B_寸法
  6
Continuous
 62
     3
440
 16777216
 48
0.5
370
    18
100
AcDbMText
 10
268.2523260816565
 20
8583.016208820898
 30
0.0
 40
3.0
 41
0.0
 46
0.0
 71
     5
 72
     1
  1
55
  7
明朝
 11
0.0000000000000001
 21
1.0
 31
0.0
 73
     1
 44
1.0
  0
POINT
  5
1828D
330
176AD
100
AcDbEntity
  8
Defpoints
  6
Continuous
 62
     0
440
 16777216
 48
0.5
370
    35
100
AcDbPoint
 10
255.3773260233306
 20
8610.515756998482
 30
0.0
  0
POINT
  5
1828E
330
176AD
100
AcDbEntity
  8
Defpoints
  6
Continuous
 62
     0
440
 16777216
 48
0.5
370
    35
100
AcDbPoint
 10
255.3773260233306
 20
8555.516660643311
 30
0.0
  0
POINT
  5
1828F
330
176AD
100
AcDbEntity
  8
Defpoints
  6
Continuous
 62
     0
440
 16777216
 48
0.5
370
    35
100
AcDbPoint
 10
270.3773260816579
 20
8555.516660643311
 30
0.0
  0
ENDBLK
  5
176B8
330
176AD
100
AcDbEntity
  8
0
 62
     7
 48
0.5
370
    35
100
AcDbBlockEnd
  0
BLOCK
  5
176C3
330
176B9
100
AcDbEntity
  8
0
 62
     7
 48
0.5
370
    35
100
AcDbBlockBegin
  2
*D12
 70
     1
 10
0.0
 20
0.0
 30
0.0
  3
*D12
  1

  0
LINE
  5
1827E
330
176B9
100
AcDbEntity
  8
1-B_寸法
  6
Continuous
 62
     3
440
 16777216
 48
0.5
370
    -2
100
AcDbLine
 10
258.3773260233306
 20
8610.515756998482
 30
0.0
 11
271.377326081658
 21
8610.515756998482
 31
0.0
  0
LINE
  5
1827F
330
176B9
100
AcDbEntity
  8
1-B_寸法
  6
Continuous
 62
     3
440
 16777216
 48
0.5
370
    -2
100
AcDbLine
 10
258.3773260233306
 20
8620.517564288142
 30
0.0
 11
271.377326081658
 21
8620.517564288142
 31
0.0
  0
LINE
  5
18280
330
176B9
100
AcDbEntity
  8
1-B_寸法
  6
Continuous
 62
     3
440
 16777216
 48
0.5
370
    -2
100
AcDbLine
 10
270.3773260816579
 20
8611.515756998482
 30
0.0
 11
270.3773260816579
 21
8619.517564288143
 31
0.0
  0
INSERT
  5
18281
330
176B9
100
AcDbEntity
  8
1-B_寸法
  6
Continuous
 62
     3
440
 16777216
 48
0.5
370
    -2
100
AcDbBlockReference
  2
_Dot
 10
270.3773260816579
 20
8610.515756998482
 30
0.0
 50
270.0
  0
INSERT
  5
18282
330
176B9
100
AcDbEntity
  8
1-B_寸法
  6
Continuous
 62
     3
440
 16777216
 48
0.5
370
    -2
100
AcDbBlockReference
  2
_Dot
 10
270.3773260816579
 20
8620.517564288142
 30
0.0
 50
90.0
  0
MTEXT
  5
18283
330
176B9
100
AcDbEntity
  8
1-B_寸法
  6
Continuous
 62
     3
440
 16777216
 48
0.5
370
    18
100
AcDbMText
 10
268.2523260816565
 20
8615.516660643313
 30
0.0
 40
3.0
 41
0.0
 46
0.0
 71
     5
 72
     1
  1
10
  7
明朝
 11
0.0000000000000001
 21
1.0
 31
0.0
 73
     1
 44
1.0
  0
POINT
  5
18284
330
176B9
100
AcDbEntity
  8
Defpoints
  6
Continuous
 62
     0
440
 16777216
 48
0.5
370
    35
100
AcDbPoint
 10
255.3773260233306
 20
8610.515756998482
 30
0.0
  0
POINT
  5
18285
330
176B9
100
AcDbEntity
  8
Defpoints
  6
Continuous
 62
     0
440
 16777216
 48
0.5
370
    35
100
AcDbPoint
 10
255.3773260233306
 20
8620.517564288142
 30
0.0
  0
POINT
  5
18286
330
176B9
100
AcDbEntity
  8
Defpoints
  6
Continuous
 62
     0
440
 16777216
 48
0.5
370
    35
100
AcDbPoint
 10
270.3773260816579
 20
8620.517564288142
 30
0.0
  0
ENDBLK
  5
176C4
330
176B9
100
AcDbEntity
  8
0
 62
     7
 48
0.5
370
    35
100
AcDbBlockEnd
  0
BLOCK
  5
176CF
330
176C5
100
AcDbEntity
  8
0
 62
     7
 48
0.5
370
    35
100
AcDbBlockBegin
  2
*D13
 70
     1
 10
0.0
 20
0.0
 30
0.0
  3
*D13
  1

  0
LINE
  5
18275
330
176C5
100
AcDbEntity
  8
1-B_寸法
  6
Continuous
 62
     3
440
 16777216
 48
0.5
370
    -2
100
AcDbLine
 10
342.3773260816552
 20
8530.517564288141
 30
0.0
 11
342.3773260816552
 21
8520.017564288142
 31
0.0
  0
LINE
  5
18276
330
176C5
100
AcDbEntity
  8
1-B_寸法
  6
Continuous
 62
     3
440
 16777216
 48
0.5
370
    -2
100
AcDbLine
 10
382.3773260816551
 20
8542.517564288143
 30
0.0
 11
382.3773260816551
 21
8520.017564288142
 31
0.0
  0
LINE
  5
18277
330
176C5
100
AcDbEntity
  8
1-B_寸法
  6
Continuous
 62
     3
440
 16777216
 48
0.5
370
    -2
100
AcDbLine
 10
343.3773260816551
 20
8521.017564288142
 30
0.0
 11
381.3773260816552
 21
8521.017564288142
 31
0.0
  0
INSERT
  5
18278
330
176C5
100
AcDbEntity
  8
1-B_寸法
  6
Continuous
 62
     3
440
 16777216
 48
0.5
370
    -2
100
AcDbBlockReference
  2
_Dot
 10
342.3773260816552
 20
8521.017564288142
 30
0.0
 50
180.0
  0
INSERT
  5
18279
330
176C5
100
AcDbEntity
  8
1-B_寸法
  6
Continuous
 62
     3
440
 16777216
 48
0.5
370
    -2
100
AcDbBlockReference
  2
_Dot
 10
382.3773260816551
 20
8521.017564288142
 30
0.0
  0
MTEXT
  5
1827A
330
176C5
100
AcDbEntity
  8
1-B_寸法
  6
Continuous
 62
     3
440
 16777216
 48
0.5
370
    18
100
AcDbMText
 10
362.3773260816552
 20
8523.142564288141
 30
0.0
 40
3.0
 41
0.0
 46
0.0
 71
     5
 72
     1
  1
40
  7
明朝
 73
     1
 44
1.0
  0
POINT
  5
1827B
330
176C5
100
AcDbEntity
  8
Defpoints
  6
Continuous
 62
     0
440
 16777216
 48
0.5
370
    35
100
AcDbPoint
 10
342.3773260816552
 20
8533.517564288141
 30
0.0
  0
POINT
  5
1827C
330
176C5
100
AcDbEntity
  8
Defpoints
  6
Continuous
 62
     0
440
 16777216
 48
0.5
370
    35
100
AcDbPoint
 10
382.3773260816551
 20
8545.517564288143
 30
0.0
  0
POINT
  5
1827D
330
176C5
100
AcDbEntity
  8
Defpoints
  6
Continuous
 62
     0
440
 16777216
 48
0.5
370
    35
100
AcDbPoint
 10
382.3773260816551
 20
8521.017564288142
 30
0.0
  0
ENDBLK
  5
176D0
330
176C5
100
AcDbEntity
  8
0
 62
     7
 48
0.5
370
    35
100
AcDbBlockEnd
  0
BLOCK
  5
176DB
330
176D1
100
AcDbEntity
  8
0
 62
     7
 48
0.5
370
    35
100
AcDbBlockBegin
  2
*D14
 70
     1
 10
0.0
 20
0.0
 30
0.0
  3
*D14
  1

  0
LINE
  5
1826C
330
176D1
100
AcDbEntity
  8
1-B_寸法
  6
Continuous
 62
     3
440
 16777216
 48
0.5
370
    -2
100
AcDbLine
 10
382.3773260816551
 20
8542.517564288143
 30
0.0
 11
382.3773260816551
 21
8520.017564288142
 31
0.0
  0
LINE
  5
1826D
330
176D1
100
AcDbEntity
  8
1-B_寸法
  6
Continuous
 62
     3
440
 16777216
 48
0.5
370
    -2
100
AcDbLine
 10
412.3773260816551
 20
8542.517564288143
 30
0.0
 11
412.3773260816551
 21
8520.017564288142
 31
0.0
  0
LINE
  5
1826E
330
176D1
100
AcDbEntity
  8
1-B_寸法
  6
Continuous
 62
     3
440
 16777216
 48
0.5
370
    -2
100
AcDbLine
 10
383.3773260816552
 20
8521.017564288142
 30
0.0
 11
411.3773260816551
 21
8521.017564288142
 31
0.0
  0
INSERT
  5
1826F
330
176D1
100
AcDbEntity
  8
1-B_寸法
  6
Continuous
 62
     3
440
 16777216
 48
0.5
370
    -2
100
AcDbBlockReference
  2
_Dot
 10
382.3773260816551
 20
8521.017564288142
 30
0.0
 50
180.0
  0
INSERT
  5
18270
330
176D1
100
AcDbEntity
  8
1-B_寸法
  6
Continuous
 62
     3
440
 16777216
 48
0.5
370
    -2
100
AcDbBlockReference
  2
_Dot
 10
412.3773260816551
 20
8521.017564288142
 30
0.0
  0
MTEXT
  5
18271
330
176D1
100
AcDbEntity
  8
1-B_寸法
  6
Continuous
 62
     3
440
 16777216
 48
0.5
370
    18
100
AcDbMText
 10
397.3773260816551
 20
8523.142564288141
 30
0.0
 40
3.0
 41
0.0
 46
0.0
 71
     5
 72
     1
  1
30
  7
明朝
 73
     1
 44
1.0
  0
POINT
  5
18272
330
176D1
100
AcDbEntity
  8
Defpoints
  6
Continuous
 62
     0
440
 16777216
 48
0.5
370
    35
100
AcDbPoint
 10
382.3773260816551
 20
8545.517564288143
 30
0.0
  0
POINT
  5
18273
330
176D1
100
AcDbEntity
  8
Defpoints
  6
Continuous
 62
     0
440
 16777216
 48
0.5
370
    35
100
AcDbPoint
 10
412.3773260816551
 20
8545.517564288143
 30
0.0
  0
POINT
  5
18274
330
176D1
100
AcDbEntity
  8
Defpoints
  6
Continuous
 62
     0
440
 16777216
 48
0.5
370
    35
100
AcDbPoint
 10
412.3773260816551
 20
8521.017564288142
 30
0.0
  0
ENDBLK
  5
176DC
330
176D1
100
AcDbEntity
  8
0
 62
     7
 48
0.5
370
    35
100
AcDbBlockEnd
  0
BLOCK
  5
176E7
330
176DD
100
AcDbEntity
  8
0
 62
     7
 48
0.5
370
    35
100
AcDbBlockBegin
  2
*D15
 70
     1
 10
0.0
 20
0.0
 30
0.0
  3
*D15
  1

  0
LINE
  5
18263
330
176DD
100
AcDbEntity
  8
1-B_寸法
  6
Continuous
 62
     3
440
 16777216
 48
0.5
370
    -2
100
AcDbLine
 10
342.3771024311454
 20
8530.517564290226
 30
0.0
 11
342.3771024311454
 21
8512.517564288144
 31
0.0
  0
LINE
  5
18264
330
176DD
100
AcDbEntity
  8
1-B_寸法
  6
Continuous
 62
     3
440
 16777216
 48
0.5
370
    -2
100
AcDbLine
 10
422.3773260816551
 20
8542.517564288143
 30
0.0
 11
422.3773260816551
 21
8512.517564288144
 31
0.0
  0
LINE
  5
18265
330
176DD
100
AcDbEntity
  8
1-B_寸法
  6
Continuous
 62
     3
440
 16777216
 48
0.5
370
    -2
100
AcDbLine
 10
343.3771024311454
 20
8513.517564288141
 30
0.0
 11
421.3773260816551
 21
8513.517564288141
 31
0.0
  0
INSERT
  5
18266
330
176DD
100
AcDbEntity
  8
1-B_寸法
  6
Continuous
 62
     3
440
 16777216
 48
0.5
370
    -2
100
AcDbBlockReference
  2
_Dot
 10
342.3771024311454
 20
8513.517564288141
 30
0.0
 50
180.0
  0
INSERT
  5
18267
330
176DD
100
AcDbEntity
  8
1-B_寸法
  6
Continuous
 62
     3
440
 16777216
 48
0.5
370
    -2
100
AcDbBlockReference
  2
_Dot
 10
422.3773260816551
 20
8513.517564288141
 30
0.0
  0
MTEXT
  5
18268
330
176DD
100
AcDbEntity
  8
1-B_寸法
  6
Continuous
 62
     3
440
 16777216
 48
0.5
370
    18
100
AcDbMText
 10
382.3773260816551
 20
8515.642564288143
 30
0.0
 40
3.0
 41
0.0
 46
0.0
 71
     5
 72
     1
  1
80
  7
明朝
 73
     1
 44
1.0
  0
POINT
  5
18269
330
176DD
100
AcDbEntity
  8
Defpoints
  6
Continuous
 62
     0
440
 16777216
 48
0.5
370
    35
100
AcDbPoint
 10
342.3771024311454
 20
8533.517564290226
 30
0.0
  0
POINT
  5
1826A
330
176DD
100
AcDbEntity
  8
Defpoints
  6
Continuous
 62
     0
440
 16777216
 48
0.5
370
    35
100
AcDbPoint
 10
422.3773260816551
 20
8545.517564288143
 30
0.0
  0
POINT
  5
1826B
330
176DD
100
AcDbEntity
  8
Defpoints
  6
Continuous
 62
     0
440
 16777216
 48
0.5
370
    35
100
AcDbPoint
 10
422.3773260816551
 20
8513.517564288141
 30
0.0
  0
ENDBLK
  5
176E8
330
176DD
100
AcDbEntity
  8
0
 62
     7
 48
0.5
370
    35
100
AcDbBlockEnd
  0
BLOCK
  5
176F3
330
176E9
100
AcDbEntity
  8
0
 62
     7
 48
0.5
370
    35
100
AcDbBlockBegin
  2
*D16
 70
     1
 10
0.0
 20
0.0
 30
0.0
  3
*D16
  1

  0
LINE
  5
1825A
330
176E9
100
AcDbEntity
  8
1-B_寸法
  6
Continuous
 62
     3
440
 16777216
 48
0.5
370
    -2
100
AcDbLine
 10
330.3773260816551
 20
8510.517564288141
 30
0.0
 11
330.3773260816551
 21
8505.017564288143
 31
0.0
  0
LINE
  5
1825B
330
176E9
100
AcDbEntity
  8
1-B_寸法
  6
Continuous
 62
     3
440
 16777216
 48
0.5
370
    -2
100
AcDbLine
 10
354.3773260816552
 20
8510.517564288141
 30
0.0
 11
354.3773260816552
 21
8505.017564288143
 31
0.0
  0
LINE
  5
1825C
330
176E9
100
AcDbEntity
  8
1-B_寸法
  6
Continuous
 62
     3
440
 16777216
 48
0.5
370
    -2
100
AcDbLine
 10
331.3773260816552
 20
8506.017564288141
 30
0.0
 11
353.3773260816551
 21
8506.017564288141
 31
0.0
  0
INSERT
  5
1825D
330
176E9
100
AcDbEntity
  8
1-B_寸法
  6
Continuous
 62
     3
440
 16777216
 48
0.5
370
    -2
100
AcDbBlockReference
  2
_Dot
 10
330.3773260816551
 20
8506.017564288141
 30
0.0
 50
180.0
  0
INSERT
  5
1825E
330
176E9
100
AcDbEntity
  8
1-B_寸法
  6
Continuous
 62
     3
440
 16777216
 48
0.5
370
    -2
100
AcDbBlockReference
  2
_Dot
 10
354.3773260816552
 20
8506.017564288141
 30
0.0
  0
MTEXT
  5
1825F
330
176E9
100
AcDbEntity
  8
1-B_寸法
  6
Continuous
 62
     3
440
 16777216
 48
0.5
370
    18
100
AcDbMText
 10
342.3773260816552
 20
8508.386219110478
 30
0.0
 40
3.0
 41
0.0
 46
0.0
 71
     5
 72
     1
  1
φ24
  7
明朝
 73
     1
 44
1.0
  0
POINT
  5
18260
330
176E9
100
AcDbEntity
  8
Defpoints
  6
Continuous
 62
     0
440
 16777216
 48
0.5
370
    35
100
AcDbPoint
 10
330.3773260816551
 20
8513.517564288141
 30
0.0
  0
POINT
  5
18261
330
176E9
100
AcDbEntity
  8
Defpoints
  6
Continuous
 62
     0
440
 16777216
 48
0.5
370
    35
100
AcDbPoint
 10
354.3773260816552
 20
8513.517564288141
 30
0.0
  0
POINT
  5
18262
330
176E9
100
AcDbEntity
  8
Defpoints
  6
Continuous
 62
     0
440
 16777216
 48
0.5
370
    35
100
AcDbPoint
 10
354.3773260816552
 20
8506.017564288141
 30
0.0
  0
ENDBLK
  5
176F4
330
176E9
100
AcDbEntity
  8
0
 62
     7
 48
0.5
370
    35
100
AcDbBlockEnd
  0
BLOCK
  5
176FF
330
176F5
100
AcDbEntity
  8
0
 62
     7
 48
0.5
370
    35
100
AcDbBlockBegin
  2
*D17
 70
     1
 10
0.0
 20
0.0
 30
0.0
  3
*D17
  1

  0
LINE
  5
18251
330
176F5
100
AcDbEntity
  8
1-B_寸法
  6
Continuous
 62
     3
440
 16777216
 48
0.5
370
    -2
100
AcDbLine
 10
215.3773260816565
 20
8623.517564288142
 30
0.0
 11
215.3773260816565
 21
8636.517564288142
 31
0.0
  0
LINE
  5
18252
330
176F5
100
AcDbEntity
  8
1-B_寸法
  6
Continuous
 62
     3
440
 16777216
 48
0.5
370
    -2
100
AcDbLine
 10
245.3773260816565
 20
8623.517564288142
 30
0.0
 11
245.3773260816565
 21
8636.517564288142
 31
0.0
  0
LINE
  5
18253
330
176F5
100
AcDbEntity
  8
1-B_寸法
  6
Continuous
 62
     3
440
 16777216
 48
0.5
370
    -2
100
AcDbLine
 10
216.3773260816565
 20
8635.517564288141
 30
0.0
 11
244.3773260816565
 21
8635.517564288141
 31
0.0
  0
INSERT
  5
18254
330
176F5
100
AcDbEntity
  8
1-B_寸法
  6
Continuous
 62
     3
440
 16777216
 48
0.5
370
    -2
100
AcDbBlockReference
  2
_Dot
 10
215.3773260816565
 20
8635.517564288141
 30
0.0
 50
180.0
  0
INSERT
  5
18255
330
176F5
100
AcDbEntity
  8
1-B_寸法
  6
Continuous
 62
     3
440
 16777216
 48
0.5
370
    -2
100
AcDbBlockReference
  2
_Dot
 10
245.3773260816565
 20
8635.517564288141
 30
0.0
  0
MTEXT
  5
18256
330
176F5
100
AcDbEntity
  8
1-B_寸法
  6
Continuous
 62
     3
440
 16777216
 48
0.5
370
    18
100
AcDbMText
 10
230.3773260816565
 20
8637.642564288142
 30
0.0
 40
3.0
 41
0.0
 46
0.0
 71
     5
 72
     1
  1
30
  7
明朝
 73
     1
 44
1.0
  0
POINT
  5
18257
330
176F5
100
AcDbEntity
  8
Defpoints
  6
Continuous
 62
     0
440
 16777216
 48
0.5
370
    35
100
AcDbPoint
 10
215.3773260816565
 20
8620.517564288142
 30
0.0
  0
POINT
  5
18258
330
176F5
100
AcDbEntity
  8
Defpoints
  6
Continuous
 62
     0
440
 16777216
 48
0.5
370
    35
100
AcDbPoint
 10
245.3773260816565
 20
8620.517564288142
 30
0.0
  0
POINT
  5
18259
330
176F5
100
AcDbEntity
  8
Defpoints
  6
Continuous
 62
     0
440
 16777216
 48
0.5
370
    35
100
AcDbPoint
 10
245.3773260816565
 20
8635.517564288141
 30
0.0
  0
ENDBLK
  5
17700
330
176F5
100
AcDbEntity
  8
0
 62
     7
 48
0.5
370
    35
100
AcDbBlockEnd
  0
BLOCK
  5
1770B
330
17701
100
AcDbEntity
  8
0
 62
     7
 48
0.5
370
    35
100
AcDbBlockBegin
  2
*D18
 70
     1
 10
0.0
 20
0.0
 30
0.0
  3
*D18
  1

  0
LINE
  5
18248
330
17701
100
AcDbEntity
  8
1-B_寸法
  6
Continuous
 62
     3
440
 16777216
 48
0.5
370
    -2
100
AcDbLine
 10
175.3773260816565
 20
8623.517564288142
 30
0.0
 11
175.3773260816565
 21
8644.017564288143
 31
0.0
  0
LINE
  5
18249
330
17701
100
AcDbEntity
  8
1-B_寸法
  6
Continuous
 62
     3
440
 16777216
 48
0.5
370
    -2
100
AcDbLine
 10
255.3773260816565
 20
8623.517564288142
 30
0.0
 11
255.3773260816565
 21
8644.017564288143
 31
0.0
  0
LINE
  5
1824A
330
17701
100
AcDbEntity
  8
1-B_寸法
  6
Continuous
 62
     3
440
 16777216
 48
0.5
370
    -2
100
AcDbLine
 10
176.3773260816565
 20
8643.017564288141
 30
0.0
 11
254.3773260816565
 21
8643.017564288141
 31
0.0
  0
INSERT
  5
1824B
330
17701
100
AcDbEntity
  8
1-B_寸法
  6
Continuous
 62
     3
440
 16777216
 48
0.5
370
    -2
100
AcDbBlockReference
  2
_Dot
 10
175.3773260816565
 20
8643.017564288141
 30
0.0
 50
180.0
  0
INSERT
  5
1824C
330
17701
100
AcDbEntity
  8
1-B_寸法
  6
Continuous
 62
     3
440
 16777216
 48
0.5
370
    -2
100
AcDbBlockReference
  2
_Dot
 10
255.3773260816565
 20
8643.017564288141
 30
0.0
  0
MTEXT
  5
1824D
330
17701
100
AcDbEntity
  8
1-B_寸法
  6
Continuous
 62
     3
440
 16777216
 48
0.5
370
    18
100
AcDbMText
 10
215.3773260816565
 20
8645.142564288141
 30
0.0
 40
3.0
 41
0.0
 46
0.0
 71
     5
 72
     1
  1
80
  7
明朝
 73
     1
 44
1.0
  0
POINT
  5
1824E
330
17701
100
AcDbEntity
  8
Defpoints
  6
Continuous
 62
     0
440
 16777216
 48
0.5
370
    35
100
AcDbPoint
 10
175.3773260816565
 20
8620.517564288142
 30
0.0
  0
POINT
  5
1824F
330
17701
100
AcDbEntity
  8
Defpoints
  6
Continuous
 62
     0
440
 16777216
 48
0.5
370
    35
100
AcDbPoint
 10
255.3773260816565
 20
8620.517564288142
 30
0.0
  0
POINT
  5
18250
330
17701
100
AcDbEntity
  8
Defpoints
  6
Continuous
 62
     0
440
 16777216
 48
0.5
370
    35
100
AcDbPoint
 10
255.3773260816565
 20
8643.017564288141
 30
0.0
  0
ENDBLK
  5
1770C
330
17701
100
AcDbEntity
  8
0
 62
     7
 48
0.5
370
    35
100
AcDbBlockEnd
  0
BLOCK
  5
17717
330
1770D
100
AcDbEntity
  8
0
 62
     7
 48
0.5
370
    35
100
AcDbBlockBegin
  2
*D19
 70
     1
 10
0.0
 20
0.0
 30
0.0
  3
*D19
  1

  0
LINE
  5
1823F
330
1770D
100
AcDbEntity
  8
1-B_寸法
  6
Continuous
 62
     3
440
 16777216
 48
0.5
370
    -2
100
AcDbLine
 10
175.3773260816565
 20
8623.517564288142
 30
0.0
 11
175.3773260816565
 21
8636.517564288142
 31
0.0
  0
LINE
  5
18240
330
1770D
100
AcDbEntity
  8
1-B_寸法
  6
Continuous
 62
     3
440
 16777216
 48
0.5
370
    -2
100
AcDbLine
 10
215.3773260816565
 20
8623.517564288142
 30
0.0
 11
215.3773260816565
 21
8636.517564288142
 31
0.0
  0
LINE
  5
18241
330
1770D
100
AcDbEntity
  8
1-B_寸法
  6
Continuous
 62
     3
440
 16777216
 48
0.5
370
    -2
100
AcDbLine
 10
176.3773260816565
 20
8635.517564288141
 30
0.0
 11
214.3773260816565
 21
8635.517564288141
 31
0.0
  0
INSERT
  5
18242
330
1770D
100
AcDbEntity
  8
1-B_寸法
  6
Continuous
 62
     3
440
 16777216
 48
0.5
370
    -2
100
AcDbBlockReference
  2
_Dot
 10
175.3773260816565
 20
8635.517564288141
 30
0.0
 50
180.0
  0
INSERT
  5
18243
330
1770D
100
AcDbEntity
  8
1-B_寸法
  6
Continuous
 62
     3
440
 16777216
 48
0.5
370
    -2
100
AcDbBlockReference
  2
_Dot
 10
215.3773260816565
 20
8635.517564288141
 30
0.0
  0
MTEXT
  5
18244
330
1770D
100
AcDbEntity
  8
1-B_寸法
  6
Continuous
 62
     3
440
 16777216
 48
0.5
370
    18
100
AcDbMText
 10
195.3773260816565
 20
8637.642564288142
 30
0.0
 40
3.0
 41
0.0
 46
0.0
 71
     5
 72
     1
  1
40
  7
明朝
 73
     1
 44
1.0
  0
POINT
  5
18245
330
1770D
100
AcDbEntity
  8
Defpoints
  6
Continuous
 62
     0
440
 16777216
 48
0.5
370
    35
100
AcDbPoint
 10
175.3773260816565
 20
8620.517564288142
 30
0.0
  0
POINT
  5
18246
330
1770D
100
AcDbEntity
  8
Defpoints
  6
Continuous
 62
     0
440
 16777216
 48
0.5
370
    35
100
AcDbPoint
 10
215.3773260816565
 20
8620.517564288142
 30
0.0
  0
POINT
  5
18247
330
1770D
100
AcDbEntity
  8
Defpoints
  6
Continuous
 62
     0
440
 16777216
 48
0.5
370
    35
100
AcDbPoint
 10
215.3773260816565
 20
8635.517564288141
 30
0.0
  0
ENDBLK
  5
17718
330
1770D
100
AcDbEntity
  8
0
 62
     7
 48
0.5
370
    35
100
AcDbBlockEnd
  0
BLOCK
  5
17725
330
17719
100
AcDbEntity
  8
0
 62
     7
 48
0.5
370
    35
100
AcDbBlockBegin
  2
*D20
 70
     1
 10
0.0
 20
0.0
 30
0.0
  3
*D20
  1

  0
LINE
  5
1838B
330
17719
100
AcDbEntity
  8
1-B_寸法
  6
Continuous
 62
     3
440
 16777216
 48
0.5
370
    -2
100
AcDbLine
 10
258.3773260816565
 20
8543.517564288142
 30
0.0
 11
278.8773260816593
 21
8543.517564288142
 31
0.0
  0
LINE
  5
1838C
330
17719
100
AcDbEntity
  8
1-B_寸法
  6
Continuous
 62
     3
440
 16777216
 48
0.5
370
    -2
100
AcDbLine
 10
258.3773260816565
 20
8545.517564288143
 30
0.0
 11
278.8773260816593
 21
8545.517564288143
 31
0.0
  0
LINE
  5
1838D
330
17719
100
AcDbEntity
  8
1-B_寸法
  6
Continuous
 62
     3
440
 16777216
 48
0.5
370
    -2
100
AcDbLine
 10
277.8773260816592
 20
8546.517564288143
 30
0.0
 11
277.8773260816592
 21
8547.517564288142
 31
0.0
  0
LINE
  5
1838E
330
17719
100
AcDbEntity
  8
1-B_寸法
  6
Continuous
 62
     3
440
 16777216
 48
0.5
370
    -2
100
AcDbLine
 10
277.8773260816592
 20
8542.517564288143
 30
0.0
 11
277.8773260816592
 21
8538.714264795757
 31
0.0
  0
LINE
  5
1838F
330
17719
100
AcDbEntity
  8
1-B_寸法
  6
Continuous
 62
     3
440
 16777216
 48
0.5
370
    -2
100
AcDbLine
 10
277.8773260816592
 20
8545.517564288143
 30
0.0
 11
277.8773260816592
 21
8543.517564288142
 31
0.0
  0
INSERT
  5
18390
330
17719
100
AcDbEntity
  8
1-B_寸法
  6
Continuous
 62
     3
440
 16777216
 48
0.5
370
    -2
100
AcDbBlockReference
  2
_Dot
 10
277.8773260816592
 20
8545.517564288143
 30
0.0
 50
270.0
  0
INSERT
  5
18391
330
17719
100
AcDbEntity
  8
1-B_寸法
  6
Continuous
 62
     3
440
 16777216
 48
0.5
370
    -2
100
AcDbBlockReference
  2
_Dot
 10
277.8773260816592
 20
8543.517564288142
 30
0.0
 50
90.0
  0
MTEXT
  5
18392
330
17719
100
AcDbEntity
  8
1-B_寸法
  6
Continuous
 62
     3
440
 16777216
 48
0.5
370
    18
100
AcDbMText
 10
275.7523260816579
 20
8540.115914541949
 30
0.0
 40
3.0
 41
0.0
 46
0.0
 71
     5
 72
     1
  1
2
  7
明朝
 11
0.0000000000000001
 21
1.0
 31
0.0
 73
     1
 44
1.0
  0
POINT
  5
18393
330
17719
100
AcDbEntity
  8
Defpoints
  6
Continuous
 62
     0
440
 16777216
 48
0.5
370
    35
100
AcDbPoint
 10
255.3773260816565
 20
8543.517564288142
 30
0.0
  0
POINT
  5
18394
330
17719
100
AcDbEntity
  8
Defpoints
  6
Continuous
 62
     0
440
 16777216
 48
0.5
370
    35
100
AcDbPoint
 10
255.3773260816565
 20
8545.517564288143
 30
0.0
  0
POINT
  5
18395
330
17719
100
AcDbEntity
  8
Defpoints
  6
Continuous
 62
     0
440
 16777216
 48
0.5
370
    35
100
AcDbPoint
 10
277.8773260816592
 20
8545.517564288143
 30
0.0
  0
ENDBLK
  5
17726
330
17719
100
AcDbEntity
  8
0
 62
     7
 48
0.5
370
    35
100
AcDbBlockEnd
  0
BLOCK
  5
17731
330
17727
100
AcDbEntity
  8
0
 62
     7
 48
0.5
370
    35
100
AcDbBlockBegin
  2
*D21
 70
     1
 10
0.0
 20
0.0
 30
0.0
  3
*D21
  1

  0
LINE
  5
1822B
330
17727
100
AcDbEntity
  8
1-B_寸法
  6
Continuous
 62
     3
440
 16777216
 48
0.5
370
    -2
100
AcDbLine
 10
258.3773260816565
 20
8545.517564288143
 30
0.0
 11
278.8773260816579
 21
8545.517564288143
 31
0.0
  0
LINE
  5
1822C
330
17727
100
AcDbEntity
  8
1-B_寸法
  6
Continuous
 62
     3
440
 16777216
 48
0.5
370
    -2
100
AcDbLine
 10
258.3773260816565
 20
8620.517564288142
 30
0.0
 11
278.8773260816579
 21
8620.517564288142
 31
0.0
  0
LINE
  5
1822D
330
17727
100
AcDbEntity
  8
1-B_寸法
  6
Continuous
 62
     3
440
 16777216
 48
0.5
370
    -2
100
AcDbLine
 10
277.8773260816579
 20
8546.517564288143
 30
0.0
 11
277.877326081658
 21
8619.517564288143
 31
0.0
  0
INSERT
  5
1822E
330
17727
100
AcDbEntity
  8
1-B_寸法
  6
Continuous
 62
     3
440
 16777216
 48
0.5
370
    -2
100
AcDbBlockReference
  2
_Dot
 10
277.8773260816579
 20
8545.517564288143
 30
0.0
 50
270.0
  0
INSERT
  5
1822F
330
17727
100
AcDbEntity
  8
1-B_寸法
  6
Continuous
 62
     3
440
 16777216
 48
0.5
370
    -2
100
AcDbBlockReference
  2
_Dot
 10
277.877326081658
 20
8620.517564288142
 30
0.0
 50
90.0
  0
MTEXT
  5
18230
330
17727
100
AcDbEntity
  8
1-B_寸法
  6
Continuous
 62
     3
440
 16777216
 48
0.5
370
    18
100
AcDbMText
 10
275.7523260816565
 20
8583.017564288143
 30
0.0
 40
3.0
 41
0.0
 46
0.0
 71
     5
 72
     1
  1
75
  7
明朝
 11
0.0000000000000001
 21
1.0
 31
0.0
 73
     1
 44
1.0
  0
POINT
  5
18231
330
17727
100
AcDbEntity
  8
Defpoints
  6
Continuous
 62
     0
440
 16777216
 48
0.5
370
    35
100
AcDbPoint
 10
255.3773260816565
 20
8545.517564288143
 30
0.0
  0
POINT
  5
18232
330
17727
100
AcDbEntity
  8
Defpoints
  6
Continuous
 62
     0
440
 16777216
 48
0.5
370
    35
100
AcDbPoint
 10
255.3773260816565
 20
8620.517564288142
 30
0.0
  0
POINT
  5
18233
330
17727
100
AcDbEntity
  8
Defpoints
  6
Continuous
 62
     0
440
 16777216
 48
0.5
370
    35
100
AcDbPoint
 10
277.877326081658
 20
8620.517564288142
 30
0.0
  0
ENDBLK
  5
17732
330
17727
100
AcDbEntity
  8
0
 62
     7
 48
0.5
370
    35
100
AcDbBlockEnd
  0
BLOCK
  5
1773D
330
17733
100
AcDbEntity
  8
0
 62
     7
 48
0.5
370
    35
100
AcDbBlockBegin
  2
*D22
 70
     1
 10
0.0
 20
0.0
 30
0.0
  3
*D22
  1

  0
LINE
  5
18222
330
17733
100
AcDbEntity
  8
1-B_寸法
  6
Continuous
 62
     3
440
 16777216
 48
0.5
370
    -2
100
AcDbLine
 10
327.3773260816552
 20
8545.51756453652
 30
0.0
 11
314.3773260816565
 21
8545.51756453652
 31
0.0
  0
LINE
  5
18223
330
17733
100
AcDbEntity
  8
1-B_寸法
  6
Continuous
 62
     3
440
 16777216
 48
0.5
370
    -2
100
AcDbLine
 10
327.3773260816552
 20
8565.517564288141
 30
0.0
 11
314.3773260816565
 21
8565.517564288141
 31
0.0
  0
LINE
  5
18224
330
17733
100
AcDbEntity
  8
1-B_寸法
  6
Continuous
 62
     3
440
 16777216
 48
0.5
370
    -2
100
AcDbLine
 10
315.3773260816565
 20
8546.51756453652
 30
0.0
 11
315.3773260816565
 21
8564.517564288143
 31
0.0
  0
INSERT
  5
18225
330
17733
100
AcDbEntity
  8
1-B_寸法
  6
Continuous
 62
     3
440
 16777216
 48
0.5
370
    -2
100
AcDbBlockReference
  2
_Dot
 10
315.3773260816565
 20
8545.51756453652
 30
0.0
 50
270.0
  0
INSERT
  5
18226
330
17733
100
AcDbEntity
  8
1-B_寸法
  6
Continuous
 62
     3
440
 16777216
 48
0.5
370
    -2
100
AcDbBlockReference
  2
_Dot
 10
315.3773260816565
 20
8565.517564288141
 30
0.0
 50
90.0
  0
MTEXT
  5
18227
330
17733
100
AcDbEntity
  8
1-B_寸法
  6
Continuous
 62
     3
440
 16777216
 48
0.5
370
    18
100
AcDbMText
 10
313.2523260816551
 20
8555.517564288143
 30
0.0
 40
3.0
 41
0.0
 46
0.0
 71
     5
 72
     1
  1
20
  7
明朝
 11
0.0000000000000001
 21
1.0
 31
0.0
 73
     1
 44
1.0
  0
POINT
  5
18228
330
17733
100
AcDbEntity
  8
Defpoints
  6
Continuous
 62
     0
440
 16777216
 48
0.5
370
    35
100
AcDbPoint
 10
330.3773260816551
 20
8545.51756453652
 30
0.0
  0
POINT
  5
18229
330
17733
100
AcDbEntity
  8
Defpoints
  6
Continuous
 62
     0
440
 16777216
 48
0.5
370
    35
100
AcDbPoint
 10
330.3773260816551
 20
8565.517564288141
 30
0.0
  0
POINT
  5
1822A
330
17733
100
AcDbEntity
  8
Defpoints
  6
Continuous
 62
     0
440
 16777216
 48
0.5
370
    35
100
AcDbPoint
 10
315.3773260816565
 20
8565.517564288141
 30
0.0
  0
ENDBLK
  5
1773E
330
17733
100
AcDbEntity
  8
0
 62
     7
 48
0.5
370
    35
100
AcDbBlockEnd
  0
BLOCK
  5
17749
330
1773F
100
AcDbEntity
  8
0
 62
     7
 48
0.5
370
    35
100
AcDbBlockBegin
  2
*D23
 70
     1
 10
0.0
 20
0.0
 30
0.0
  3
*D23
  1

  0
LINE
  5
18219
330
1773F
100
AcDbEntity
  8
1-B_寸法
  6
Continuous
 62
     3
440
 16777216
 48
0.5
370
    -2
100
AcDbLine
 10
425.3773260816551
 20
8545.517564288143
 30
0.0
 11
438.3773260816565
 21
8545.517564288143
 31
0.0
  0
LINE
  5
1821A
330
1773F
100
AcDbEntity
  8
1-B_寸法
  6
Continuous
 62
     3
440
 16777216
 48
0.5
370
    -2
100
AcDbLine
 10
425.3773260816551
 20
8568.517564288141
 30
0.0
 11
438.3773260816565
 21
8568.517564288141
 31
0.0
  0
LINE
  5
1821B
330
1773F
100
AcDbEntity
  8
1-B_寸法
  6
Continuous
 62
     3
440
 16777216
 48
0.5
370
    -2
100
AcDbLine
 10
437.3773260816565
 20
8546.517564288143
 30
0.0
 11
437.3773260816565
 21
8567.517564288143
 31
0.0
  0
INSERT
  5
1821C
330
1773F
100
AcDbEntity
  8
1-B_寸法
  6
Continuous
 62
     3
440
 16777216
 48
0.5
370
    -2
100
AcDbBlockReference
  2
_Dot
 10
437.3773260816565
 20
8545.517564288143
 30
0.0
 50
270.0
  0
INSERT
  5
1821D
330
1773F
100
AcDbEntity
  8
1-B_寸法
  6
Continuous
 62
     3
440
 16777216
 48
0.5
370
    -2
100
AcDbBlockReference
  2
_Dot
 10
437.3773260816565
 20
8568.517564288141
 30
0.0
 50
90.0
  0
MTEXT
  5
1821E
330
1773F
100
AcDbEntity
  8
1-B_寸法
  6
Continuous
 62
     3
440
 16777216
 48
0.5
370
    18
100
AcDbMText
 10
435.2523260816552
 20
8557.017564288143
 30
0.0
 40
3.0
 41
0.0
 46
0.0
 71
     5
 72
     1
  1
23
  7
明朝
 11
0.0000000000000001
 21
1.0
 31
0.0
 73
     1
 44
1.0
  0
POINT
  5
1821F
330
1773F
100
AcDbEntity
  8
Defpoints
  6
Continuous
 62
     0
440
 16777216
 48
0.5
370
    35
100
AcDbPoint
 10
422.3773260816551
 20
8545.517564288143
 30
0.0
  0
POINT
  5
18220
330
1773F
100
AcDbEntity
  8
Defpoints
  6
Continuous
 62
     0
440
 16777216
 48
0.5
370
    35
100
AcDbPoint
 10
422.3773260816551
 20
8568.517564288141
 30
0.0
  0
POINT
  5
18221
330
1773F
100
AcDbEntity
  8
Defpoints
  6
Continuous
 62
     0
440
 16777216
 48
0.5
370
    35
100
AcDbPoint
 10
437.3773260816565
 20
8568.517564288141
 30
0.0
  0
ENDBLK
  5
1774A
330
1773F
100
AcDbEntity
  8
0
 62
     7
 48
0.5
370
    35
100
AcDbBlockEnd
  0
BLOCK
  5
17757
330
1774B
100
AcDbEntity
  8
0
 62
     7
 48
0.5
370
    35
100
AcDbBlockBegin
  2
*D24
 70
     1
 10
0.0
 20
0.0
 30
0.0
  3
*D24
  1

  0
LINE
  5
1820E
330
1774B
100
AcDbEntity
  8
1-B_寸法
  6
Continuous
 62
     3
440
 16777216
 48
0.5
370
    -2
100
AcDbLine
 10
425.3773260816551
 20
8564.517564288143
 30
0.0
 11
431.9169429607645
 21
8564.517564288143
 31
0.0
  0
LINE
  5
1820F
330
1774B
100
AcDbEntity
  8
1-B_寸法
  6
Continuous
 62
     3
440
 16777216
 48
0.5
370
    -2
100
AcDbLine
 10
425.3773260816551
 20
8568.517564288141
 30
0.0
 11
431.9169429607645
 21
8568.517564288141
 31
0.0
  0
LINE
  5
18210
330
1774B
100
AcDbEntity
  8
1-B_寸法
  6
Continuous
 62
     3
440
 16777216
 48
0.5
370
    -2
100
AcDbLine
 10
430.9169429607646
 20
8563.517564288142
 30
0.0
 11
430.9169429607646
 21
8562.517564288143
 31
0.0
  0
LINE
  5
18211
330
1774B
100
AcDbEntity
  8
1-B_寸法
  6
Continuous
 62
     3
440
 16777216
 48
0.5
370
    -2
100
AcDbLine
 10
430.9169429607646
 20
8569.517564288142
 30
0.0
 11
430.9169429607646
 21
8570.517564288143
 31
0.0
  0
LINE
  5
18212
330
1774B
100
AcDbEntity
  8
1-B_寸法
  6
Continuous
 62
     3
440
 16777216
 48
0.5
370
    -2
100
AcDbLine
 10
430.9169429607646
 20
8564.517564288143
 30
0.0
 11
430.9169429607646
 21
8568.517564288141
 31
0.0
  0
INSERT
  5
18213
330
1774B
100
AcDbEntity
  8
1-B_寸法
  6
Continuous
 62
     3
440
 16777216
 48
0.5
370
    -2
100
AcDbBlockReference
  2
_Dot
 10
430.9169429607646
 20
8564.517564288143
 30
0.0
 50
90.0
  0
INSERT
  5
18214
330
1774B
100
AcDbEntity
  8
1-B_寸法
  6
Continuous
 62
     3
440
 16777216
 48
0.5
370
    -2
100
AcDbBlockReference
  2
_Dot
 10
430.9169429607646
 20
8568.517564288141
 30
0.0
 50
270.0
  0
MTEXT
  5
18215
330
1774B
100
AcDbEntity
  8
1-B_寸法
  6
Continuous
 62
     3
440
 16777216
 48
0.5
370
    18
100
AcDbMText
 10
428.7919429607632
 20
8566.517564288142
 30
0.0
 40
3.0
 41
0.0
 46
0.0
 71
     5
 72
     1
  1
4
  7
明朝
 11
0.0000000000000001
 21
1.0
 31
0.0
 73
     1
 44
1.0
  0
POINT
  5
18216
330
1774B
100
AcDbEntity
  8
Defpoints
  6
Continuous
 62
     0
440
 16777216
 48
0.5
370
    35
100
AcDbPoint
 10
422.3773260816551
 20
8564.517564288143
 30
0.0
  0
POINT
  5
18217
330
1774B
100
AcDbEntity
  8
Defpoints
  6
Continuous
 62
     0
440
 16777216
 48
0.5
370
    35
100
AcDbPoint
 10
422.3773260816551
 20
8568.517564288141
 30
0.0
  0
POINT
  5
18218
330
1774B
100
AcDbEntity
  8
Defpoints
  6
Continuous
 62
     0
440
 16777216
 48
0.5
370
    35
100
AcDbPoint
 10
430.9169429607646
 20
8568.517564288141
 30
0.0
  0
ENDBLK
  5
17758
330
1774B
100
AcDbEntity
  8
0
 62
     7
 48
0.5
370
    35
100
AcDbBlockEnd
  0
ENDSEC
  0
SECTION
  2
ENTITIES
  0
DIMENSION
  5
174C1
330
1E
100
AcDbEntity
  8
1-B_寸法
  6
Continuous
 62
     3
 48
0.5
370
    18
100
AcDbDimension
280
     0
  2
*D1
 10
148.3773260816579
 20
8496.517564288142
 30
0.0
 11
148.3773260816565
 21
8487.517564288143
 31
0.0
 70
   160
 71
     5
 42
18.0
 73
     0
 74
     0
 75
     0
  3
ISO-25
100
AcDbAlignedDimension
 13
163.3773260816565
 23
8478.517564288143
 33
0.0
 14
163.3773260816565
 24
8496.517564288142
 34
0.0
 50
90.0
100
AcDbRotatedDimension
  0
LINE
  5
174C2
330
1E
100
AcDbEntity
  8
1-A_中心
  6
中心線
 62
     6
 48
0.25
370
    18
100
AcDbLine
 10
172.3772759133494
 20
8503.516660643311
 30
0.0
 11
172.3773311587483
 21
8489.516660643531
 31
0.0
  0
LINE
  5
174C3
330
1E
100
AcDbEntity
  8
1-4_ビス
  6
Continuous
 62
     7
 48
0.5
370
    35
100
AcDbLine
 10
172.877326076501
 20
8494.515757018708
 30
0.0
 11
172.877326076501
 21
8493.519727018707
 31
0.0
  0
LINE
  5
174C4
330
1E
100
AcDbEntity
  8
1-4_ビス
  6
Continuous
 62
     7
 48
0.5
370
    35
100
AcDbLine
 10
171.877326076501
 20
8494.515757018708
 30
0.0
 11
171.877326076501
 21
8493.519727018707
 31
0.0
  0
CIRCLE
  5
174C5
330
1E
100
AcDbEntity
  8
1-4_ビス
  6
Continuous
 62
     7
 48
0.5
370
    35
100
AcDbCircle
 10
172.3773311198006
 20
8496.51666064353
 30
0.0
 40
6.0
  0
DIMENSION
  5
174C8
330
1E
100
AcDbEntity
  8
1-B_寸法
  6
Continuous
 62
     3
 48
0.5
370
    18
100
AcDbDimension
280
     0
  2
*D2
 10
140.8773260816579
 20
8620.517564288142
 30
0.0
 11
140.8773260816565
 21
8544.517564288142
 31
0.0
 70
   160
 71
     5
 42
152.0
 73
     0
 74
     0
 75
     0
  3
ISO-25
100
AcDbAlignedDimension
 13
163.3773260816565
 23
8468.517564288141
 33
0.0
 14
163.3773260816565
 24
8620.517564288142
 34
0.0
 50
90.0
100
AcDbRotatedDimension
  0
LINE
  5
174C9
330
1E
100
AcDbEntity
  8
1-A_中心
  6
中心線
 62
     6
 48
0.25
370
    18
100
AcDbLine
 10
175.3773260816565
 20
8466.517564288142
 30
0.0
 11
175.3773260816565
 21
8622.517564288143
 31
0.0
  0
LINE
  5
174CA
330
1E
100
AcDbEntity
  8
1-0_本体
  6
Continuous
 62
     7
 48
0.5
370
    35
100
AcDbLine
 10
163.3773260816565
 20
8543.517564288142
 30
0.0
 11
163.3773260816565
 21
8468.517564288141
 31
0.0
  0
LINE
  5
174CB
330
1E
100
AcDbEntity
  8
1-0_本体
  6
Continuous
 62
     7
 48
0.5
370
    35
100
AcDbLine
 10
187.3773260816565
 20
8543.517564288142
 30
0.0
 11
187.3773260816565
 21
8468.517564288141
 31
0.0
  0
DIMENSION
  5
174CD
330
1E
100
AcDbEntity
  8
1-B_寸法
  6
Continuous
 62
     3
 48
0.5
370
    18
100
AcDbDimension
280
     0
  2
*D3
 10
277.8773260816579
 20
8543.517564288142
 30
0.0
 11
277.8773260816565
 21
8506.517564288143
 31
0.0
 70
   160
 71
     5
 42
75.0
 73
     0
 74
     0
 75
     0
  3
ISO-25
100
AcDbAlignedDimension
 13
255.3773260816565
 23
8468.517564288141
 33
0.0
 14
255.3773260816565
 24
8543.517564288142
 34
0.0
 50
90.0
100
AcDbRotatedDimension
  0
MTEXT
  5
174CE
330
1E
100
AcDbEntity
  8
1-C_文字
  6
Continuous
 62
     3
 48
0.5
370
    18
100
AcDbMText
 10
134.5722641290413
 20
8416.176242127701
 30
0.0
 40
3.0
 41
264.2747
 46
0.0
 71
     1
 72
     1
  1
\P＊ 軸受にはドライメタルを使用しており扉の開閉がスムーズです。
  7
明朝
 73
     1
 44
1.0
  0
DIMENSION
  5
174CF
330
1E
100
AcDbEntity
  8
1-B_寸法
  6
Continuous
 62
     3
 48
0.5
370
    18
100
AcDbDimension
280
     0
  2
*D4
 10
148.3773260816579
 20
8478.517564288143
 30
0.0
 11
148.3773260816565
 21
8473.517564288142
 31
0.0
 70
   160
 71
     5
 42
10.0
 73
     0
 74
     0
 75
     0
  3
ISO-25
100
AcDbAlignedDimension
 13
163.3773260816565
 23
8468.517564288141
 33
0.0
 14
163.3773260816565
 24
8478.517564288143
 34
0.0
 50
90.0
100
AcDbRotatedDimension
  0
LINE
  5
174D0
330
1E
100
AcDbEntity
  8
図枠
  6
Continuous
 62
   110
 48
0.5
370
    35
100
AcDbLine
 10
114.5722641290413
 20
8398.1762421277
 30
0.0
 11
464.5722641290412
 21
8398.1762421277
 31
0.0
  0
LINE
  5
174D1
330
1E
100
AcDbEntity
  8
図枠
  6
Continuous
 62
   110
 48
0.5
370
    35
100
AcDbLine
 10
114.5722641290413
 20
8406.176242127699
 30
0.0
 11
464.5722641290412
 21
8406.176242127699
 31
0.0
  0
MTEXT
  5
174D2
330
1E
100
AcDbEntity
  8
1-C_文字
  6
Continuous
 62
     7
 48
0.5
370
    18
100
AcDbMText
 10
119.5722641290413
 20
8402.176242127699
 30
0.0
 40
3.0
 41
0.0
 46
0.0
 71
     4
 72
     5
  1
いわきエンジニアリング株式会社
  7
明朝
 73
     1
 44
1.0
  0
LINE
  5
174D3
330
1E
100
AcDbEntity
  8
図枠
  6
Continuous
 62
   110
 48
0.5
370
    35
100
AcDbLine
 10
114.5722641290413
 20
8406.176242127699
 30
0.0
 11
114.5722641290413
 21
8398.1762421277
 31
0.0
  0
POINT
  5
174D5
330
1E
100
AcDbEntity
  8
1-B_寸法
  6
Continuous
 62
     3
 48
0.5
370
    18
100
AcDbPoint
 10
149.6983360816562
 20
8468.517564288141
 30
0.0
  0
DIMENSION
  5
174D6
330
1E
100
AcDbEntity
  8
1-B_寸法
  6
Continuous
 62
     3
 48
0.5
370
    18
100
AcDbDimension
280
     0
  2
*D5
 10
178.3773311584118
 20
8457.267564288143
 30
0.0
 11
175.3770610816573
 21
8457.267564288143
 31
0.0
 70
   160
 71
     5
 42
5.999999999663486
 73
     0
 74
     0
 75
     0
  3
ISO-25
100
AcDbAlignedDimension
 13
172.3773311587483
 23
8468.517564288141
 33
0.0
 14
178.3773311584118
 24
8468.51756428858
 34
0.0
100
AcDbRotatedDimension
  0
ARC
  5
174D7
330
1E
100
AcDbEntity
  8
1-4_ビス
  6
Continuous
 62
     7
 48
0.5
370
    35
100
AcDbCircle
 10
176.3773260812845
 20
8476.515757018708
 30
0.0
 40
1.5
100
AcDbArc
 50
0.0
 51
90.0
  0
LINE
  5
174D8
330
1E
100
AcDbEntity
  8
1-4_ビス
  6
Continuous
 62
     7
 48
0.5
370
    35
100
AcDbLine
 10
176.377326081285
 20
8478.015757018708
 30
0.0
 11
175.377326081285
 21
8478.015757018708
 31
0.0
  0
LINE
  5
174D9
330
1E
100
AcDbEntity
  8
1-4_ビス
  6
Continuous
 62
     7
 48
0.5
370
    35
100
AcDbLine
 10
177.877326081285
 20
8476.515757018708
 30
0.0
 11
177.877326081285
 21
8475.519727018706
 31
0.0
  0
LINE
  5
174DA
330
1E
100
AcDbEntity
  8
1-4_ビス
  6
Continuous
 62
     7
 48
0.5
370
    35
100
AcDbLine
 10
175.377326081285
 20
8479.015757018707
 30
0.0
 11
175.377326081285
 21
8478.015757018708
 31
0.0
  0
LINE
  5
174DB
330
1E
100
AcDbEntity
  8
1-4_ビス
  6
Continuous
 62
     7
 48
0.5
370
    35
100
AcDbLine
 10
177.877326081285
 20
8475.519727018706
 30
0.0
 11
178.877326081285
 21
8475.519727018706
 31
0.0
  0
ARC
  5
174DC
330
1E
100
AcDbEntity
  8
1-4_ビス
  6
Continuous
 62
     7
 48
0.5
370
    35
100
AcDbCircle
 10
180.3773260812845
 20
8480.515757018707
 30
0.0
 40
1.5
100
AcDbArc
 50
180.0
 51
270.0
  0
LINE
  5
174DD
330
1E
100
AcDbEntity
  8
1-4_ビス
  6
Continuous
 62
     7
 48
0.5
370
    35
100
AcDbLine
 10
180.377326081285
 20
8479.015757018707
 30
0.0
 11
181.377326081285
 21
8479.015757018707
 31
0.0
  0
LINE
  5
174DE
330
1E
100
AcDbEntity
  8
1-4_ビス
  6
Continuous
 62
     7
 48
0.5
370
    35
100
AcDbLine
 10
178.877326081285
 20
8480.515757018707
 30
0.0
 11
178.877326081285
 21
8481.519727018707
 31
0.0
  0
LINE
  5
174DF
330
1E
100
AcDbEntity
  8
1-4_ビス
  6
Continuous
 62
     7
 48
0.5
370
    35
100
AcDbLine
 10
177.877326081285
 20
8481.519727018707
 30
0.0
 11
178.877326081285
 21
8481.519727018707
 31
0.0
  0
LINE
  5
174E0
330
1E
100
AcDbEntity
  8
1-4_ビス
  6
Continuous
 62
     7
 48
0.5
370
    35
100
AcDbLine
 10
181.377326081285
 20
8478.015757018708
 30
0.0
 11
181.377326081285
 21
8479.015757018707
 31
0.0
  0
ARC
  5
174E1
330
1E
100
AcDbEntity
  8
1-4_ビス
  6
Continuous
 62
     7
 48
0.5
370
    35
100
AcDbCircle
 10
180.3773260812845
 20
8476.515757018708
 30
0.0
 40
1.5
100
AcDbArc
 50
90.0
 51
180.0
  0
LINE
  5
174E2
330
1E
100
AcDbEntity
  8
1-4_ビス
  6
Continuous
 62
     7
 48
0.5
370
    35
100
AcDbLine
 10
178.877326081285
 20
8476.515757018708
 30
0.0
 11
178.877326081285
 21
8475.519727018706
 31
0.0
  0
LINE
  5
174E3
330
1E
100
AcDbEntity
  8
1-4_ビス
  6
Continuous
 62
     7
 48
0.5
370
    35
100
AcDbLine
 10
180.377326081285
 20
8478.015757018708
 30
0.0
 11
181.377326081285
 21
8478.015757018708
 31
0.0
  0
ARC
  5
174E4
330
1E
100
AcDbEntity
  8
1-4_ビス
  6
Continuous
 62
     7
 48
0.5
370
    35
100
AcDbCircle
 10
176.3773260812845
 20
8480.515757018707
 30
0.0
 40
1.5
100
AcDbArc
 50
270.0
 51
0.0
  0
LINE
  5
174E5
330
1E
100
AcDbEntity
  8
1-4_ビス
  6
Continuous
 62
     7
 48
0.5
370
    35
100
AcDbLine
 10
177.877326081285
 20
8480.515757018707
 30
0.0
 11
177.877326081285
 21
8481.519727018707
 31
0.0
  0
LINE
  5
174E6
330
1E
100
AcDbEntity
  8
1-4_ビス
  6
Continuous
 62
     7
 48
0.5
370
    35
100
AcDbLine
 10
176.377326081285
 20
8479.015757018707
 30
0.0
 11
175.377326081285
 21
8479.015757018707
 31
0.0
  0
LINE
  5
174E7
330
1E
100
AcDbEntity
  8
1-A_中心
  6
中心線
 62
     6
 48
0.25
370
    18
100
AcDbLine
 10
178.3773310915007
 20
8485.517564288578
 30
0.0
 11
178.3773311584118
 21
8471.51756428858
 31
0.0
  0
LINE
  5
174E8
330
1E
100
AcDbEntity
  8
1-A_中心
  6
中心線
 62
     6
 48
0.25
370
    18
100
AcDbLine
 10
185.3773310666293
 20
8478.515756998481
 30
0.0
 11
171.3773311832829
 21
8478.517564288143
 31
0.0
  0
LINE
  5
174E9
330
1E
100
AcDbEntity
  8
1-4_ビス
  6
Continuous
 62
     7
 48
0.5
370
    35
100
AcDbLine
 10
171.877326076501
 20
8493.519727018707
 30
0.0
 11
172.877326076501
 21
8493.519727018707
 31
0.0
  0
CIRCLE
  5
174EA
330
1E
100
AcDbEntity
  8
1-4_ビス
  6
Continuous
 62
     7
 48
0.5
370
    35
100
AcDbCircle
 10
178.3773311245845
 20
8478.516660643531
 30
0.0
 40
6.0
  0
MTEXT
  5
174EB
330
1E
100
AcDbEntity
  8
1-C_文字
  6
Continuous
 62
     3
 48
0.5
370
    18
100
AcDbMText
 10
418.4932896537093
 20
8419.756614378123
 30
0.0
 40
4.0
 41
45.76677447533196
 46
0.0
 71
     1
 72
     1
  1
\P{\H0.75x;図は左勝手(ＬＨ)を示す。}
  7
明朝
 73
     1
 44
1.0
  0
MTEXT
  5
174EC
330
1E
100
AcDbEntity
  8
1-C_文字
  6
Continuous
 62
     7
 48
0.5
370
    18
100
AcDbMText
 10
189.5722641290413
 20
8402.176242127699
 30
0.0
 40
3.0
 41
0.0
 46
0.0
 71
     4
 72
     5
  1
　　　ＳＯＲ－Ｃ
  7
明朝
 73
     1
 44
1.0
  0
LINE
  5
174ED
330
1E
100
AcDbEntity
  8
図枠
  6
Continuous
 62
   110
 48
0.5
370
    35
100
AcDbLine
 10
184.5722641290413
 20
8406.176242127699
 30
0.0
 11
184.5722641290413
 21
8398.1762421277
 31
0.0
  0
MTEXT
  5
174EE
330
1E
100
AcDbEntity
  8
1-C_文字
  6
Continuous
 62
     7
 48
0.5
370
    18
100
AcDbMText
 10
184.5722641290413
 20
8405.1762421277
 30
0.0
 40
1.5
 41
0.0
 46
0.0
 71
     4
 72
     5
  1
形式
  7
明朝
 73
     1
 44
1.0
  0
LINE
  5
174EF
330
1E
100
AcDbEntity
  8
図枠
  6
Continuous
 62
   110
 48
0.5
370
    35
100
AcDbLine
 10
439.5722641290412
 20
8406.176242127699
 30
0.0
 11
439.5722641290412
 21
8398.1762421277
 31
0.0
  0
LINE
  5
174F0
330
1E
100
AcDbEntity
  8
図枠
  6
Continuous
 62
   110
 48
0.5
370
    35
100
AcDbLine
 10
409.5722641290421
 20
8406.176242127699
 30
0.0
 11
409.5722641290421
 21
8398.1762421277
 31
0.0
  0
LINE
  5
174F1
330
1E
100
AcDbEntity
  8
図枠
  6
Continuous
 62
   110
 48
0.5
370
    35
100
AcDbLine
 10
334.5722641290413
 20
8406.176242127699
 30
0.0
 11
334.5722641290413
 21
8398.1762421277
 31
0.0
  0
LINE
  5
174F2
330
1E
100
AcDbEntity
  8
図枠
  6
Continuous
 62
   110
 48
0.5
370
    35
100
AcDbLine
 10
259.5722641290413
 20
8406.176242127699
 30
0.0
 11
259.5722641290413
 21
8398.1762421277
 31
0.0
  0
MTEXT
  5
174F3
330
1E
100
AcDbEntity
  8
1-C_文字
  6
Continuous
 62
     7
 48
0.5
370
    18
100
AcDbMText
 10
259.5722641290413
 20
8405.1762421277
 30
0.0
 40
1.5
 41
0.0
 46
0.0
 71
     4
 72
     5
  1
名称
  7
明朝
 73
     1
 44
1.0
  0
MTEXT
  5
174F4
330
1E
100
AcDbEntity
  8
1-C_文字
  6
Continuous
 62
     7
 48
0.5
370
    18
100
AcDbMText
 10
334.5722641290413
 20
8405.1762421277
 30
0.0
 40
1.5
 41
0.0
 46
0.0
 71
     4
 72
     5
  1
材料・仕上
  7
明朝
 73
     1
 44
1.0
  0
MTEXT
  5
174F5
330
1E
100
AcDbEntity
  8
1-C_文字
  6
Continuous
 62
     7
 48
0.5
370
    18
100
AcDbMText
 10
439.5722641290412
 20
8405.1762421277
 30
0.0
 40
1.5
 41
0.0
 46
0.0
 71
     4
 72
     5
  1
縮尺
  7
明朝
 73
     1
 44
1.0
  0
MTEXT
  5
174F6
330
1E
100
AcDbEntity
  8
1-C_文字
  6
Continuous
 62
     7
 48
0.5
370
    18
100
AcDbMText
 10
409.5722641290421
 20
8405.1762421277
 30
0.0
 40
1.5
 41
0.0
 46
0.0
 71
     4
 72
     5
  1
製品重量
  7
明朝
 73
     1
 44
1.0
  0
LINE
  5
174F7
330
1E
100
AcDbEntity
  8
図枠
  6
Continuous
 62
   110
 48
0.5
370
    35
100
AcDbLine
 10
464.5722641290412
 20
8406.176242127699
 30
0.0
 11
464.5722641290412
 21
8398.1762421277
 31
0.0
  0
MTEXT
  5
174F8
330
1E
100
AcDbEntity
  8
1-C_文字
  6
Continuous
 62
     7
 48
0.5
370
    18
100
AcDbMText
 10
474.5722641290412
 20
8402.176242127699
 30
0.0
 40
4.0
 41
0.0
 46
0.0
 71
     4
 72
     5
  1
３６
  7
明朝
 73
     1
 44
1.0
  0
MTEXT
  5
174F9
330
1E
100
AcDbEntity
  8
1-C_文字
  6
Continuous
 62
     7
 48
0.5
370
    18
100
AcDbMText
 10
264.5722641290413
 20
8402.176242127699
 30
0.0
 40
3.0
 41
0.0
 46
0.0
 71
     4
 72
     5
  1
　　　　ソリッドヒンジ
  7
明朝
 73
     1
 44
1.0
  0
MTEXT
  5
174FA
330
1E
100
AcDbEntity
  8
1-C_文字
  6
Continuous
 62
     7
 48
0.5
370
    18
100
AcDbMText
 10
339.5722641290413
 20
8402.176242127699
 30
0.0
 40
3.0
 41
0.0
 46
0.0
 71
     4
 72
     5
  1
　　ステンレス　ヘアライン
  7
明朝
 73
     1
 44
1.0
  0
MTEXT
  5
174FB
330
1E
100
AcDbEntity
  8
1-C_文字
  6
Continuous
 62
     7
 48
0.5
370
    18
100
AcDbMText
 10
414.5722641290421
 20
8402.176242127699
 30
0.0
 40
3.0
 41
0.0
 46
0.0
 71
     4
 72
     5
  1
０.７５ｋｇ
  7
明朝
 73
     1
 44
1.0
  0
MTEXT
  5
174FC
330
1E
100
AcDbEntity
  8
1-C_文字
  6
Continuous
 62
     7
 48
0.5
370
    18
100
AcDbMText
 10
444.5722641290412
 20
8402.176242127699
 30
0.0
 40
3.0
 41
0.0
 46
0.0
 71
     4
 72
     5
  1
１：１
  7
明朝
 73
     1
 44
1.0
  0
DIMENSION
  5
174FE
330
1E
100
AcDbEntity
  8
1-B_寸法
  6
Continuous
 62
     3
 48
0.5
370
    18
100
AcDbDimension
280
     0
  2
*D6
 10
187.3773260816565
 20
8449.767564288142
 30
0.0
 11
175.3773260816565
 21
8449.767564288142
 31
0.0
 70
   160
 71
     5
 42
24.0
 73
     0
 74
     0
 75
     0
  3
ISO-25
100
AcDbAlignedDimension
 13
163.3773260816565
 23
8468.517564288141
 33
0.0
 14
187.3773260816565
 24
8468.517564288141
 34
0.0
100
AcDbRotatedDimension
  0
LINE
  5
174FF
330
1E
100
AcDbEntity
  8
1-0_本体
  6
Continuous
 62
     7
 48
0.5
370
    35
100
AcDbLine
 10
163.3773260816565
 20
8468.517564288141
 30
0.0
 11
187.3773260816565
 21
8468.517564288141
 31
0.0
  0
DIMENSION
  5
17500
330
1E
100
AcDbEntity
  8
1-B_寸法
  6
Continuous
 62
     3
 48
0.5
370
    18
100
AcDbDimension
280
     0
  2
*D7
 10
148.3773260816579
 20
8585.517564288142
 30
0.0
 11
148.3773260816565
 21
8541.017564288143
 31
0.0
 70
   160
 71
     5
 42
89.0
 73
     0
 74
     0
 75
     0
  3
ISO-25
100
AcDbAlignedDimension
 13
163.3773260816565
 23
8496.517564288142
 33
0.0
 14
163.3773260816565
 24
8585.517564288142
 34
0.0
 50
90.0
100
AcDbRotatedDimension
  0
DIMENSION
  5
17501
330
1E
100
AcDbEntity
  8
1-B_寸法
  6
Continuous
 62
     3
 48
0.5
370
    18
100
AcDbDimension
280
     0
  2
*D8
 10
148.3773260816579
 20
8620.517564288142
 30
0.0
 11
148.3773260816565
 21
8615.517564288142
 31
0.0
 70
   160
 71
     5
 42
10.0
 73
     0
 74
     0
 75
     0
  3
ISO-25
100
AcDbAlignedDimension
 13
163.3773260816565
 23
8610.517564288143
 33
0.0
 14
163.3773260816565
 24
8620.517564288142
 34
0.0
 50
90.0
100
AcDbRotatedDimension
  0
DIMENSION
  5
17502
330
1E
100
AcDbEntity
  8
1-B_寸法
  6
Continuous
 62
     3
 48
0.5
370
    18
100
AcDbDimension
280
     0
  2
*D9
 10
148.3773260816579
 20
8585.517564288142
 30
0.0
 11
148.3773260816565
 21
8598.017564288142
 31
0.0
 70
   160
 71
     5
 42
25.0
 73
     0
 74
     0
 75
     0
  3
ISO-25
100
AcDbAlignedDimension
 13
163.3773260816565
 23
8610.517564288143
 33
0.0
 14
163.3773260816565
 24
8585.517564288142
 34
0.0
 50
90.0
100
AcDbRotatedDimension
  0
POINT
  5
17504
330
1E
100
AcDbEntity
  8
1-B_寸法
  6
Continuous
 62
     3
 48
0.5
370
    18
100
AcDbPoint
 10
149.6983360816562
 20
8620.517564288142
 30
0.0
  0
POINT
  5
17505
330
1E
100
AcDbEntity
  8
1-B_寸法
  6
Continuous
 62
     3
 48
0.5
370
    18
100
AcDbPoint
 10
149.6983360816562
 20
8496.517564288142
 30
0.0
  0
LEADER
  5
17506
330
1E
100
AcDbEntity
  8
1-C_文字
  6
Continuous
 62
     3
 48
0.5
370
    18
100
AcDbLeader
  3
ISO-25
 76
     3
 10
215.3773310816577
 20
8555.517564288143
 30
0.0
 10
225.4565205454937
 20
8537.87898272643
 30
0.0
 10
226.8443482501079
 20
8537.87898272643
 30
0.0
211
0.999862615292127
221
0.0165756007791102
231
0.0
213
0.0497268023373306
223
-2.999587845876379
233
0.0
1001
ACAD
1000
DSTYLE
1002
{
1070
    41
1040
3.0
1070
   147
1040
0.625
1070
    77
1070
     0
1002
}
  0
MTEXT
  5
17507
330
1E
100
AcDbEntity
  8
1-C_文字
  6
Continuous
 62
     3
 48
0.5
370
    18
100
AcDbMText
 10
226.8443482501079
 20
8542.144653512174
 30
0.0
 40
3.0
 41
35.4622
 46
0.0
 71
     1
 72
     1
  1
８-Ｍ６×２０\P(ＳＵＳ丸皿ビス)
  7
明朝
 73
     1
 44
1.0
  0
MTEXT
  5
17508
330
1E
100
AcDbEntity
  8
1-C_文字
  6
Continuous
 62
     3
 48
0.5
370
    18
100
AcDbMText
 10
194.0341547502285
 20
8539.632677106324
 30
0.0
 40
3.0
 41
23.82721503942285
 46
0.0
 71
     1
 72
     1
  1
ドライメタル
  7
明朝
 73
     1
 44
1.0
  0
LEADER
  5
17509
330
1E
100
AcDbEntity
  8
1-C_文字
  6
Continuous
 62
     3
 48
0.5
370
    18
100
AcDbLeader
  3
ISO-25
 76
     3
 10
182.3773210816561
 20
8555.517564431523
 30
0.0
 10
192.4565105454917
 20
8537.878982869811
 30
0.0
 10
193.8443382501059
 20
8537.878982869811
 30
0.0
211
0.999862615292127
221
0.0165756007791102
231
0.0
213
0.0497268023373306
223
-2.999587845876379
233
0.0
1001
ACAD
1000
DSTYLE
1002
{
1070
    41
1040
3.0
1070
   147
1040
0.625
1070
    77
1070
     0
1002
}
  0
MTEXT
  5
1750A
330
1E
100
AcDbEntity
  8
1-C_文字
  6
Continuous
 62
     3
 48
0.5
370
    18
100
AcDbMText
 10
194.0341547502285
 20
8508.185363808506
 30
0.0
 40
3.0
 41
23.52927908476396
 46
0.0
 71
     1
 72
     1
  1
枠側左右共通
  7
明朝
 73
     1
 44
1.0
  0
LEADER
  5
1750B
330
1E
100
AcDbEntity
  8
1-C_文字
  6
Continuous
 62
     3
 48
0.5
370
    18
100
AcDbLeader
  3
ISO-25
 76
     3
 10
182.3603089132061
 20
8524.070251133705
 30
0.0
 10
192.4394983770417
 20
8506.431669571993
 30
0.0
 10
193.8273260816559
 20
8506.431669571993
 30
0.0
211
0.999862615292127
221
0.0165756007791102
231
0.0
213
0.0497268023373306
223
-2.999587845876379
233
0.0
1001
ACAD
1000
DSTYLE
1002
{
1070
    41
1040
3.0
1070
   147
1040
0.625
1070
    77
1070
     0
1002
}
  0
LINE
  5
1750C
330
1E
100
AcDbEntity
  8
1-0_本体
  6
Continuous
 62
     7
 48
0.5
370
    35
100
AcDbLine
 10
199.3773260816565
 20
8545.517564288143
 30
0.0
 11
199.3773260816565
 21
8620.517564288142
 31
0.0
  0
DIMENSION
  5
1750D
330
1E
100
AcDbEntity
  8
1-B_寸法
  6
Continuous
 62
     3
 48
0.5
370
    18
100
AcDbDimension
280
     0
  2
*D10
 10
270.3773260816579
 20
8555.516660643311
 30
0.0
 11
270.3773260816565
 21
8550.517112465726
 31
0.0
 70
   160
 71
     5
 42
9.999096355169967
 73
     0
 74
     0
 75
     0
  3
ISO-25
100
AcDbAlignedDimension
 13
255.3773260816565
 23
8545.517564288143
 33
0.0
 14
255.3773260233306
 24
8555.516660643311
 34
0.0
 50
90.0
100
AcDbRotatedDimension
  0
DIMENSION
  5
1750E
330
1E
100
AcDbEntity
  8
1-B_寸法
  6
Continuous
 62
     3
 48
0.5
370
    18
100
AcDbDimension
280
     0
  2
*D11
 10
270.3773260816579
 20
8555.516660643311
 30
0.0
 11
270.3773260816565
 21
8583.016208820898
 31
0.0
 70
   160
 71
     5
 42
54.99909635516996
 73
     0
 74
     0
 75
     0
  3
ISO-25
100
AcDbAlignedDimension
 13
255.3773260233306
 23
8610.515756998482
 33
0.0
 14
255.3773260233306
 24
8555.516660643311
 34
0.0
 50
90.0
100
AcDbRotatedDimension
  0
DIMENSION
  5
1750F
330
1E
100
AcDbEntity
  8
1-B_寸法
  6
Continuous
 62
     3
 48
0.5
370
    18
100
AcDbDimension
280
     0
  2
*D12
 10
270.3773260816579
 20
8620.517564288142
 30
0.0
 11
270.3773260816565
 21
8615.516660643313
 31
0.0
 70
   160
 71
     5
 42
10.00180728966006
 73
     0
 74
     0
 75
     0
  3
ISO-25
100
AcDbAlignedDimension
 13
255.3773260233306
 23
8610.515756998482
 33
0.0
 14
255.3773260233306
 24
8620.517564288142
 34
0.0
 50
90.0
100
AcDbRotatedDimension
  0
ARC
  5
17510
330
1E
100
AcDbEntity
  8
1-0_本体
  6
Continuous
 62
     7
 48
0.5
370
    35
100
AcDbCircle
 10
353.0473467583065
 20
8553.950277894085
 30
0.0
 40
1.6
100
AcDbArc
 50
218.3199662871042
 51
242.2933348806979
  0
ARC
  5
17511
330
1E
100
AcDbEntity
  8
1-0_本体
  6
Continuous
 62
     7
 48
0.5
370
    35
100
AcDbCircle
 10
354.6330370002975
 20
8553.947811511603
 30
0.0
 40
1.6
100
AcDbArc
 50
297.5284294580333
 51
330.005849827729
  0
LINE
  5
17512
330
1E
100
AcDbEntity
  8
1-0_本体
  6
Continuous
 62
     7
 48
0.5
370
    35
100
AcDbLine
 10
356.0187593181331
 20
8553.147952987956
 30
0.0
 11
362.9682365263725
 21
8565.187639232497
 31
0.0
  0
LINE
  5
17513
330
1E
100
AcDbEntity
  8
1-5_ビス2
  6
かくれ線
 62
     7
 48
0.5
370
    18
100
AcDbLine
 10
336.3773292568544
 20
8579.517564993201
 30
0.0
 11
336.3773293772456
 21
8563.517564876365
 31
0.0
  0
LINE
  5
17514
330
1E
100
AcDbEntity
  8
1-5_ビス2
  6
Continuous
 62
     7
 48
0.5
370
    18
100
AcDbLine
 10
409.3773295278156
 20
8568.517564288141
 30
0.0
 11
415.377329536011
 21
8568.517564288141
 31
0.0
  0
LINE
  5
17515
330
1E
100
AcDbEntity
  8
1-5_ビス2
  6
かくれ線
 62
     7
 48
0.5
370
    18
100
AcDbLine
 10
409.3773295278156
 20
8568.517564288141
 30
0.0
 11
415.3773295278174
 21
8568.517564288141
 31
0.0
  0
LINE
  5
17516
330
1E
100
AcDbEntity
  8
1-0_本体
  6
Continuous
 62
     7
 48
0.5
370
    35
100
AcDbLine
 10
330.3773260816551
 20
8565.517564288141
 30
0.0
 11
354.3773260816552
 21
8565.517564288141
 31
0.0
  0
LINE
  5
17517
330
1E
100
AcDbEntity
  8
1-5_ビス2
  6
かくれ線
 62
     7
 48
0.5
370
    18
100
AcDbLine
 10
379.3773280543001
 20
8568.517564288141
 30
0.0
 11
385.3773197593496
 21
8568.517569872829
 31
0.0
  0
LINE
  5
17518
330
1E
100
AcDbEntity
  8
1-5_ビス2
  6
かくれ線
 62
     7
 48
0.5
370
    18
100
AcDbLine
 10
342.3773243680807
 20
8563.517564989149
 30
0.0
 11
348.3773243680825
 21
8563.517563587135
 31
0.0
  0
LINE
  5
17519
330
1E
100
AcDbEntity
  8
1-5_ビス2
  6
かくれ線
 62
     7
 48
0.5
370
    18
100
AcDbLine
 10
336.3773290219888
 20
8563.517564989149
 30
0.0
 11
342.3773290219906
 21
8563.517563587135
 31
0.0
  0
LEADER
  5
1751A
330
1E
100
AcDbEntity
  8
1-C_文字
  6
Continuous
 62
     3
 48
0.5
370
    18
100
AcDbLeader
  3
ISO-25
 76
     3
 10
428.2704771111625
 20
8606.617543985663
 30
0.0
 10
434.4894983770409
 20
8617.500831200951
 30
0.0
 10
435.8773260816551
 20
8617.500831200951
 30
0.0
211
0.999862615292127
221
-0.0165756007791102
231
0.0
210
0.0
220
0.0
230
-1.0
213
0.0497268023373306
223
2.999587845876379
233
0.0
1001
ACAD
1000
DSTYLE
1002
{
1070
    41
1040
3.0
1070
   147
1040
0.625
1070
    77
1070
     0
1002
}
  0
MTEXT
  5
1751B
330
1E
100
AcDbEntity
  8
1-C_文字
  6
Continuous
 62
     3
 48
0.5
370
    18
100
AcDbMText
 10
436.0645012710851
 20
8619.164808605427
 30
0.0
 40
3.0
 41
4.4194
 46
0.0
 71
     1
 72
     1
  1
扉
  7
明朝
 73
     1
 44
1.0
  0
MTEXT
  5
1751C
330
1E
100
AcDbEntity
  8
1-C_文字
  6
Continuous
 62
     3
 48
0.5
370
    18
100
AcDbMText
 10
318.3611739419725
 20
8587.157078746422
 30
0.0
 40
3.0
 41
3.809703147808026
 46
0.0
 71
     1
 72
     1
  1
枠
  7
明朝
 73
     1
 44
1.0
  0
LEADER
  5
1751D
330
1E
100
AcDbEntity
  8
1-C_文字
  6
Continuous
 62
     3
 48
0.5
370
    18
100
AcDbLeader
  3
ISO-25
 76
     3
 10
328.6298559417965
 20
8576.779118465807
 30
0.0
 10
323.7603058074301
 20
8585.30083120095
 30
0.0
 10
322.3724781028159
 20
8585.30083120095
 30
0.0
211
-0.999862615292127
221
-0.0165756007791102
231
0.0
213
-0.0497268023373306
223
2.999587845876379
233
0.0
1001
ACAD
1000
DSTYLE
1002
{
1070
    41
1040
3.0
1070
   147
1040
0.625
1070
    77
1070
     0
1002
}
  0
LINE
  5
1751E
330
1E
100
AcDbEntity
  8
1-A_中心
  6
中心線
 62
     6
 48
0.25
370
    18
100
AcDbLine
 10
252.3773260233306
 20
8555.516660643311
 30
0.0
 11
238.3773261399842
 21
8555.518467932973
 31
0.0
  0
LINE
  5
1751F
330
1E
100
AcDbEntity
  8
1-A_中心
  6
中心線
 62
     6
 48
0.25
370
    18
100
AcDbLine
 10
245.3773260482021
 20
8562.517564288361
 30
0.0
 11
245.3773261151137
 21
8548.51756428836
 31
0.0
  0
LINE
  5
17520
330
1E
100
AcDbEntity
  8
1-4_ビス
  6
Continuous
 62
     7
 48
0.5
370
    35
100
AcDbLine
 10
243.3773210379864
 20
8556.016660663537
 30
0.0
 11
242.3773210379863
 21
8556.016660663537
 31
0.0
  0
LINE
  5
17521
330
1E
100
AcDbEntity
  8
1-4_ビス
  6
Continuous
 62
     7
 48
0.5
370
    35
100
AcDbLine
 10
244.8773210379863
 20
8557.516660663537
 30
0.0
 11
244.8773210379863
 21
8558.520630663537
 31
0.0
  0
ARC
  5
17522
330
1E
100
AcDbEntity
  8
1-4_ビス
  6
Continuous
 62
     7
 48
0.5
370
    35
100
AcDbCircle
 10
243.3773210379859
 20
8557.516660663537
 30
0.0
 40
1.5
100
AcDbArc
 50
270.0
 51
0.0
  0
LINE
  5
17523
330
1E
100
AcDbEntity
  8
1-4_ビス
  6
Continuous
 62
     7
 48
0.5
370
    35
100
AcDbLine
 10
247.3773210379864
 20
8555.016660663538
 30
0.0
 11
248.3773210379863
 21
8555.016660663538
 31
0.0
  0
LINE
  5
17524
330
1E
100
AcDbEntity
  8
1-4_ビス
  6
Continuous
 62
     7
 48
0.5
370
    35
100
AcDbLine
 10
245.8773210379864
 20
8553.516660663538
 30
0.0
 11
245.8773210379864
 21
8552.520630663536
 31
0.0
  0
ARC
  5
17525
330
1E
100
AcDbEntity
  8
1-4_ビス
  6
Continuous
 62
     7
 48
0.5
370
    35
100
AcDbCircle
 10
247.3773210379859
 20
8553.516660663538
 30
0.0
 40
1.5
100
AcDbArc
 50
90.0
 51
180.0
  0
LINE
  5
17526
330
1E
100
AcDbEntity
  8
1-4_ビス
  6
Continuous
 62
     7
 48
0.5
370
    35
100
AcDbLine
 10
248.3773210379863
 20
8555.016660663538
 30
0.0
 11
248.3773210379863
 21
8556.016660663537
 31
0.0
  0
LINE
  5
17527
330
1E
100
AcDbEntity
  8
1-4_ビス
  6
Continuous
 62
     7
 48
0.5
370
    35
100
AcDbLine
 10
244.8773210379863
 20
8558.520630663537
 30
0.0
 11
245.8773210379864
 21
8558.520630663537
 31
0.0
  0
LINE
  5
17528
330
1E
100
AcDbEntity
  8
1-4_ビス
  6
Continuous
 62
     7
 48
0.5
370
    35
100
AcDbLine
 10
245.8773210379864
 20
8557.516660663537
 30
0.0
 11
245.8773210379864
 21
8558.520630663537
 31
0.0
  0
LINE
  5
17529
330
1E
100
AcDbEntity
  8
1-4_ビス
  6
Continuous
 62
     7
 48
0.5
370
    35
100
AcDbLine
 10
247.3773210379864
 20
8556.016660663537
 30
0.0
 11
248.3773210379863
 21
8556.016660663537
 31
0.0
  0
ARC
  5
1752A
330
1E
100
AcDbEntity
  8
1-4_ビス
  6
Continuous
 62
     7
 48
0.5
370
    35
100
AcDbCircle
 10
247.3773210379859
 20
8557.516660663537
 30
0.0
 40
1.5
100
AcDbArc
 50
180.0
 51
270.0
  0
LINE
  5
1752B
330
1E
100
AcDbEntity
  8
1-4_ビス
  6
Continuous
 62
     7
 48
0.5
370
    35
100
AcDbLine
 10
244.8773210379863
 20
8552.520630663536
 30
0.0
 11
245.8773210379864
 21
8552.520630663536
 31
0.0
  0
LINE
  5
1752C
330
1E
100
AcDbEntity
  8
1-4_ビス
  6
Continuous
 62
     7
 48
0.5
370
    35
100
AcDbLine
 10
242.3773210379863
 20
8556.016660663537
 30
0.0
 11
242.3773210379863
 21
8555.016660663538
 31
0.0
  0
LINE
  5
1752D
330
1E
100
AcDbEntity
  8
1-4_ビス
  6
Continuous
 62
     7
 48
0.5
370
    35
100
AcDbLine
 10
244.8773210379863
 20
8553.516660663538
 30
0.0
 11
244.8773210379863
 21
8552.520630663536
 31
0.0
  0
LINE
  5
1752E
330
1E
100
AcDbEntity
  8
1-4_ビス
  6
Continuous
 62
     7
 48
0.5
370
    35
100
AcDbLine
 10
243.3773210379864
 20
8555.016660663538
 30
0.0
 11
242.3773210379863
 21
8555.016660663538
 31
0.0
  0
ARC
  5
1752F
330
1E
100
AcDbEntity
  8
1-4_ビス
  6
Continuous
 62
     7
 48
0.5
370
    35
100
AcDbCircle
 10
243.3773210379859
 20
8553.516660663538
 30
0.0
 40
1.5
100
AcDbArc
 50
0.0
 51
90.0
  0
CIRCLE
  5
17530
330
1E
100
AcDbEntity
  8
1-4_ビス
  6
Continuous
 62
     7
 48
0.5
370
    35
100
AcDbCircle
 10
245.3773260812859
 20
8555.517564288361
 30
0.0
 40
6.0
  0
CIRCLE
  5
17531
330
1E
100
AcDbEntity
  8
1-4_ビス
  6
Continuous
 62
     7
 48
0.5
370
    35
100
AcDbCircle
 10
215.3773310812858
 20
8555.517564288361
 30
0.0
 40
6.0
  0
ARC
  5
17532
330
1E
100
AcDbEntity
  8
1-4_ビス
  6
Continuous
 62
     7
 48
0.5
370
    35
100
AcDbCircle
 10
213.3773260379858
 20
8553.516660663538
 30
0.0
 40
1.5
100
AcDbArc
 50
0.0
 51
90.0
  0
LINE
  5
17533
330
1E
100
AcDbEntity
  8
1-4_ビス
  6
Continuous
 62
     7
 48
0.5
370
    35
100
AcDbLine
 10
213.3773260379862
 20
8555.016660663538
 30
0.0
 11
212.3773260379862
 21
8555.016660663538
 31
0.0
  0
LINE
  5
17534
330
1E
100
AcDbEntity
  8
1-4_ビス
  6
Continuous
 62
     7
 48
0.5
370
    35
100
AcDbLine
 10
214.8773260379862
 20
8553.516660663538
 30
0.0
 11
214.8773260379862
 21
8552.520630663536
 31
0.0
  0
LINE
  5
17535
330
1E
100
AcDbEntity
  8
1-4_ビス
  6
Continuous
 62
     7
 48
0.5
370
    35
100
AcDbLine
 10
212.3773260379862
 20
8556.016660663537
 30
0.0
 11
212.3773260379862
 21
8555.016660663538
 31
0.0
  0
LINE
  5
17536
330
1E
100
AcDbEntity
  8
1-4_ビス
  6
Continuous
 62
     7
 48
0.5
370
    35
100
AcDbLine
 10
214.8773260379862
 20
8552.520630663536
 30
0.0
 11
215.8773260379862
 21
8552.520630663536
 31
0.0
  0
ARC
  5
17537
330
1E
100
AcDbEntity
  8
1-4_ビス
  6
Continuous
 62
     7
 48
0.5
370
    35
100
AcDbCircle
 10
217.3773260379858
 20
8557.516660663537
 30
0.0
 40
1.5
100
AcDbArc
 50
180.0
 51
270.0
  0
LINE
  5
17538
330
1E
100
AcDbEntity
  8
1-4_ビス
  6
Continuous
 62
     7
 48
0.5
370
    35
100
AcDbLine
 10
217.3773260379862
 20
8556.016660663537
 30
0.0
 11
218.3773260379862
 21
8556.016660663537
 31
0.0
  0
LINE
  5
17539
330
1E
100
AcDbEntity
  8
1-4_ビス
  6
Continuous
 62
     7
 48
0.5
370
    35
100
AcDbLine
 10
215.8773260379862
 20
8557.516660663537
 30
0.0
 11
215.8773260379862
 21
8558.520630663537
 31
0.0
  0
LINE
  5
1753A
330
1E
100
AcDbEntity
  8
1-4_ビス
  6
Continuous
 62
     7
 48
0.5
370
    35
100
AcDbLine
 10
214.8773260379862
 20
8558.520630663537
 30
0.0
 11
215.8773260379862
 21
8558.520630663537
 31
0.0
  0
LINE
  5
1753B
330
1E
100
AcDbEntity
  8
1-4_ビス
  6
Continuous
 62
     7
 48
0.5
370
    35
100
AcDbLine
 10
218.3773260379862
 20
8555.016660663538
 30
0.0
 11
218.3773260379862
 21
8556.016660663537
 31
0.0
  0
ARC
  5
1753C
330
1E
100
AcDbEntity
  8
1-4_ビス
  6
Continuous
 62
     7
 48
0.5
370
    35
100
AcDbCircle
 10
217.3773260379858
 20
8553.516660663538
 30
0.0
 40
1.5
100
AcDbArc
 50
90.0
 51
180.0
  0
LINE
  5
1753D
330
1E
100
AcDbEntity
  8
1-4_ビス
  6
Continuous
 62
     7
 48
0.5
370
    35
100
AcDbLine
 10
215.8773260379862
 20
8553.516660663538
 30
0.0
 11
215.8773260379862
 21
8552.520630663536
 31
0.0
  0
LINE
  5
1753E
330
1E
100
AcDbEntity
  8
1-4_ビス
  6
Continuous
 62
     7
 48
0.5
370
    35
100
AcDbLine
 10
217.3773260379862
 20
8555.016660663538
 30
0.0
 11
218.3773260379862
 21
8555.016660663538
 31
0.0
  0
ARC
  5
1753F
330
1E
100
AcDbEntity
  8
1-4_ビス
  6
Continuous
 62
     7
 48
0.5
370
    35
100
AcDbCircle
 10
213.3773260379858
 20
8557.516660663537
 30
0.0
 40
1.5
100
AcDbArc
 50
270.0
 51
0.0
  0
LINE
  5
17540
330
1E
100
AcDbEntity
  8
1-4_ビス
  6
Continuous
 62
     7
 48
0.5
370
    35
100
AcDbLine
 10
214.8773260379862
 20
8557.516660663537
 30
0.0
 11
214.8773260379862
 21
8558.520630663537
 31
0.0
  0
LINE
  5
17541
330
1E
100
AcDbEntity
  8
1-4_ビス
  6
Continuous
 62
     7
 48
0.5
370
    35
100
AcDbLine
 10
213.3773260379862
 20
8556.016660663537
 30
0.0
 11
212.3773260379862
 21
8556.016660663537
 31
0.0
  0
LINE
  5
17542
330
1E
100
AcDbEntity
  8
1-A_中心
  6
中心線
 62
     6
 48
0.25
370
    18
100
AcDbLine
 10
215.377331048202
 20
8562.517564288361
 30
0.0
 11
215.3773311151135
 21
8548.51756428836
 31
0.0
  0
LINE
  5
17543
330
1E
100
AcDbEntity
  8
1-A_中心
  6
中心線
 62
     6
 48
0.25
370
    18
100
AcDbLine
 10
222.3773310233305
 20
8555.516660643311
 30
0.0
 11
208.3773311399841
 21
8555.518467932973
 31
0.0
  0
LINE
  5
17544
330
1E
100
AcDbEntity
  8
1-A_中心
  6
中心線
 62
     6
 48
0.25
370
    18
100
AcDbLine
 10
252.3773260233306
 20
8610.515756998482
 30
0.0
 11
238.3773261399842
 21
8610.517564288143
 31
0.0
  0
LINE
  5
17545
330
1E
100
AcDbEntity
  8
1-A_中心
  6
中心線
 62
     6
 48
0.25
370
    18
100
AcDbLine
 10
245.3773260482021
 20
8617.516660643531
 30
0.0
 11
245.3773261151137
 21
8603.516660643531
 31
0.0
  0
LINE
  5
17546
330
1E
100
AcDbEntity
  8
1-4_ビス
  6
Continuous
 62
     7
 48
0.5
370
    35
100
AcDbLine
 10
243.3773210379864
 20
8611.015757018707
 30
0.0
 11
242.3773210379863
 21
8611.015757018707
 31
0.0
  0
LINE
  5
17547
330
1E
100
AcDbEntity
  8
1-4_ビス
  6
Continuous
 62
     7
 48
0.5
370
    35
100
AcDbLine
 10
244.8773210379863
 20
8612.515757018707
 30
0.0
 11
244.8773210379863
 21
8613.519727018708
 31
0.0
  0
ARC
  5
17548
330
1E
100
AcDbEntity
  8
1-4_ビス
  6
Continuous
 62
     7
 48
0.5
370
    35
100
AcDbCircle
 10
243.3773210379859
 20
8612.515757018707
 30
0.0
 40
1.5
100
AcDbArc
 50
270.0
 51
0.0
  0
LINE
  5
17549
330
1E
100
AcDbEntity
  8
1-4_ビス
  6
Continuous
 62
     7
 48
0.5
370
    35
100
AcDbLine
 10
247.3773210379864
 20
8610.015757018707
 30
0.0
 11
248.3773210379863
 21
8610.015757018707
 31
0.0
  0
LINE
  5
1754A
330
1E
100
AcDbEntity
  8
1-4_ビス
  6
Continuous
 62
     7
 48
0.5
370
    35
100
AcDbLine
 10
245.8773210379864
 20
8608.515757018707
 30
0.0
 11
245.8773210379864
 21
8607.519727018708
 31
0.0
  0
ARC
  5
1754B
330
1E
100
AcDbEntity
  8
1-4_ビス
  6
Continuous
 62
     7
 48
0.5
370
    35
100
AcDbCircle
 10
247.3773210379859
 20
8608.515757018707
 30
0.0
 40
1.5
100
AcDbArc
 50
90.0
 51
180.0
  0
LINE
  5
1754C
330
1E
100
AcDbEntity
  8
1-4_ビス
  6
Continuous
 62
     7
 48
0.5
370
    35
100
AcDbLine
 10
248.3773210379863
 20
8610.015757018707
 30
0.0
 11
248.3773210379863
 21
8611.015757018707
 31
0.0
  0
LINE
  5
1754D
330
1E
100
AcDbEntity
  8
1-4_ビス
  6
Continuous
 62
     7
 48
0.5
370
    35
100
AcDbLine
 10
244.8773210379863
 20
8613.519727018708
 30
0.0
 11
245.8773210379864
 21
8613.519727018708
 31
0.0
  0
LINE
  5
1754E
330
1E
100
AcDbEntity
  8
1-4_ビス
  6
Continuous
 62
     7
 48
0.5
370
    35
100
AcDbLine
 10
245.8773210379864
 20
8612.515757018707
 30
0.0
 11
245.8773210379864
 21
8613.519727018708
 31
0.0
  0
LINE
  5
1754F
330
1E
100
AcDbEntity
  8
1-4_ビス
  6
Continuous
 62
     7
 48
0.5
370
    35
100
AcDbLine
 10
247.3773210379864
 20
8611.015757018707
 30
0.0
 11
248.3773210379863
 21
8611.015757018707
 31
0.0
  0
ARC
  5
17550
330
1E
100
AcDbEntity
  8
1-4_ビス
  6
Continuous
 62
     7
 48
0.5
370
    35
100
AcDbCircle
 10
247.3773210379859
 20
8612.515757018707
 30
0.0
 40
1.5
100
AcDbArc
 50
180.0
 51
270.0
  0
LINE
  5
17551
330
1E
100
AcDbEntity
  8
1-4_ビス
  6
Continuous
 62
     7
 48
0.5
370
    35
100
AcDbLine
 10
244.8773210379863
 20
8607.519727018708
 30
0.0
 11
245.8773210379864
 21
8607.519727018708
 31
0.0
  0
LINE
  5
17552
330
1E
100
AcDbEntity
  8
1-4_ビス
  6
Continuous
 62
     7
 48
0.5
370
    35
100
AcDbLine
 10
242.3773210379863
 20
8611.015757018707
 30
0.0
 11
242.3773210379863
 21
8610.015757018707
 31
0.0
  0
LINE
  5
17553
330
1E
100
AcDbEntity
  8
1-4_ビス
  6
Continuous
 62
     7
 48
0.5
370
    35
100
AcDbLine
 10
244.8773210379863
 20
8608.515757018707
 30
0.0
 11
244.8773210379863
 21
8607.519727018708
 31
0.0
  0
LINE
  5
17554
330
1E
100
AcDbEntity
  8
1-4_ビス
  6
Continuous
 62
     7
 48
0.5
370
    35
100
AcDbLine
 10
243.3773210379864
 20
8610.015757018707
 30
0.0
 11
242.3773210379863
 21
8610.015757018707
 31
0.0
  0
ARC
  5
17555
330
1E
100
AcDbEntity
  8
1-4_ビス
  6
Continuous
 62
     7
 48
0.5
370
    35
100
AcDbCircle
 10
243.3773210379859
 20
8608.515757018707
 30
0.0
 40
1.5
100
AcDbArc
 50
0.0
 51
90.0
  0
CIRCLE
  5
17556
330
1E
100
AcDbEntity
  8
1-4_ビス
  6
Continuous
 62
     7
 48
0.5
370
    35
100
AcDbCircle
 10
245.3773260812859
 20
8610.516660643531
 30
0.0
 40
6.0
  0
CIRCLE
  5
17557
330
1E
100
AcDbEntity
  8
1-4_ビス
  6
Continuous
 62
     7
 48
0.5
370
    35
100
AcDbCircle
 10
215.3773260812859
 20
8610.516660643531
 30
0.0
 40
6.0
  0
ARC
  5
17558
330
1E
100
AcDbEntity
  8
1-4_ビス
  6
Continuous
 62
     7
 48
0.5
370
    35
100
AcDbCircle
 10
213.3773210379859
 20
8608.515757018707
 30
0.0
 40
1.5
100
AcDbArc
 50
0.0
 51
90.0
  0
LINE
  5
17559
330
1E
100
AcDbEntity
  8
1-4_ビス
  6
Continuous
 62
     7
 48
0.5
370
    35
100
AcDbLine
 10
213.3773210379863
 20
8610.015757018707
 30
0.0
 11
212.3773210379864
 21
8610.015757018707
 31
0.0
  0
LINE
  5
1755A
330
1E
100
AcDbEntity
  8
1-4_ビス
  6
Continuous
 62
     7
 48
0.5
370
    35
100
AcDbLine
 10
214.8773210379864
 20
8608.515757018707
 30
0.0
 11
214.8773210379864
 21
8607.519727018708
 31
0.0
  0
LINE
  5
1755B
330
1E
100
AcDbEntity
  8
1-4_ビス
  6
Continuous
 62
     7
 48
0.5
370
    35
100
AcDbLine
 10
212.3773210379864
 20
8611.015757018707
 30
0.0
 11
212.3773210379864
 21
8610.015757018707
 31
0.0
  0
LINE
  5
1755C
330
1E
100
AcDbEntity
  8
1-4_ビス
  6
Continuous
 62
     7
 48
0.5
370
    35
100
AcDbLine
 10
214.8773210379864
 20
8607.519727018708
 30
0.0
 11
215.8773210379863
 21
8607.519727018708
 31
0.0
  0
ARC
  5
1755D
330
1E
100
AcDbEntity
  8
1-4_ビス
  6
Continuous
 62
     7
 48
0.5
370
    35
100
AcDbCircle
 10
217.3773210379859
 20
8612.515757018707
 30
0.0
 40
1.5
100
AcDbArc
 50
180.0
 51
270.0
  0
LINE
  5
1755E
330
1E
100
AcDbEntity
  8
1-4_ビス
  6
Continuous
 62
     7
 48
0.5
370
    35
100
AcDbLine
 10
217.3773210379863
 20
8611.015757018707
 30
0.0
 11
218.3773210379864
 21
8611.015757018707
 31
0.0
  0
LINE
  5
1755F
330
1E
100
AcDbEntity
  8
1-4_ビス
  6
Continuous
 62
     7
 48
0.5
370
    35
100
AcDbLine
 10
215.8773210379863
 20
8612.515757018707
 30
0.0
 11
215.8773210379863
 21
8613.519727018708
 31
0.0
  0
LINE
  5
17560
330
1E
100
AcDbEntity
  8
1-4_ビス
  6
Continuous
 62
     7
 48
0.5
370
    35
100
AcDbLine
 10
214.8773210379864
 20
8613.519727018708
 30
0.0
 11
215.8773210379863
 21
8613.519727018708
 31
0.0
  0
LINE
  5
17561
330
1E
100
AcDbEntity
  8
1-4_ビス
  6
Continuous
 62
     7
 48
0.5
370
    35
100
AcDbLine
 10
218.3773210379864
 20
8610.015757018707
 30
0.0
 11
218.3773210379864
 21
8611.015757018707
 31
0.0
  0
ARC
  5
17562
330
1E
100
AcDbEntity
  8
1-4_ビス
  6
Continuous
 62
     7
 48
0.5
370
    35
100
AcDbCircle
 10
217.3773210379859
 20
8608.515757018707
 30
0.0
 40
1.5
100
AcDbArc
 50
90.0
 51
180.0
  0
LINE
  5
17563
330
1E
100
AcDbEntity
  8
1-4_ビス
  6
Continuous
 62
     7
 48
0.5
370
    35
100
AcDbLine
 10
215.8773210379863
 20
8608.515757018707
 30
0.0
 11
215.8773210379863
 21
8607.519727018708
 31
0.0
  0
LINE
  5
17564
330
1E
100
AcDbEntity
  8
1-4_ビス
  6
Continuous
 62
     7
 48
0.5
370
    35
100
AcDbLine
 10
217.3773210379863
 20
8610.015757018707
 30
0.0
 11
218.3773210379864
 21
8610.015757018707
 31
0.0
  0
ARC
  5
17565
330
1E
100
AcDbEntity
  8
1-4_ビス
  6
Continuous
 62
     7
 48
0.5
370
    35
100
AcDbCircle
 10
213.3773210379859
 20
8612.515757018707
 30
0.0
 40
1.5
100
AcDbArc
 50
270.0
 51
0.0
  0
LINE
  5
17566
330
1E
100
AcDbEntity
  8
1-4_ビス
  6
Continuous
 62
     7
 48
0.5
370
    35
100
AcDbLine
 10
214.8773210379864
 20
8612.515757018707
 30
0.0
 11
214.8773210379864
 21
8613.519727018708
 31
0.0
  0
LINE
  5
17567
330
1E
100
AcDbEntity
  8
1-4_ビス
  6
Continuous
 62
     7
 48
0.5
370
    35
100
AcDbLine
 10
213.3773210379863
 20
8611.015757018707
 30
0.0
 11
212.3773210379864
 21
8611.015757018707
 31
0.0
  0
LINE
  5
17568
330
1E
100
AcDbEntity
  8
1-A_中心
  6
中心線
 62
     6
 48
0.25
370
    18
100
AcDbLine
 10
215.3773260482021
 20
8617.516660643531
 30
0.0
 11
215.3773261151136
 21
8603.516660643531
 31
0.0
  0
LINE
  5
17569
330
1E
100
AcDbEntity
  8
1-A_中心
  6
中心線
 62
     6
 48
0.25
370
    18
100
AcDbLine
 10
222.3773260233306
 20
8610.515756998482
 30
0.0
 11
208.3773261399842
 21
8610.517564288143
 31
0.0
  0
CIRCLE
  5
1756A
330
1E
100
AcDbEntity
  8
1-5_ビス2
  6
かくれ線
 62
     7
 48
0.5
370
    18
100
AcDbCircle
 10
178.3773310911301
 20
8585.516660643531
 30
0.0
 40
6.0
  0
LINE
  5
1756B
330
1E
100
AcDbEntity
  8
1-5_ビス2
  6
かくれ線
 62
     7
 48
0.5
370
    18
100
AcDbLine
 10
176.3773260478306
 20
8586.015757018707
 30
0.0
 11
175.3773260478306
 21
8586.015757018707
 31
0.0
  0
LINE
  5
1756C
330
1E
100
AcDbEntity
  8
1-5_ビス2
  6
かくれ線
 62
     7
 48
0.5
370
    18
100
AcDbLine
 10
177.8773260478306
 20
8587.515757018707
 30
0.0
 11
177.8773260478306
 21
8588.519727018708
 31
0.0
  0
ARC
  5
1756D
330
1E
100
AcDbEntity
  8
1-5_ビス2
  6
かくれ線
 62
     7
 48
0.5
370
    18
100
AcDbCircle
 10
176.3773260478306
 20
8587.515757018707
 30
0.0
 40
1.5
100
AcDbArc
 50
270.0
 51
0.0
  0
LINE
  5
1756E
330
1E
100
AcDbEntity
  8
1-5_ビス2
  6
かくれ線
 62
     7
 48
0.5
370
    18
100
AcDbLine
 10
180.3773260478306
 20
8585.015757018707
 30
0.0
 11
181.3773260478306
 21
8585.015757018707
 31
0.0
  0
LINE
  5
1756F
330
1E
100
AcDbEntity
  8
1-5_ビス2
  6
かくれ線
 62
     7
 48
0.5
370
    18
100
AcDbLine
 10
178.8773260478306
 20
8583.515757018707
 30
0.0
 11
178.8773260478306
 21
8582.519727018707
 31
0.0
  0
ARC
  5
17570
330
1E
100
AcDbEntity
  8
1-5_ビス2
  6
かくれ線
 62
     7
 48
0.5
370
    18
100
AcDbCircle
 10
180.3773260478306
 20
8583.515757018707
 30
0.0
 40
1.5
100
AcDbArc
 50
90.0
 51
180.0
  0
LINE
  5
17571
330
1E
100
AcDbEntity
  8
1-5_ビス2
  6
かくれ線
 62
     7
 48
0.5
370
    18
100
AcDbLine
 10
181.3773260478306
 20
8585.015757018707
 30
0.0
 11
181.3773260478306
 21
8586.015757018707
 31
0.0
  0
LINE
  5
17572
330
1E
100
AcDbEntity
  8
1-5_ビス2
  6
かくれ線
 62
     7
 48
0.5
370
    18
100
AcDbLine
 10
177.8773260478306
 20
8588.519727018708
 30
0.0
 11
178.8773260478306
 21
8588.519727018708
 31
0.0
  0
LINE
  5
17573
330
1E
100
AcDbEntity
  8
1-5_ビス2
  6
かくれ線
 62
     7
 48
0.5
370
    18
100
AcDbLine
 10
178.8773260478306
 20
8587.515757018707
 30
0.0
 11
178.8773260478306
 21
8588.519727018708
 31
0.0
  0
LINE
  5
17574
330
1E
100
AcDbEntity
  8
1-5_ビス2
  6
かくれ線
 62
     7
 48
0.5
370
    18
100
AcDbLine
 10
180.3773260478306
 20
8586.015757018707
 30
0.0
 11
181.3773260478306
 21
8586.015757018707
 31
0.0
  0
ARC
  5
17575
330
1E
100
AcDbEntity
  8
1-5_ビス2
  6
かくれ線
 62
     7
 48
0.5
370
    18
100
AcDbCircle
 10
180.3773260478306
 20
8587.515757018707
 30
0.0
 40
1.5
100
AcDbArc
 50
180.0
 51
270.0
  0
LINE
  5
17576
330
1E
100
AcDbEntity
  8
1-5_ビス2
  6
かくれ線
 62
     7
 48
0.5
370
    18
100
AcDbLine
 10
177.8773260478306
 20
8582.519727018707
 30
0.0
 11
178.8773260478306
 21
8582.519727018707
 31
0.0
  0
LINE
  5
17577
330
1E
100
AcDbEntity
  8
1-5_ビス2
  6
かくれ線
 62
     7
 48
0.5
370
    18
100
AcDbLine
 10
175.3773260478306
 20
8586.015757018707
 30
0.0
 11
175.3773260478306
 21
8585.015757018707
 31
0.0
  0
LINE
  5
17578
330
1E
100
AcDbEntity
  8
1-5_ビス2
  6
かくれ線
 62
     7
 48
0.5
370
    18
100
AcDbLine
 10
177.8773260478306
 20
8583.515757018707
 30
0.0
 11
177.8773260478306
 21
8582.519727018707
 31
0.0
  0
LINE
  5
17579
330
1E
100
AcDbEntity
  8
1-5_ビス2
  6
かくれ線
 62
     7
 48
0.5
370
    18
100
AcDbLine
 10
176.3773260478306
 20
8585.015757018707
 30
0.0
 11
175.3773260478306
 21
8585.015757018707
 31
0.0
  0
ARC
  5
1757A
330
1E
100
AcDbEntity
  8
1-5_ビス2
  6
かくれ線
 62
     7
 48
0.5
370
    18
100
AcDbCircle
 10
176.3773260478306
 20
8583.515757018707
 30
0.0
 40
1.5
100
AcDbArc
 50
0.0
 51
90.0
  0
LINE
  5
1757B
330
1E
100
AcDbEntity
  8
1-A_中心
  6
中心線
 62
     6
 48
0.25
370
    18
100
AcDbLine
 10
185.3773310331748
 20
8585.515756998482
 30
0.0
 11
171.3773311498284
 21
8585.517564288142
 31
0.0
  0
LINE
  5
1757C
330
1E
100
AcDbEntity
  8
1-A_中心
  6
中心線
 62
     6
 48
0.25
370
    18
100
AcDbLine
 10
178.3773310580463
 20
8592.51666064353
 30
0.0
 11
178.3773311249579
 21
8578.516660643531
 31
0.0
  0
LINE
  5
1757D
330
1E
100
AcDbEntity
  8
1-A_中心
  6
中心線
 62
     6
 48
0.25
370
    18
100
AcDbLine
 10
172.3772758939849
 20
8617.516660643531
 30
0.0
 11
172.377275960896
 21
8603.516660643531
 31
0.0
  0
LINE
  5
1757E
330
1E
100
AcDbEntity
  8
1-A_中心
  6
中心線
 62
     6
 48
0.25
370
    18
100
AcDbLine
 10
179.3772758691134
 20
8610.515756998482
 30
0.0
 11
165.3772759857665
 21
8610.517564288143
 31
0.0
  0
LINE
  5
1757F
330
1E
100
AcDbEntity
  8
1-5_ビス2
  6
かくれ線
 62
     7
 48
0.5
370
    18
100
AcDbLine
 10
171.8772708837687
 20
8607.519727018708
 30
0.0
 11
172.8772708837687
 21
8607.519727018708
 31
0.0
  0
LINE
  5
17580
330
1E
100
AcDbEntity
  8
1-5_ビス2
  6
かくれ線
 62
     7
 48
0.5
370
    18
100
AcDbLine
 10
172.8772708837687
 20
8608.515757018707
 30
0.0
 11
172.8772708837687
 21
8607.519727018708
 31
0.0
  0
ARC
  5
17581
330
1E
100
AcDbEntity
  8
1-5_ビス2
  6
かくれ線
 62
     7
 48
0.5
370
    18
100
AcDbCircle
 10
170.3772708837687
 20
8608.515757018707
 30
0.0
 40
1.5
100
AcDbArc
 50
0.0
 51
90.0
  0
LINE
  5
17582
330
1E
100
AcDbEntity
  8
1-5_ビス2
  6
かくれ線
 62
     7
 48
0.5
370
    18
100
AcDbLine
 10
170.3772708837687
 20
8610.015757018707
 30
0.0
 11
169.3772708837687
 21
8610.015757018707
 31
0.0
  0
LINE
  5
17583
330
1E
100
AcDbEntity
  8
1-5_ビス2
  6
かくれ線
 62
     7
 48
0.5
370
    18
100
AcDbLine
 10
171.8772708837687
 20
8608.515757018707
 30
0.0
 11
171.8772708837687
 21
8607.519727018708
 31
0.0
  0
LINE
  5
17584
330
1E
100
AcDbEntity
  8
1-5_ビス2
  6
かくれ線
 62
     7
 48
0.5
370
    18
100
AcDbLine
 10
169.3772708837687
 20
8611.015757018707
 30
0.0
 11
169.3772708837687
 21
8610.015757018707
 31
0.0
  0
ARC
  5
17585
330
1E
100
AcDbEntity
  8
1-5_ビス2
  6
かくれ線
 62
     7
 48
0.5
370
    18
100
AcDbCircle
 10
174.3772708837687
 20
8612.515757018707
 30
0.0
 40
1.5
100
AcDbArc
 50
180.0
 51
270.0
  0
LINE
  5
17586
330
1E
100
AcDbEntity
  8
1-5_ビス2
  6
かくれ線
 62
     7
 48
0.5
370
    18
100
AcDbLine
 10
174.3772708837687
 20
8611.015757018707
 30
0.0
 11
175.3772708837687
 21
8611.015757018707
 31
0.0
  0
LINE
  5
17587
330
1E
100
AcDbEntity
  8
1-5_ビス2
  6
かくれ線
 62
     7
 48
0.5
370
    18
100
AcDbLine
 10
172.8772708837687
 20
8612.515757018707
 30
0.0
 11
172.8772708837687
 21
8613.519727018708
 31
0.0
  0
LINE
  5
17588
330
1E
100
AcDbEntity
  8
1-5_ビス2
  6
かくれ線
 62
     7
 48
0.5
370
    18
100
AcDbLine
 10
171.8772708837687
 20
8613.519727018708
 30
0.0
 11
172.8772708837687
 21
8613.519727018708
 31
0.0
  0
LINE
  5
17589
330
1E
100
AcDbEntity
  8
1-5_ビス2
  6
かくれ線
 62
     7
 48
0.5
370
    18
100
AcDbLine
 10
175.3772708837687
 20
8610.015757018707
 30
0.0
 11
175.3772708837687
 21
8611.015757018707
 31
0.0
  0
ARC
  5
1758A
330
1E
100
AcDbEntity
  8
1-5_ビス2
  6
かくれ線
 62
     7
 48
0.5
370
    18
100
AcDbCircle
 10
174.3772708837687
 20
8608.515757018707
 30
0.0
 40
1.5
100
AcDbArc
 50
90.0
 51
180.0
  0
LINE
  5
1758B
330
1E
100
AcDbEntity
  8
1-5_ビス2
  6
かくれ線
 62
     7
 48
0.5
370
    18
100
AcDbLine
 10
172.8772708837687
 20
8608.515757018707
 30
0.0
 11
172.8772708837687
 21
8607.519727018708
 31
0.0
  0
LINE
  5
1758C
330
1E
100
AcDbEntity
  8
1-5_ビス2
  6
かくれ線
 62
     7
 48
0.5
370
    18
100
AcDbLine
 10
174.3772708837687
 20
8610.015757018707
 30
0.0
 11
175.3772708837687
 21
8610.015757018707
 31
0.0
  0
ARC
  5
1758D
330
1E
100
AcDbEntity
  8
1-5_ビス2
  6
かくれ線
 62
     7
 48
0.5
370
    18
100
AcDbCircle
 10
170.3772708837687
 20
8612.515757018707
 30
0.0
 40
1.5
100
AcDbArc
 50
270.0
 51
0.0
  0
LINE
  5
1758E
330
1E
100
AcDbEntity
  8
1-5_ビス2
  6
かくれ線
 62
     7
 48
0.5
370
    18
100
AcDbLine
 10
171.8772708837687
 20
8612.515757018707
 30
0.0
 11
171.8772708837687
 21
8613.519727018708
 31
0.0
  0
LINE
  5
1758F
330
1E
100
AcDbEntity
  8
1-5_ビス2
  6
かくれ線
 62
     7
 48
0.5
370
    18
100
AcDbLine
 10
170.3772708837687
 20
8611.015757018707
 30
0.0
 11
169.3772708837687
 21
8611.015757018707
 31
0.0
  0
CIRCLE
  5
17590
330
1E
100
AcDbEntity
  8
1-5_ビス2
  6
かくれ線
 62
     7
 48
0.5
370
    18
100
AcDbCircle
 10
172.3772759270682
 20
8610.516660643531
 30
0.0
 40
6.0
  0
LINE
  5
17591
330
1E
100
AcDbEntity
  8
1-4_ビス
  6
Continuous
 62
     7
 48
0.5
370
    35
100
AcDbLine
 10
170.377326076501
 20
8497.015757018708
 30
0.0
 11
169.377326076501
 21
8497.015757018708
 31
0.0
  0
LINE
  5
17592
330
1E
100
AcDbEntity
  8
1-4_ビス
  6
Continuous
 62
     7
 48
0.5
370
    35
100
AcDbLine
 10
171.877326076501
 20
8498.515757018706
 30
0.0
 11
171.877326076501
 21
8499.519727018707
 31
0.0
  0
ARC
  5
17593
330
1E
100
AcDbEntity
  8
1-4_ビス
  6
Continuous
 62
     7
 48
0.5
370
    35
100
AcDbCircle
 10
170.377326076501
 20
8498.515757018706
 30
0.0
 40
1.5
100
AcDbArc
 50
270.0
 51
0.0
  0
LINE
  5
17594
330
1E
100
AcDbEntity
  8
1-4_ビス
  6
Continuous
 62
     7
 48
0.5
370
    35
100
AcDbLine
 10
174.377326076501
 20
8496.015757018708
 30
0.0
 11
175.377326076501
 21
8496.015757018708
 31
0.0
  0
ARC
  5
17595
330
1E
100
AcDbEntity
  8
1-4_ビス
  6
Continuous
 62
     7
 48
0.5
370
    35
100
AcDbCircle
 10
174.377326076501
 20
8494.515757018708
 30
0.0
 40
1.5
100
AcDbArc
 50
90.0
 51
180.0
  0
LINE
  5
17596
330
1E
100
AcDbEntity
  8
1-4_ビス
  6
Continuous
 62
     7
 48
0.5
370
    35
100
AcDbLine
 10
175.377326076501
 20
8496.015757018708
 30
0.0
 11
175.377326076501
 21
8497.015757018708
 31
0.0
  0
LINE
  5
17597
330
1E
100
AcDbEntity
  8
1-4_ビス
  6
Continuous
 62
     7
 48
0.5
370
    35
100
AcDbLine
 10
171.877326076501
 20
8499.519727018707
 30
0.0
 11
172.877326076501
 21
8499.519727018707
 31
0.0
  0
LINE
  5
17598
330
1E
100
AcDbEntity
  8
1-4_ビス
  6
Continuous
 62
     7
 48
0.5
370
    35
100
AcDbLine
 10
172.877326076501
 20
8498.515757018706
 30
0.0
 11
172.877326076501
 21
8499.519727018707
 31
0.0
  0
LINE
  5
17599
330
1E
100
AcDbEntity
  8
1-4_ビス
  6
Continuous
 62
     7
 48
0.5
370
    35
100
AcDbLine
 10
174.377326076501
 20
8497.015757018708
 30
0.0
 11
175.377326076501
 21
8497.015757018708
 31
0.0
  0
ARC
  5
1759A
330
1E
100
AcDbEntity
  8
1-4_ビス
  6
Continuous
 62
     7
 48
0.5
370
    35
100
AcDbCircle
 10
174.377326076501
 20
8498.515757018706
 30
0.0
 40
1.5
100
AcDbArc
 50
180.0
 51
270.0
  0
LINE
  5
1759B
330
1E
100
AcDbEntity
  8
1-4_ビス
  6
Continuous
 62
     7
 48
0.5
370
    35
100
AcDbLine
 10
169.377326076501
 20
8497.015757018708
 30
0.0
 11
169.377326076501
 21
8496.015757018708
 31
0.0
  0
LINE
  5
1759C
330
1E
100
AcDbEntity
  8
1-4_ビス
  6
Continuous
 62
     7
 48
0.5
370
    35
100
AcDbLine
 10
170.377326076501
 20
8496.015757018708
 30
0.0
 11
169.377326076501
 21
8496.015757018708
 31
0.0
  0
ARC
  5
1759D
330
1E
100
AcDbEntity
  8
1-4_ビス
  6
Continuous
 62
     7
 48
0.5
370
    35
100
AcDbCircle
 10
170.377326076501
 20
8494.515757018708
 30
0.0
 40
1.5
100
AcDbArc
 50
0.0
 51
90.0
  0
LINE
  5
1759E
330
1E
100
AcDbEntity
  8
1-A_中心
  6
中心線
 62
     6
 48
0.25
370
    18
100
AcDbLine
 10
179.3773310618453
 20
8496.515756998482
 30
0.0
 11
165.3773311784989
 21
8496.517564288142
 31
0.0
  0
LINE
  5
1759F
330
1E
100
AcDbEntity
  8
1-2_扉･枠
  6
想像線
 62
     4
 48
0.25
370
    18
100
AcDbLine
 10
355.7773260816552
 20
8571.617564288143
 30
0.0
 11
328.9773260816551
 21
8571.617564288143
 31
0.0
  0
LINE
  5
175A0
330
1E
100
AcDbEntity
  8
1-2_扉･枠
  6
想像線
 62
     4
 48
0.25
370
    18
100
AcDbLine
 10
364.2773260816548
 20
8576.917564288143
 30
0.0
 11
460.3773260816551
 21
8576.917564288143
 31
0.0
  0
LINE
  5
175A1
330
1E
100
AcDbEntity
  8
1-2_扉･枠
  6
想像線
 62
     4
 48
0.25
370
    18
100
AcDbLine
 10
381.9773260816551
 20
8606.917564288142
 30
0.0
 11
381.9773260816551
 21
8604.617564288142
 31
0.0
  0
LINE
  5
175A2
330
1E
100
AcDbEntity
  8
1-A_中心
  6
中心線
 62
     6
 48
0.25
370
    18
100
AcDbLine
 10
328.3773260816551
 20
8545.517565224548
 30
0.0
 11
356.375760616595
 21
8545.517555592688
 31
0.0
  0
ARC
  5
175A3
330
1E
100
AcDbEntity
  8
1-2_扉･枠
  6
想像線
 62
     4
 48
0.25
370
    18
100
AcDbCircle
 10
357.3773260816551
 20
8623.517564288142
 30
0.0
 40
1.6
100
AcDbArc
 50
90.0
 51
180.0
  0
LINE
  5
175A4
330
1E
100
AcDbEntity
  8
1-2_扉･枠
  6
想像線
 62
     4
 48
0.25
370
    18
100
AcDbLine
 10
370.3773260816551
 20
8608.517564288142
 30
0.0
 11
359.3773260816552
 21
8608.517564288142
 31
0.0
  0
ARC
  5
175A5
330
1E
100
AcDbEntity
  8
1-2_扉･枠
  6
想像線
 62
     4
 48
0.25
370
    18
100
AcDbCircle
 10
359.3773260816552
 20
8610.517564288143
 30
0.0
 40
2.0
100
AcDbArc
 50
180.0
 51
270.0
  0
LINE
  5
175A6
330
1E
100
AcDbEntity
  8
1-2_扉･枠
  6
想像線
 62
     4
 48
0.25
370
    18
100
AcDbLine
 10
357.3772469938658
 20
8625.117564288142
 30
0.0
 11
372.4011813711286
 21
8625.117564288142
 31
0.0
  0
ARC
  5
175A7
330
1E
100
AcDbEntity
  8
1-2_扉･枠
  6
想像線
 62
     4
 48
0.25
370
    18
100
AcDbCircle
 10
370.3773260816551
 20
8610.517564288143
 30
0.0
 40
2.0
100
AcDbArc
 50
270.0
 51
0.0
  0
LINE
  5
175A8
330
1E
100
AcDbEntity
  8
1-2_扉･枠
  6
想像線
 62
     4
 48
0.25
370
    18
100
AcDbLine
 10
357.3773260816551
 20
8623.517564288142
 30
0.0
 11
372.3773260816551
 21
8623.517564288142
 31
0.0
  0
HATCH
  5
175A9
330
1E
100
AcDbEntity
  8
1-2_扉･枠
  6
かくれ線
 62
     4
 48
0.25
370
    18
100
AcDbHatch
 10
0.0
 20
0.0
 30
0.0
210
0.0
220
0.0
230
1.0
  2
ANSI37
 70
     0
 71
     0
 91
        1
 92
        7
 72
     1
 73
     1
 93
        7
 10
372.3773260816551
 20
8615.017564288143
 42
0.0
 10
372.3773260816551
 20
8623.517564288142
 42
0.0
 10
357.3773260816556
 20
8623.517564288142
 42
0.0
 10
357.3773260816547
 20
8610.517564288143
 42
0.4142135623731617
 10
359.3773260816552
 20
8608.517564288142
 42
0.0
 10
370.3773260816551
 20
8608.517564288142
 42
0.4142135623730951
 10
372.3773260816551
 20
8610.517564288143
 42
0.0
 97
        0
 75
     0
 76
     1
 52
0.0
 41
30.0
 77
     0
 78
     2
 53
45.0
 43
-1499.750393769323
 44
-559.3266141896474
 45
-2.651650429449552
 46
2.651650429449553
 79
     0
 53
135.0
 43
-1499.750393769323
 44
-559.3266141896474
 45
-2.651650429449553
 46
-2.651650429449552
 79
     0
 47
0.0820306364939832
 98
        1
 10
368.8321211689117
 20
8612.60690128145
  0
ARC
  5
175AA
330
1E
100
AcDbEntity
  8
1-2_扉･枠
  6
想像線
 62
     4
 48
0.25
370
    18
100
AcDbCircle
 10
373.9773260816546
 20
8615.117564288143
 30
0.0
 40
1.6
100
AcDbArc
 50
180.0
 51
0.0
  0
ARC
  5
175AB
330
1E
100
AcDbEntity
  8
1-2_扉･枠
  6
想像線
 62
     4
 48
0.25
370
    18
100
AcDbCircle
 10
372.3773260816551
 20
8623.517564288142
 30
0.0
 40
1.6
100
AcDbArc
 50
0.0
 51
90.0
  0
LINE
  5
175AC
330
1E
100
AcDbEntity
  8
1-2_扉･枠
  6
想像線
 62
     4
 48
0.25
370
    18
100
AcDbLine
 10
372.3773260816551
 20
8615.017564288143
 30
0.0
 11
372.3773260816551
 21
8610.517564288143
 31
0.0
  0
LINE
  5
175AD
330
1E
100
AcDbEntity
  8
1-2_扉･枠
  6
想像線
 62
     4
 48
0.25
370
    18
100
AcDbLine
 10
372.3773260816551
 20
8623.517564288142
 30
0.0
 11
372.3773260816547
 21
8615.117564288134
 31
0.0
  0
LINE
  5
175AE
330
1E
100
AcDbEntity
  8
1-2_扉･枠
  6
想像線
 62
     4
 48
0.25
370
    18
100
AcDbLine
 10
373.9773260816546
 20
8633.51364895208
 30
0.0
 11
373.9773260816546
 21
8615.117564288143
 31
0.0
  0
LINE
  5
175AF
330
1E
100
AcDbEntity
  8
1-2_扉･枠
  6
想像線
 62
     4
 48
0.25
370
    18
100
AcDbLine
 10
375.577326081655
 20
8633.51364895208
 30
0.0
 11
375.577326081655
 21
8615.117564288143
 31
0.0
  0
LINE
  5
175B0
330
1E
100
AcDbEntity
  8
1-5_ビス2
  6
かくれ線
 62
     7
 48
0.5
370
    18
100
AcDbLine
 10
418.3773316732863
 20
8564.516197887535
 30
0.0
 11
418.3773316732863
 21
8564.916193218438
 31
0.0
  0
LINE
  5
175B1
330
1E
100
AcDbEntity
  8
1-5_ビス2
  6
かくれ線
 62
     7
 48
0.5
370
    18
100
AcDbLine
 10
406.3685410935963
 20
8564.516197887535
 30
0.0
 11
406.3685410935963
 21
8564.916193218438
 31
0.0
  0
LINE
  5
175B2
330
1E
100
AcDbEntity
  8
1-5_ビス2
  6
かくれ線
 62
     7
 48
0.5
370
    18
100
AcDbLine
 10
388.3773263410148
 20
8564.516197887535
 30
0.0
 11
388.3773263410148
 21
8564.916193218438
 31
0.0
  0
LINE
  5
175B3
330
1E
100
AcDbEntity
  8
1-5_ビス2
  6
かくれ線
 62
     7
 48
0.5
370
    18
100
AcDbLine
 10
406.3685410935963
 20
8564.916193218438
 30
0.0
 11
418.3773316732863
 21
8564.916193218438
 31
0.0
  0
LINE
  5
175B4
330
1E
100
AcDbEntity
  8
1-5_ビス2
  6
かくれ線
 62
     7
 48
0.5
370
    18
100
AcDbLine
 10
409.3773295278156
 20
8568.517564288141
 30
0.0
 11
406.3685410935963
 21
8564.916193218438
 31
0.0
  0
LINE
  5
175B5
330
1E
100
AcDbEntity
  8
1-5_ビス2
  6
かくれ線
 62
     7
 48
0.5
370
    18
100
AcDbLine
 10
415.377329536011
 20
8568.517564288141
 30
0.0
 11
418.3773316732863
 21
8564.916193218438
 31
0.0
  0
LINE
  5
175B7
330
1E
100
AcDbEntity
  8
1-5_ビス2
  6
かくれ線
 62
     7
 48
0.5
370
    18
100
AcDbLine
 10
414.8773295417659
 20
8584.516196471568
 30
0.0
 11
414.877329910465
 21
8568.517564288141
 31
0.0
  0
LINE
  5
175B8
330
1E
100
AcDbEntity
  8
1-5_ビス2
  6
かくれ線
 62
     7
 48
0.5
370
    18
100
AcDbLine
 10
409.3773295290247
 20
8584.516196484873
 30
0.0
 11
409.3773295278156
 21
8568.517564288141
 31
0.0
  0
LINE
  5
175B9
330
1E
100
AcDbEntity
  8
1-5_ビス2
  6
かくれ線
 62
     7
 48
0.5
370
    18
100
AcDbLine
 10
409.8773295476258
 20
8584.51619648552
 30
0.0
 11
409.8773299163071
 21
8568.517564288141
 31
0.0
  0
LINE
  5
175BA
330
1E
100
AcDbEntity
  8
1-5_ビス2
  6
かくれ線
 62
     7
 48
0.5
370
    18
100
AcDbLine
 10
415.3773248750112
 20
8584.516196471629
 30
0.0
 11
415.377329536011
 21
8568.517564288141
 31
0.0
  0
LINE
  5
175BB
330
1E
100
AcDbEntity
  8
1-A_中心
  6
中心線
 62
     6
 48
0.25
370
    18
100
AcDbLine
 10
412.3773263472498
 20
8585.516196478543
 30
0.0
 11
412.3773260563602
 21
8562.516196485519
 31
0.0
  0
LINE
  5
175BC
330
1E
100
AcDbEntity
  8
1-5_ビス2
  6
かくれ線
 62
     7
 48
0.5
370
    18
100
AcDbLine
 10
409.3773295290247
 20
8584.516196484873
 30
0.0
 11
415.3773248750112
 21
8584.516196471629
 31
0.0
  0
LINE
  5
175BD
330
1E
100
AcDbEntity
  8
1-A_中心
  6
中心線
 62
     6
 48
0.25
370
    18
100
AcDbLine
 10
382.3773214211806
 20
8585.516196478543
 30
0.0
 11
382.377321130291
 21
8562.516196485519
 31
0.0
  0
LINE
  5
175BE
330
1E
100
AcDbEntity
  8
1-5_ビス2
  6
かくれ線
 62
     7
 48
0.5
370
    18
100
AcDbLine
 10
385.3773199488082
 20
8584.51619647286
 30
0.0
 11
385.3773244132617
 21
8568.517569872827
 31
0.0
  0
LINE
  5
175BF
330
1E
100
AcDbEntity
  8
1-5_ビス2
  6
かくれ線
 62
     7
 48
0.5
370
    18
100
AcDbLine
 10
385.3773197593496
 20
8568.517569872829
 30
0.0
 11
388.377326747217
 21
8564.916193218438
 31
0.0
  0
LINE
  5
175C0
330
1E
100
AcDbEntity
  8
1-5_ビス2
  6
かくれ線
 62
     7
 48
0.5
370
    18
100
AcDbLine
 10
376.3773246017463
 20
8564.516197887535
 30
0.0
 11
376.3773246017463
 21
8564.916193218438
 31
0.0
  0
LINE
  5
175C1
330
1E
100
AcDbEntity
  8
1-5_ビス2
  6
かくれ線
 62
     7
 48
0.5
370
    18
100
AcDbLine
 10
376.3773250079485
 20
8564.916193218438
 30
0.0
 11
388.377326747217
 21
8564.916193218438
 31
0.0
  0
LINE
  5
175C2
330
1E
100
AcDbEntity
  8
1-5_ビス2
  6
かくれ線
 62
     7
 48
0.5
370
    18
100
AcDbLine
 10
379.3773280543001
 20
8568.517564288141
 30
0.0
 11
376.3773246017463
 21
8564.916193218438
 31
0.0
  0
LINE
  5
175C3
330
1E
100
AcDbEntity
  8
1-5_ビス2
  6
かくれ線
 62
     7
 48
0.5
370
    18
100
AcDbLine
 10
379.8773246215565
 20
8584.51619648552
 30
0.0
 11
379.877324975329
 21
8568.517564288141
 31
0.0
  0
LINE
  5
175C4
330
1E
100
AcDbEntity
  8
1-5_ビス2
  6
かくれ線
 62
     7
 48
0.5
370
    18
100
AcDbLine
 10
379.3773246029223
 20
8584.516196484502
 30
0.0
 11
379.3773280543001
 21
8568.517564288141
 31
0.0
  0
LINE
  5
175C5
330
1E
100
AcDbEntity
  8
1-5_ビス2
  6
かくれ線
 62
     7
 48
0.5
370
    18
100
AcDbLine
 10
384.8773246156966
 20
8584.516196471568
 30
0.0
 11
384.877324786235
 21
8568.517569407445
 31
0.0
  0
LINE
  5
175C6
330
1E
100
AcDbEntity
  8
1-5_ビス2
  6
かくれ線
 62
     7
 48
0.5
370
    18
100
AcDbLine
 10
379.3773246029223
 20
8584.516196484502
 30
0.0
 11
385.3773199488078
 21
8584.516196285823
 31
0.0
  0
LINE
  5
175C7
330
1E
100
AcDbEntity
  8
1-5_ビス2
  6
かくれ線
 62
     7
 48
0.5
370
    18
100
AcDbLine
 10
342.3773246028263
 20
8579.517564975445
 30
0.0
 11
348.3773246007377
 21
8579.517564987593
 31
0.0
  0
LINE
  5
175C8
330
1E
100
AcDbEntity
  8
1-5_ビス2
  6
かくれ線
 62
     7
 48
0.5
370
    18
100
AcDbLine
 10
336.3773292568544
 20
8579.517564988364
 30
0.0
 11
342.3773246028263
 21
8579.517564939758
 31
0.0
  0
ARC
  5
175C9
330
1E
100
AcDbEntity
  8
1-2_扉･枠
  6
想像線
 62
     4
 48
0.25
370
    18
100
AcDbCircle
 10
355.7773260816552
 20
8567.117564288141
 30
0.0
 40
1.6
100
AcDbArc
 50
270.0
 51
0.0
  0
ARC
  5
175CA
330
1E
100
AcDbEntity
  8
1-2_扉･枠
  6
想像線
 62
     4
 48
0.25
370
    18
100
AcDbCircle
 10
328.9773260816551
 20
8567.117564288142
 30
0.0
 40
1.6
100
AcDbArc
 50
180.0
 51
270.0
  0
LINE
  5
175CB
330
1E
100
AcDbEntity
  8
1-2_扉･枠
  6
想像線
 62
     4
 48
0.25
370
    18
100
AcDbLine
 10
355.7773260816552
 20
8567.117564288142
 30
0.0
 11
355.7773260816552
 21
8623.517564288142
 31
0.0
  0
LINE
  5
175CC
330
1E
100
AcDbEntity
  8
1-2_扉･枠
  6
想像線
 62
     4
 48
0.25
370
    18
100
AcDbLine
 10
328.9773260816551
 20
8567.117564288142
 30
0.0
 11
328.9773260816546
 21
8590.517564288141
 31
0.0
  0
LINE
  5
175CD
330
1E
100
AcDbEntity
  8
1-2_扉･枠
  6
想像線
 62
     4
 48
0.25
370
    18
100
AcDbLine
 10
355.7773260816552
 20
8567.117564288142
 30
0.0
 11
328.9773260816551
 21
8567.117564288142
 31
0.0
  0
LEADER
  5
175CE
330
1E
100
AcDbEntity
  8
1-C_文字
  6
Continuous
 62
     3
 48
0.5
370
    18
100
AcDbLeader
  3
ISO-25
 76
     3
 10
436.0820184461158
 20
8574.124903983237
 30
0.0
 10
442.7184317930318
 20
8585.629952900299
 30
0.0
 10
444.1037314597001
 20
8585.630595744193
 30
0.0
210
0.0
220
0.0
230
-1.0
213
0.0
223
1.5
233
0.0
1001
ACAD
1000
DSTYLE
1002
{
1070
    41
1040
3.0
1070
   147
1040
0.625
1070
    77
1070
     0
1002
}
  0
MTEXT
  5
175CF
330
1E
100
AcDbEntity
  8
1-C_文字
  6
Continuous
 62
     3
 48
0.5
370
    18
100
AcDbMText
 10
444.7274664835281
 20
8587.619249731391
 30
0.0
 40
3.0
 41
11.89985959812684
 46
0.0
 71
     1
 72
     1
  1
補強板
  7
明朝
 73
     1
 44
1.0
  0
HATCH
  5
175D0
330
1E
100
AcDbEntity
  8
1-1_本体2
  6
かくれ線
 62
     7
 48
0.5
370
    18
100
AcDbHatch
 10
0.0
 20
0.0
 30
0.0
210
0.0
220
0.0
230
1.0
  2
ANSI32
 70
     0
 71
     0
 91
        6
 92
        7
 72
     1
 73
     1
 93
        4
 10
168.3773260816565
 20
8588.517564288142
 42
0.0
 10
167.3773260816565
 20
8588.517564288142
 42
0.0
 10
167.3773260816565
 20
8576.471534288144
 42
-0.0313422145926801
 10
168.3773260816565
 20
8576.408788221337
 42
0.0
 97
        0
 92
        7
 72
     1
 73
     1
 93
        4
 10
168.3773260816565
 20
8576.408788221337
 42
0.0313422145926801
 10
167.3773260816565
 20
8576.471534288144
 42
0.0
 10
167.3773260816565
 20
8572.471534288142
 42
0.0
 10
168.3773260816565
 20
8572.471534288142
 42
0.0
 97
        0
 92
        7
 72
     0
 73
     1
 93
        4
 10
168.3773260816565
 20
8572.471534288142
 10
167.3773260816565
 20
8572.471534288142
 10
167.3773260816565
 20
8568.471534288143
 10
168.3773260816565
 20
8568.471534288143
 97
        0
 92
        7
 72
     0
 73
     1
 93
        5
 10
168.3773260816547
 20
8565.971534288143
 10
168.3773260816551
 20
8568.471534288143
 10
167.3773260816565
 20
8568.471534288141
 10
167.3773260816565
 20
8564.471534288143
 10
168.3773260816547
 20
8564.471534288143
 97
        0
 92
        7
 72
     1
 73
     1
 93
        4
 10
168.3773260816565
 20
8564.471534288143
 42
0.0
 10
167.3773260816565
 20
8564.471534288143
 42
0.0
 10
167.3773260816565
 20
8560.471534288144
 42
0.0313422145926801
 10
168.3773260816565
 20
8560.534280354948
 42
0.0
 97
        0
 92
        7
 72
     1
 73
     1
 93
        5
 10
168.3773260816565
 20
8560.534280354948
 42
-0.0313422145926801
 10
167.3773260816565
 20
8560.471534288144
 42
0.0
 10
167.3773260816565
 20
8558.532146777466
 42
0.0
 10
167.3773260816565
 20
8545.517564288143
 42
0.0
 10
168.3773260816565
 20
8545.517564288143
 42
0.0
 97
        0
 75
     0
 76
     1
 52
0.0
 41
30.0
 77
     0
 78
     2
 53
45.0
 43
-2384.982322450813
 44
-65.93023136344891
 45
-7.954951288348659
 46
7.95495128834866
 79
     0
 53
45.0
 43
-2379.679021600813
 44
-65.93023136344891
 45
-7.954951288348659
 46
7.95495128834866
 79
     0
 47
0.0494255678530876
 98
        6
 10
167.8558223753662
 20
8581.313381370076
 10
167.9108474792174
 20
8574.028912457322
 10
167.890605083523
 20
8569.988807803898
 10
167.890605083523
 20
8565.837027020902
 10
167.890605083523
 20
8560.993314754631
 10
167.890890187673
 20
8556.83040473535
  0
LINE
  5
175D1
330
1E
100
AcDbEntity
  8
1-1_本体2
  6
かくれ線
 62
     7
 48
0.5
370
    18
100
AcDbLine
 10
183.3773260816565
 20
8589.517564288142
 30
0.0
 11
167.3773260816565
 21
8589.517564288142
 31
0.0
  0
LINE
  5
175D2
330
1E
100
AcDbEntity
  8
1-1_本体2
  6
かくれ線
 62
     7
 48
0.5
370
    18
100
AcDbLine
 10
167.3773260816565
 20
8589.517564288142
 30
0.0
 11
167.3773260816565
 21
8545.517564288143
 31
0.0
  0
HATCH
  5
175D3
330
1E
100
AcDbEntity
  8
1-1_本体2
  6
かくれ線
 62
     7
 48
0.5
370
    18
100
AcDbHatch
 10
0.0
 20
0.0
 30
0.0
210
0.0
220
0.0
230
1.0
  2
ANSI32
 70
     0
 71
     0
 91
        6
 92
        7
 72
     1
 73
     1
 93
        4
 10
183.3773260816565
 20
8588.517564288142
 42
0.0
 10
182.3773260816565
 20
8588.517564288142
 42
0.0
 10
182.3773260816565
 20
8576.471534288144
 42
-0.0313422145926801
 10
183.3773260816565
 20
8576.408788221337
 42
0.0
 97
        0
 92
        7
 72
     1
 73
     1
 93
        4
 10
183.3773260816565
 20
8576.408788221337
 42
0.0313422145926801
 10
182.3773260816565
 20
8576.471534288144
 42
0.0
 10
182.3773260816565
 20
8572.471534288142
 42
0.0
 10
183.3773260816565
 20
8572.471534288142
 42
0.0
 97
        0
 92
        7
 72
     0
 73
     1
 93
        4
 10
183.3773260816565
 20
8572.471534288142
 10
182.3773260816565
 20
8572.471534288142
 10
182.3773260816565
 20
8568.471534288143
 10
183.3773260816565
 20
8568.471534288143
 97
        0
 92
        7
 72
     0
 73
     1
 93
        5
 10
183.3773260816547
 20
8565.971534288143
 10
183.3773260816551
 20
8568.471534288143
 10
182.3773260816565
 20
8568.471534288141
 10
182.3773260816565
 20
8564.471534288143
 10
183.3773260816547
 20
8564.471534288143
 97
        0
 92
        7
 72
     1
 73
     1
 93
        4
 10
183.3773260816565
 20
8564.471534288143
 42
0.0
 10
182.3773260816565
 20
8564.471534288143
 42
0.0
 10
182.3773260816565
 20
8560.471534288144
 42
0.0313422145926801
 10
183.3773260816565
 20
8560.534280354948
 42
0.0
 97
        0
 92
        7
 72
     1
 73
     1
 93
        5
 10
183.3773260816565
 20
8560.534280354948
 42
-0.0313422145926801
 10
182.3773260816565
 20
8560.471534288144
 42
0.0
 10
182.3773260816565
 20
8558.532146777466
 42
0.0
 10
182.3773260816565
 20
8545.517564288143
 42
0.0
 10
183.3773260816565
 20
8545.517564288143
 42
0.0
 97
        0
 75
     0
 76
     1
 52
0.0
 41
30.0
 77
     0
 78
     2
 53
45.0
 43
-2369.982322450812
 44
-65.93023136344891
 45
-7.954951288348659
 46
7.95495128834866
 79
     0
 53
45.0
 43
-2364.679021600812
 44
-65.93023136344891
 45
-7.954951288348659
 46
7.95495128834866
 79
     0
 47
0.0494255678530876
 98
        6
 10
182.8558223753662
 20
8581.313381370076
 10
182.9108474792174
 20
8574.028912457322
 10
182.890605083523
 20
8569.988807803898
 10
182.890605083523
 20
8565.837027020902
 10
182.890605083523
 20
8560.993314754631
 10
182.890890187673
 20
8556.83040473535
  0
LINE
  5
175D4
330
1E
100
AcDbEntity
  8
1-1_本体2
  6
かくれ線
 62
     7
 48
0.5
370
    18
100
AcDbLine
 10
183.3773260816565
 20
8589.517564288142
 30
0.0
 11
183.3773260816565
 21
8545.517564288143
 31
0.0
  0
TEXT
  5
175D5
330
1E
100
AcDbEntity
  8
1-C_文字
  6
Continuous
 62
     7
 48
0.5
370
    18
100
AcDbText
 10
284.0589362315792
 20
8671.134799825992
 30
0.0
 40
5.0
  1
ＳＯＲ-Ｃ
  7
明朝
 72
     1
 11
298.6782255716807
 21
8673.634799825991
 31
0.0
100
AcDbText
 73
     2
  0
ARC
  5
175D6
330
1E
100
AcDbEntity
  8
1-4_ビス
  6
Continuous
 62
     7
 48
0.5
370
    35
100
AcDbCircle
 10
339.3773333448717
 20
8577.017564989146
 30
0.0
 40
18.49999999999806
100
AcDbArc
 50
251.0753421956346
 51
288.9246310277276
  0
LINE
  5
175D7
330
1E
100
AcDbEntity
  8
1-1_本体2
  6
かくれ線
 62
     7
 48
0.5
370
    18
100
AcDbLine
 10
333.3773322154684
 20
8559.51756498915
 30
0.0
 11
345.377329255658
 21
8559.517563587133
 31
0.0
  0
LINE
  5
175D8
330
1E
100
AcDbEntity
  8
1-5_ビス2
  6
かくれ線
 62
     7
 48
0.5
370
    18
100
AcDbLine
 10
333.3773296618602
 20
8559.917561722068
 30
0.0
 11
345.3773314011287
 21
8559.917561722068
 31
0.0
  0
LINE
  5
175D9
330
1E
100
AcDbEntity
  8
1-5_ビス2
  6
かくれ線
 62
     7
 48
0.5
370
    18
100
AcDbLine
 10
342.3773290219906
 20
8563.517563587135
 30
0.0
 11
345.3773314011287
 21
8559.917561722068
 31
0.0
  0
LINE
  5
175DA
330
1E
100
AcDbEntity
  8
1-5_ビス2
  6
かくれ線
 62
     7
 48
0.5
370
    18
100
AcDbLine
 10
336.3773290219888
 20
8563.517564989149
 30
0.0
 11
333.377329255658
 21
8559.917561722068
 31
0.0
  0
LINE
  5
175DB
330
1E
100
AcDbEntity
  8
1-5_ビス2
  6
かくれ線
 62
     7
 48
0.5
370
    18
100
AcDbLine
 10
342.377329304265
 20
8579.517564939758
 30
0.0
 11
342.3773290219906
 21
8563.517563587135
 31
0.0
  0
LINE
  5
175DC
330
1E
100
AcDbEntity
  8
1-5_ビス2
  6
かくれ線
 62
     7
 48
0.5
370
    18
100
AcDbLine
 10
341.8773292696083
 20
8579.517564975198
 30
0.0
 11
341.8773293958588
 21
8563.517563703966
 31
0.0
  0
LINE
  5
175DD
330
1E
100
AcDbEntity
  8
1-5_ビス2
  6
かくれ線
 62
     7
 48
0.5
370
    18
100
AcDbLine
 10
336.8773292754681
 20
8579.517564989151
 30
0.0
 11
336.8773293958593
 21
8563.517564872315
 31
0.0
  0
LINE
  5
175DE
330
1E
100
AcDbEntity
  8
1-5_ビス2
  6
かくれ線
 62
     7
 48
0.5
370
    18
100
AcDbLine
 10
333.377329255658
 20
8559.517566391164
 30
0.0
 11
333.377329255658
 21
8559.917561722068
 31
0.0
  0
LINE
  5
175DF
330
1E
100
AcDbEntity
  8
1-5_ビス2
  6
かくれ線
 62
     7
 48
0.5
370
    18
100
AcDbLine
 10
345.3773292556598
 20
8559.517563587133
 30
0.0
 11
345.377329255658
 21
8559.917560320053
 31
0.0
  0
ARC
  5
175E0
330
1E
100
AcDbEntity
  8
1-4_ビス
  6
Continuous
 62
     7
 48
0.5
370
    35
100
AcDbCircle
 10
345.3773286909636
 20
8577.017564989146
 30
0.0
 40
18.49999999999806
100
AcDbArc
 50
251.0753421956346
 51
288.9246310277276
  0
LINE
  5
175E1
330
1E
100
AcDbEntity
  8
1-1_本体2
  6
かくれ線
 62
     7
 48
0.5
370
    18
100
AcDbLine
 10
339.3773275615604
 20
8559.51756498915
 30
0.0
 11
351.3773246017499
 21
8559.517563587133
 31
0.0
  0
LINE
  5
175E2
330
1E
100
AcDbEntity
  8
1-5_ビス2
  6
かくれ線
 62
     7
 48
0.5
370
    18
100
AcDbLine
 10
339.3773250079521
 20
8559.917561722068
 30
0.0
 11
351.3773267472207
 21
8559.917561722068
 31
0.0
  0
LINE
  5
175E3
330
1E
100
AcDbEntity
  8
1-5_ビス2
  6
かくれ線
 62
     7
 48
0.5
370
    18
100
AcDbLine
 10
348.3773243680825
 20
8563.517563587135
 30
0.0
 11
351.3773267472207
 21
8559.917561722068
 31
0.0
  0
LINE
  5
175E4
330
1E
100
AcDbEntity
  8
1-5_ビス2
  6
かくれ線
 62
     7
 48
0.5
370
    18
100
AcDbLine
 10
342.3773243680807
 20
8563.517564989149
 30
0.0
 11
339.3773246017499
 21
8559.917561722068
 31
0.0
  0
LINE
  5
175E5
330
1E
100
AcDbEntity
  8
1-5_ビス2
  6
かくれ線
 62
     7
 48
0.5
370
    18
100
AcDbLine
 10
348.3773246007377
 20
8579.517564987593
 30
0.0
 11
348.3773243680825
 21
8563.517563587135
 31
0.0
  0
LINE
  5
175E6
330
1E
100
AcDbEntity
  8
1-5_ビス2
  6
かくれ線
 62
     7
 48
0.5
370
    18
100
AcDbLine
 10
347.87732460175
 20
8579.517564989151
 30
0.0
 11
347.8773243680803
 21
8563.517563703966
 31
0.0
  0
LINE
  5
175E7
330
1E
100
AcDbEntity
  8
1-5_ビス2
  6
かくれ線
 62
     7
 48
0.5
370
    18
100
AcDbLine
 10
342.8773246017499
 20
8579.517564989151
 30
0.0
 11
342.8773243680808
 21
8563.517564872315
 31
0.0
  0
LINE
  5
175E8
330
1E
100
AcDbEntity
  8
1-5_ビス2
  6
かくれ線
 62
     7
 48
0.5
370
    18
100
AcDbLine
 10
339.3773246017499
 20
8559.517566391164
 30
0.0
 11
339.3773246017499
 21
8559.917561722068
 31
0.0
  0
LINE
  5
175E9
330
1E
100
AcDbEntity
  8
1-5_ビス2
  6
かくれ線
 62
     7
 48
0.5
370
    18
100
AcDbLine
 10
351.3773246017517
 20
8559.517563587133
 30
0.0
 11
351.3773246017499
 21
8559.917560320053
 31
0.0
  0
LINE
  5
175EA
330
1E
100
AcDbEntity
  8
1-1_本体2
  6
かくれ線
 62
     7
 48
0.5
370
    18
100
AcDbLine
 10
354.3773260816552
 20
8552.197654306446
 30
0.0
 11
354.3773260816552
 21
8542.302174288144
 31
0.0
  0
ARC
  5
175EB
330
1E
100
AcDbEntity
  8
1-4_ビス
  6
Continuous
 62
     7
 48
0.5
370
    35
100
AcDbCircle
 10
382.3773286909636
 20
8582.016196485517
 30
0.0
 40
18.49999999999806
100
AcDbArc
 50
251.0753421956346
 51
288.9246310277276
  0
LINE
  5
175EC
330
1E
100
AcDbEntity
  8
1-5_ビス2
  6
かくれ線
 62
     7
 48
0.5
370
    18
100
AcDbLine
 10
376.3773275615604
 20
8564.51619648552
 30
0.0
 11
388.3773246017499
 21
8564.516195083504
 31
0.0
  0
LINE
  5
175ED
330
1E
100
AcDbEntity
  8
1-5_ビス2
  6
かくれ線
 62
     7
 48
0.5
370
    18
100
AcDbLine
 10
406.3773275615603
 20
8564.517222863242
 30
0.0
 11
418.3773246017499
 21
8564.517221461228
 31
0.0
  0
ARC
  5
175EE
330
1E
100
AcDbEntity
  8
1-4_ビス
  6
Continuous
 62
     7
 48
0.5
370
    35
100
AcDbCircle
 10
412.3773286909636
 20
8582.017222863239
 30
0.0
 40
18.49999999999806
100
AcDbArc
 50
251.0753421956346
 51
288.9246310277276
  0
HATCH
  5
175EF
330
1E
100
AcDbEntity
  8
図枠
  6
Continuous
 62
   110
 48
0.5
370
    35
100
AcDbHatch
 10
0.0
 20
0.0
 30
0.0
210
0.0
220
0.0
230
1.0
  2
SOLID
 70
     1
 71
     0
 91
        7
 92
        7
 72
     1
 73
     1
 93
        4
 10
461.4951468473136
 20
8677.1762421277
 42
0.791100322966419
 10
461.4951468473127
 20
8670.364128745003
 42
0.0
 10
482.3777315804732
 20
8670.364128745003
 42
0.7911003229657766
 10
482.3777315804777
 20
8677.1762421277
 42
0.0
 97
        0
 92
       22
 72
     0
 73
     1
 93
       13
 10
470.2885436434317
 20
8676.063838346319
 10
468.7977713945437
 20
8671.234026218213
 10
467.6904378577819
 20
8671.234026218213
 10
467.010398765512
 20
8674.352365852866
 10
466.3347385323759
 20
8671.234026218213
 10
465.2430591056722
 20
8671.234026218213
 10
463.7417760232347
 20
8676.064394277759
 10
464.8413206839623
 20
8676.064394277759
 10
465.7049267297175
 20
8673.285747726522
 10
466.3069846183925
 20
8676.064394277759
 10
467.7117220271061
 20
8676.06439427776
 10
468.3236830439236
 20
8673.258228698022
 10
469.1896639338556
 20
8676.063838346321
 97
        0
 92
       22
 72
     0
 73
     1
 93
        8
 10
471.5696611244584
 20
8676.060547833214
 10
473.0089340085028
 20
8676.060547833214
 10
474.9061603281607
 20
8671.23186259316
 10
473.7557476557912
 20
8671.23186259316
 10
473.2405624001203
 20
8672.624786372896
 10
471.3540455188208
 20
8672.624786372896
 10
470.8282647853539
 20
8671.231742391768
 10
469.6963463212305
 20
8671.231742391768
 97
        0
 92
        6
 72
     0
 73
     1
 93
        3
 10
472.2909398662759
 20
8675.016673870398
 10
472.9557096725502
 20
8673.324749128298
 10
471.6345647640382
 20
8673.324749128298
 97
        0
 92
       22
 72
     0
 73
     1
 93
       12
 10
475.5012211116973
 20
8676.068826704085
 10
476.6580567049514
 20
8676.068826704085
 10
476.6580567049514
 20
8674.596649871133
 10
478.3192384159256
 20
8676.068856754437
 10
479.9023375550837
 20
8676.068856754435
 10
477.8193392225084
 20
8674.222818802739
 10
480.1403614471546
 20
8671.236971152316
 10
478.8092052442407
 20
8671.238557280169
 10
477.01754392159
 20
8673.543415757523
 10
476.6269509232297
 20
8673.199859882114
 10
476.6269509232297
 20
8671.237842612407
 10
475.5012211116945
 20
8671.237842612404
 97
        0
 92
       22
 72
     0
 73
     1
 93
        4
 10
463.0568334893096
 20
8671.232253247683
 10
461.9212342284281
 20
8671.232253247683
 10
461.9212342284281
 20
8676.059976876603
 10
463.0568334893096
 20
8676.059976876603
 97
        0
 92
       22
 72
     0
 73
     1
 93
        4
 10
480.4821960644349
 20
8676.050901671517
 10
481.6368876048986
 20
8676.050901671517
 10
481.6368876048986
 20
8671.253123214354
 10
480.482196064433
 20
8671.253123214354
 97
        0
 75
     0
 76
     1
 47
0.0525430863328008
 98
        7
 10
470.6254400976477
 20
8676.74980972758
 10
470.6254400976477
 20
8676.74980972758
 10
470.6254400976477
 20
8676.74980972758
 10
470.6254400976477
 20
8676.74980972758
 10
470.6254400976477
 20
8676.74980972758
 10
470.6254400976477
 20
8676.74980972758
 10
470.6254400976477
 20
8676.74980972758
450
        0
451
        0
460
0.0
461
0.0
452
        0
462
0.0
453
        0
470

  0
DIMENSION
  5
175F0
330
1E
100
AcDbEntity
  8
1-B_寸法
  6
Continuous
 62
     3
 48
0.5
370
    18
100
AcDbDimension
280
     0
  2
*D13
 10
382.3773260816551
 20
8521.017564288142
 30
0.0
 11
362.3773260816552
 21
8521.017564288142
 31
0.0
 70
   160
 71
     5
 42
40.0
 73
     0
 74
     0
 75
     0
  3
ISO-25
100
AcDbAlignedDimension
 13
342.3773260816552
 23
8533.517564288141
 33
0.0
 14
382.3773260816551
 24
8545.517564288143
 34
0.0
100
AcDbRotatedDimension
  0
DIMENSION
  5
175F1
330
1E
100
AcDbEntity
  8
1-B_寸法
  6
Continuous
 62
     3
 48
0.5
370
    18
100
AcDbDimension
280
     0
  2
*D14
 10
412.3773260816551
 20
8521.017564288142
 30
0.0
 11
397.3773260816551
 21
8521.017564288142
 31
0.0
 70
   160
 71
     5
 42
30.0
 73
     0
 74
     0
 75
     0
  3
ISO-25
100
AcDbAlignedDimension
 13
382.3773260816551
 23
8545.517564288143
 33
0.0
 14
412.3773260816551
 24
8545.517564288143
 34
0.0
100
AcDbRotatedDimension
  0
DIMENSION
  5
175F2
330
1E
100
AcDbEntity
  8
1-B_寸法
  6
Continuous
 62
     3
 48
0.5
370
    18
100
AcDbDimension
280
     0
  2
*D15
 10
422.3773260816551
 20
8513.517564288141
 30
0.0
 11
382.3773260816551
 21
8513.517564288141
 31
0.0
 70
   160
 71
     5
 42
80.00022365050972
 73
     0
 74
     0
 75
     0
  3
ISO-25
100
AcDbAlignedDimension
 13
342.3771024311454
 23
8533.517564290226
 33
0.0
 14
422.3773260816551
 24
8545.517564288143
 34
0.0
100
AcDbRotatedDimension
  0
DIMENSION
  5
175F3
330
1E
100
AcDbEntity
  8
1-B_寸法
  6
Continuous
 62
     3
 48
0.5
370
    18
100
AcDbDimension
280
     0
  2
*D16
 10
354.3773260816552
 20
8506.017564288141
 30
0.0
 11
342.3773260816552
 21
8506.017564288141
 31
0.0
 70
   160
  1
φ24
 71
     5
 42
24.0
 73
     0
 74
     0
 75
     0
  3
ISO-25
100
AcDbAlignedDimension
 13
330.3773260816551
 23
8513.517564288141
 33
0.0
 14
354.3773260816552
 24
8513.517564288141
 34
0.0
100
AcDbRotatedDimension
  0
DIMENSION
  5
175F4
330
1E
100
AcDbEntity
  8
1-B_寸法
  6
Continuous
 62
     3
 48
0.5
370
    18
100
AcDbDimension
280
     0
  2
*D17
 10
245.3773260816565
 20
8635.517564288141
 30
0.0
 11
230.3773260816565
 21
8635.517564288141
 31
0.0
 70
   160
 71
     5
 42
30.0
 73
     0
 74
     0
 75
     0
  3
ISO-25
100
AcDbAlignedDimension
 13
215.3773260816565
 23
8620.517564288142
 33
0.0
 14
245.3773260816565
 24
8620.517564288142
 34
0.0
100
AcDbRotatedDimension
  0
DIMENSION
  5
175F5
330
1E
100
AcDbEntity
  8
1-B_寸法
  6
Continuous
 62
     3
 48
0.5
370
    18
100
AcDbDimension
280
     0
  2
*D18
 10
255.3773260816565
 20
8643.017564288141
 30
0.0
 11
215.3773260816565
 21
8643.017564288141
 31
0.0
 70
   160
 71
     5
 42
80.0
 73
     0
 74
     0
 75
     0
  3
ISO-25
100
AcDbAlignedDimension
 13
175.3773260816565
 23
8620.517564288142
 33
0.0
 14
255.3773260816565
 24
8620.517564288142
 34
0.0
100
AcDbRotatedDimension
  0
POINT
  5
175F6
330
1E
100
AcDbEntity
  8
1-B_寸法
  6
Continuous
 62
     3
 48
0.5
370
    18
100
AcDbPoint
 10
255.3773260816565
 20
8641.882902230056
 30
0.0
  0
DIMENSION
  5
175F7
330
1E
100
AcDbEntity
  8
1-B_寸法
  6
Continuous
 62
     3
 48
0.5
370
    18
100
AcDbDimension
280
     0
  2
*D19
 10
215.3773260816565
 20
8635.517564288141
 30
0.0
 11
195.3773260816565
 21
8635.517564288141
 31
0.0
 70
   160
 71
     5
 42
40.0
 73
     0
 74
     0
 75
     0
  3
ISO-25
100
AcDbAlignedDimension
 13
175.3773260816565
 23
8620.517564288142
 33
0.0
 14
215.3773260816565
 24
8620.517564288142
 34
0.0
100
AcDbRotatedDimension
  0
DIMENSION
  5
175F8
330
1E
100
AcDbEntity
  8
1-B_寸法
  6
Continuous
 62
     3
 48
0.5
370
    18
100
AcDbDimension
280
     0
  2
*D20
 10
277.8773260816592
 20
8545.517564288143
 30
0.0
 11
277.8773260816579
 21
8540.115914541949
 31
0.0
 70
   160
 71
     5
 42
2.0
 73
     0
 74
     0
 75
     0
  3
ISO-25
100
AcDbAlignedDimension
 13
255.3773260816565
 23
8543.517564288142
 33
0.0
 14
255.3773260816565
 24
8545.517564288143
 34
0.0
 50
90.0
100
AcDbRotatedDimension
  0
DIMENSION
  5
175F9
330
1E
100
AcDbEntity
  8
1-B_寸法
  6
Continuous
 62
     3
 48
0.5
370
    18
100
AcDbDimension
280
     0
  2
*D21
 10
277.877326081658
 20
8620.517564288142
 30
0.0
 11
277.8773260816565
 21
8583.017564288143
 31
0.0
 70
   160
 71
     5
 42
75.0
 73
     0
 74
     0
 75
     0
  3
ISO-25
100
AcDbAlignedDimension
 13
255.3773260816565
 23
8545.517564288143
 33
0.0
 14
255.3773260816565
 24
8620.517564288142
 34
0.0
 50
90.0
100
AcDbRotatedDimension
  0
DIMENSION
  5
175FA
330
1E
100
AcDbEntity
  8
1-B_寸法
  6
Continuous
 62
     3
 48
0.5
370
    18
100
AcDbDimension
280
     0
  2
*D22
 10
315.3773260816565
 20
8565.517564288141
 30
0.0
 11
315.3773260816552
 21
8555.517564288143
 31
0.0
 70
   160
 71
     5
 42
19.99999975162245
 73
     0
 74
     0
 75
     0
  3
ISO-25
100
AcDbAlignedDimension
 13
330.3773260816551
 23
8545.51756453652
 33
0.0
 14
330.3773260816551
 24
8565.517564288141
 34
0.0
 50
90.0
100
AcDbRotatedDimension
  0
LINE
  5
175FB
330
1E
100
AcDbEntity
  8
1-A_中心
  6
中心線
 62
     6
 48
0.25
370
    18
100
AcDbLine
 10
345.3773260816551
 20
8580.519028056121
 30
0.0
 11
345.3773260129224
 21
8557.517564989147
 31
0.0
  0
DIMENSION
  5
175FD
330
1E
100
AcDbEntity
  8
1-B_寸法
  6
Continuous
 62
     3
 48
0.5
370
    18
100
AcDbDimension
280
     0
  2
*D23
 10
437.3773260816565
 20
8568.517564288141
 30
0.0
 11
437.3773260816551
 21
8557.017564288143
 31
0.0
 70
   160
 71
     5
 42
23.0
 73
     0
 74
     0
 75
     0
  3
ISO-25
100
AcDbAlignedDimension
 13
422.3773260816551
 23
8545.517564288143
 33
0.0
 14
422.3773260816551
 24
8568.517564288141
 34
0.0
 50
90.0
100
AcDbRotatedDimension
  0
DIMENSION
  5
175FE
330
1E
100
AcDbEntity
  8
1-B_寸法
  6
Continuous
 62
     3
 48
0.5
370
    18
100
AcDbDimension
280
     0
  2
*D24
 10
430.9169429607646
 20
8568.517564288141
 30
0.0
 11
430.9169429607631
 21
8566.517564288142
 31
0.0
 70
   160
 71
     5
 42
4.0
 73
     0
 74
     0
 75
     0
  3
ISO-25
100
AcDbAlignedDimension
 13
422.3773260816551
 23
8564.517564288143
 33
0.0
 14
422.3773260816551
 24
8568.517564288141
 34
0.0
 50
90.0
100
AcDbRotatedDimension
  0
LINE
  5
175FF
330
1E
100
AcDbEntity
  8
1-0_本体
  6
Continuous
 62
     7
 48
0.5
370
    35
100
AcDbLine
 10
422.3773260816551
 20
8568.517564288141
 30
0.0
 11
422.3773260816551
 21
8564.517564288143
 31
0.0
  0
POINT
  5
17600
330
1E
100
AcDbEntity
  8
1-B_寸法
  6
Continuous
 62
     3
 48
0.5
370
    18
100
AcDbPoint
 10
266.9327060816563
 20
8620.517564288142
 30
0.0
  0
ARC
  5
17601
330
1E
100
AcDbEntity
  8
1-0_本体
  6
Continuous
 62
     7
 48
0.5
370
    35
100
AcDbCircle
 10
252.3773260816565
 20
8617.517564288142
 30
0.0
 40
3.0
100
AcDbArc
 50
0.0
 51
90.0
  0
POINT
  5
17602
330
1E
100
AcDbEntity
  8
1-B_寸法
  6
Continuous
 62
     3
 48
0.5
370
    18
100
AcDbPoint
 10
272.2103960816562
 20
8545.517564288143
 30
0.0
  0
ARC
  5
17603
330
1E
100
AcDbEntity
  8
1-0_本体
  6
Continuous
 62
     7
 48
0.5
370
    35
100
AcDbCircle
 10
252.3773260816565
 20
8548.517564288143
 30
0.0
 40
3.0
100
AcDbArc
 50
270.0
 51
0.0
  0
LINE
  5
17604
330
1E
100
AcDbEntity
  8
1-0_本体
  6
Continuous
 62
     7
 48
0.5
370
    35
100
AcDbLine
 10
255.3773260816565
 20
8548.517564288143
 30
0.0
 11
255.3773260816565
 21
8617.517564288142
 31
0.0
  0
ARC
  5
17605
330
1E
100
AcDbEntity
  8
1-2_扉･枠
  6
想像線
 62
     4
 48
0.25
370
    18
100
AcDbCircle
 10
363.9773260816555
 20
8604.917564288141
 30
0.0
 40
2.0
100
AcDbArc
 50
90.0
 51
180.0
  0
ARC
  5
17606
330
1E
100
AcDbEntity
  8
1-2_扉･枠
  6
想像線
 62
     4
 48
0.25
370
    18
100
AcDbCircle
 10
361.8773260816551
 20
8607.017564288142
 30
0.0
 40
1.5
100
AcDbArc
 50
90.0
 51
180.0
  0
ARC
  5
17607
330
1E
100
AcDbEntity
  8
1-0_本体
  6
Continuous
 62
     7
 48
0.5
370
    35
100
AcDbCircle
 10
368.7033860816564
 20
8561.919484288143
 30
0.0
 40
2.6011239
100
AcDbArc
 50
86.49165399997221
 51
150.811979999985
  0
ARC
  5
17608
330
1E
100
AcDbEntity
  8
1-0_本体
  6
Continuous
 62
     7
 48
0.5
370
    35
100
AcDbCircle
 10
368.7724075061465
 20
8561.796668907938
 30
0.0
 40
6.722133627388721
100
AcDbArc
 50
88.90024891022466
 51
149.7052496123233
  0
ARC
  5
17609
330
1E
100
AcDbEntity
  8
1-2_扉･枠
  6
想像線
 62
     4
 48
0.25
370
    18
100
AcDbCircle
 10
363.9773260816555
 20
8572.117564288143
 30
0.0
 40
2.0
100
AcDbArc
 50
180.0
 51
270.0
  0
ARC
  5
1760A
330
1E
100
AcDbEntity
  8
1-2_扉･枠
  6
想像線
 62
     4
 48
0.25
370
    18
100
AcDbCircle
 10
361.8773260816551
 20
8570.017564288141
 30
0.0
 40
1.5
100
AcDbArc
 50
180.0
 51
270.0
  0
LINE
  5
1760B
330
1E
100
AcDbEntity
  8
1-2_扉･枠
  6
想像線
 62
     4
 48
0.25
370
    18
100
AcDbLine
 10
364.2773260816548
 20
8604.617564288142
 30
0.0
 11
364.2773260816548
 21
8572.417564288143
 31
0.0
  0
LINE
  5
1760C
330
1E
100
AcDbEntity
  8
1-2_扉･枠
  6
想像線
 62
     4
 48
0.25
370
    18
100
AcDbLine
 10
361.9773260816555
 20
8570.117564288143
 30
0.0
 11
361.9773260816555
 21
8606.917564288142
 31
0.0
  0
LINE
  5
1760D
330
1E
100
AcDbEntity
  8
1-2_扉･枠
  6
想像線
 62
     4
 48
0.25
370
    18
100
AcDbLine
 10
360.3773260816552
 20
8607.017564288142
 30
0.0
 11
360.3773260816552
 21
8570.017564288141
 31
0.0
  0
LINE
  5
1760E
330
1E
100
AcDbEntity
  8
1-A_中心
  6
中心線
 62
     6
 48
0.25
370
    18
100
AcDbLine
 10
339.3773260750923
 20
8580.517564982175
 30
0.0
 11
339.3773257842026
 21
8557.517564989151
 31
0.0
  0
LINE
  5
1760F
330
1E
100
AcDbEntity
  8
1-2_扉･枠
  6
想像線
 62
     4
 48
0.25
370
    18
100
AcDbLine
 10
355.7773260816784
 20
8565.517564288141
 30
0.0
 11
328.9773260816551
 21
8565.517564288141
 31
0.0
  0
LINE
  5
17610
330
1E
100
AcDbEntity
  8
1-0_本体
  6
Continuous
 62
     7
 48
0.5
370
    35
100
AcDbLine
 10
330.3773260816551
 20
8559.517564288142
 30
0.0
 11
354.3773260816552
 21
8559.517564288142
 31
0.0
  0
LINE
  5
17611
330
1E
100
AcDbEntity
  8
1-2_扉･枠
  6
想像線
 62
     4
 48
0.25
370
    18
100
AcDbLine
 10
327.3773260816552
 20
8567.117564288142
 30
0.0
 11
327.3773260816542
 21
8590.517564288141
 31
0.0
  0
LINE
  5
17612
330
1E
100
AcDbEntity
  8
1-2_扉･枠
  6
想像線
 62
     4
 48
0.25
370
    18
100
AcDbLine
 10
357.3773260816551
 20
8567.117564288141
 30
0.0
 11
357.3773260816551
 21
8623.517564288142
 31
0.0
  0
ARC
  5
17613
330
1E
100
AcDbEntity
  8
1-0_本体
  6
Continuous
 62
     7
 48
0.5
370
    35
100
AcDbCircle
 10
353.8425489997994
 20
8555.464486955719
 30
0.0
 40
3.310314499502889
100
AcDbArc
 50
242.2933348806979
 51
297.528429458052
  0
CIRCLE
  5
17614
330
1E
100
AcDbEntity
  8
1-1_本体2
  6
かくれ線
 62
     7
 48
0.5
370
    18
100
AcDbCircle
 10
342.3773260816552
 20
8545.517564288143
 30
0.0
 40
8.0
  0
ARC
  5
17615
330
1E
100
AcDbEntity
  8
1-1_本体2
  6
かくれ線
 62
     7
 48
0.5
370
    18
100
AcDbCircle
 10
180.8773260816565
 20
8578.017564288142
 30
0.0
 40
1.5
100
AcDbArc
 50
0.0
 51
90.0
  0
LINE
  5
17616
330
1E
100
AcDbEntity
  8
1-1_本体2
  6
かくれ線
 62
     7
 48
0.5
370
    18
100
AcDbLine
 10
182.3773260816565
 20
8614.517564288142
 30
0.0
 11
182.3773260816565
 21
8578.017564288142
 31
0.0
  0
LINE
  5
17617
330
1E
100
AcDbEntity
  8
1-1_本体2
  6
かくれ線
 62
     7
 48
0.5
370
    18
100
AcDbLine
 10
175.3773260816565
 20
8617.517564288142
 30
0.0
 11
182.3773260816565
 21
8614.517564288142
 31
0.0
  0
LINE
  5
17618
330
1E
100
AcDbEntity
  8
1-0_本体
  6
Continuous
 62
     7
 48
0.5
370
    35
100
AcDbLine
 10
185.3773260816565
 20
8545.517564288143
 30
0.0
 11
185.3773260816565
 21
8543.517564288142
 31
0.0
  0
LINE
  5
17619
330
1E
100
AcDbEntity
  8
1-1_本体2
  6
かくれ線
 62
     7
 48
0.5
370
    18
100
AcDbLine
 10
182.3773260816565
 20
8578.017564288142
 30
0.0
 11
182.3773260816565
 21
8544.517564288142
 31
0.0
  0
LINE
  5
1761A
330
1E
100
AcDbEntity
  8
1-1_本体2
  6
かくれ線
 62
     7
 48
0.5
370
    18
100
AcDbLine
 10
168.3773260816565
 20
8614.517564288142
 30
0.0
 11
168.3773260816565
 21
8578.017564288142
 31
0.0
  0
ARC
  5
1761B
330
1E
100
AcDbEntity
  8
1-1_本体2
  6
かくれ線
 62
     7
 48
0.5
370
    18
100
AcDbCircle
 10
169.8773260816565
 20
8578.017564288142
 30
0.0
 40
1.5
100
AcDbArc
 50
90.0
 51
180.0
  0
LINE
  5
1761C
330
1E
100
AcDbEntity
  8
1-0_本体
  6
Continuous
 62
     7
 48
0.5
370
    35
100
AcDbLine
 10
165.3773260816565
 20
8545.517564288143
 30
0.0
 11
165.3773260816565
 21
8543.517564288142
 31
0.0
  0
LINE
  5
1761D
330
1E
100
AcDbEntity
  8
1-1_本体2
  6
かくれ線
 62
     7
 48
0.5
370
    18
100
AcDbLine
 10
168.3773260816565
 20
8578.017564288142
 30
0.0
 11
168.3773260816565
 21
8544.517564288142
 31
0.0
  0
LINE
  5
1761E
330
1E
100
AcDbEntity
  8
1-1_本体2
  6
かくれ線
 62
     7
 48
0.5
370
    18
100
AcDbLine
 10
168.3773260816565
 20
8614.517564288142
 30
0.0
 11
175.3773260816565
 21
8617.517564288142
 31
0.0
  0
LINE
  5
1761F
330
1E
100
AcDbEntity
  8
1-1_本体2
  6
かくれ線
 62
     7
 48
0.5
370
    18
100
AcDbLine
 10
167.3773260816565
 20
8545.517564288143
 30
0.0
 11
183.3773260816565
 21
8545.517564288143
 31
0.0
  0
LINE
  5
17620
330
1E
100
AcDbEntity
  8
1-1_本体2
  6
かくれ線
 62
     7
 48
0.5
370
    18
100
AcDbLine
 10
180.8773260816565
 20
8579.517564288142
 30
0.0
 11
169.8773260816565
 21
8579.517564288142
 31
0.0
  0
LINE
  5
17621
330
1E
100
AcDbEntity
  8
1-0_本体
  6
Continuous
 62
     7
 48
0.5
370
    35
100
AcDbLine
 10
165.3773260816565
 20
8544.517564288142
 30
0.0
 11
185.3773260816565
 21
8544.517564288142
 31
0.0
  0
LINE
  5
17622
330
1E
100
AcDbEntity
  8
1-0_本体
  6
Continuous
 62
     7
 48
0.5
370
    35
100
AcDbLine
 10
163.3773260816565
 20
8620.517564288142
 30
0.0
 11
163.3773260816565
 21
8545.517564288143
 31
0.0
  0
LINE
  5
17623
330
1E
100
AcDbEntity
  8
1-1_本体2
  6
かくれ線
 62
     7
 48
0.5
370
    18
100
AcDbLine
 10
187.3773260816565
 20
8620.517564288142
 30
0.0
 11
187.3773260816565
 21
8545.517564288143
 31
0.0
  0
ARC
  5
17624
330
1E
100
AcDbEntity
  8
1-0_本体
  6
Continuous
 62
     7
 48
0.5
370
    35
100
AcDbCircle
 10
342.3773260816552
 20
8545.517564288143
 30
0.0
 40
12.0
100
AcDbArc
 50
38.31996628710422
 51
330.0000000000007
  0
LINE
  5
17625
330
1E
100
AcDbEntity
  8
1-0_本体
  6
Continuous
 62
     7
 48
0.5
370
    35
100
AcDbLine
 10
330.3773260816551
 20
8565.517564288141
 30
0.0
 11
330.3773260816551
 21
8545.517564288143
 31
0.0
  0
LINE
  5
17626
330
1E
100
AcDbEntity
  8
1-0_本体
  6
Continuous
 62
     7
 48
0.5
370
    35
100
AcDbLine
 10
354.3773260816552
 20
8565.517564288141
 30
0.0
 11
354.3773260816552
 21
8552.197654306446
 31
0.0
  0
LINE
  5
17627
330
1E
100
AcDbEntity
  8
1-0_本体
  6
Continuous
 62
     7
 48
0.5
370
    35
100
AcDbLine
 10
352.7696360816563
 20
8539.517564288143
 30
0.0
 11
366.4325423209612
 21
8563.187992923376
 31
0.0
  0
LINE
  5
17628
330
1E
100
AcDbEntity
  8
1-A_中心
  6
中心線
 62
     6
 48
0.25
370
    18
100
AcDbLine
 10
342.3773260816552
 20
8531.517564288142
 30
0.0
 11
342.3741949745608
 21
8559.517563938005
 31
0.0
  0
LINE
  5
17629
330
1E
100
AcDbEntity
  8
1-2_扉･枠
  6
想像線
 62
     4
 48
0.25
370
    18
100
AcDbLine
 10
361.9773260816555
 20
8606.917564288142
 30
0.0
 11
460.3773260816551
 21
8606.917564288142
 31
0.0
  0
LINE
  5
1762A
330
1E
100
AcDbEntity
  8
1-2_扉･枠
  6
想像線
 62
     4
 48
0.25
370
    18
100
AcDbLine
 10
361.8773260816551
 20
8608.517564288142
 30
0.0
 11
460.3773260816551
 21
8608.517564288142
 31
0.0
  0
LINE
  5
1762B
330
1E
100
AcDbEntity
  8
1-2_扉･枠
  6
想像線
 62
     4
 48
0.25
370
    18
100
AcDbLine
 10
361.9773260816555
 20
8570.117564288143
 30
0.0
 11
460.3773260816551
 21
8570.117564288143
 31
0.0
  0
LINE
  5
1762C
330
1E
100
AcDbEntity
  8
1-2_扉･枠
  6
想像線
 62
     4
 48
0.25
370
    18
100
AcDbLine
 10
361.8773260816551
 20
8568.517564288141
 30
0.0
 11
460.3773260816551
 21
8568.517564288141
 31
0.0
  0
LINE
  5
1762D
330
1E
100
AcDbEntity
  8
1-2_扉･枠
  6
想像線
 62
     4
 48
0.25
370
    18
100
AcDbLine
 10
364.2773260816548
 20
8572.417564288143
 30
0.0
 11
460.3773260816551
 21
8572.417564288143
 31
0.0
  0
LINE
  5
1762E
330
1E
100
AcDbEntity
  8
1-0_本体
  6
Continuous
 62
     7
 48
0.5
370
    35
100
AcDbLine
 10
422.3773260816551
 20
8568.517564288141
 30
0.0
 11
368.9014260816557
 21
8568.517564288141
 31
0.0
  0
LINE
  5
1762F
330
1E
100
AcDbEntity
  8
1-0_本体
  6
Continuous
 62
     7
 48
0.5
370
    35
100
AcDbLine
 10
368.8625590816832
 20
8564.51573340932
 30
0.0
 11
422.3773260816551
 21
8564.517564288143
 31
0.0
  0
LINE
  5
17630
330
1E
100
AcDbEntity
  8
1-0_本体
  6
Continuous
 62
     7
 48
0.5
370
    35
100
AcDbLine
 10
252.3773260816565
 20
8545.517564288143
 30
0.0
 11
163.3773260816565
 21
8545.517564288143
 31
0.0
  0
LINE
  5
17631
330
1E
100
AcDbEntity
  8
1-2_扉･枠
  6
想像線
 62
     4
 48
0.25
370
    18
100
AcDbLine
 10
364.2773260816548
 20
8604.617564288142
 30
0.0
 11
381.9773260816551
 21
8604.617564288142
 31
0.0
  0
LINE
  5
17632
330
1E
100
AcDbEntity
  8
1-0_本体
  6
Continuous
 62
     7
 48
0.5
370
    35
100
AcDbLine
 10
163.3773260816565
 20
8504.517564288141
 30
0.0
 11
187.3773260816565
 21
8504.517564288141
 31
0.0
  0
LINE
  5
17633
330
1E
100
AcDbEntity
  8
1-0_本体
  6
Continuous
 62
     7
 48
0.5
370
    35
100
AcDbLine
 10
252.3773260816565
 20
8620.517564288142
 30
0.0
 11
163.3773260816565
 21
8620.517564288142
 31
0.0
  0
LINE
  5
17634
330
1E
100
AcDbEntity
  8
1-0_本体
  6
Continuous
 62
     7
 48
0.5
370
    35
100
AcDbLine
 10
252.3773260816565
 20
8620.517564288142
 30
0.0
 11
163.3773260816565
 21
8620.517564288142
 31
0.0
  0
LINE
  5
181D4
330
1E
100
AcDbEntity
  8
印刷されない線
  6
Continuous
 62
   110
 48
0.5
370
    18
100
AcDbLine
 10
489.5722641290412
 20
8677.390804102094
 30
0.0
 11
489.5722641636675
 21
8396.390804110142
 31
0.0
  0
LINE
  5
181D5
330
1E
100
AcDbEntity
  8
印刷されない線
  6
Continuous
 62
   110
 48
0.5
370
    18
100
AcDbLine
 10
80.57226417090351
 20
8396.390798436511
 30
0.0
 11
489.5722641636675
 21
8396.390804110142
 31
0.0
  0
LINE
  5
181D6
330
1E
100
AcDbEntity
  8
印刷されない線
  6
Continuous
 62
   110
 48
0.5
370
    18
100
AcDbLine
 10
80.57226414256001
 20
8677.390798436512
 30
0.0
 11
80.57226417090351
 21
8396.390798436511
 31
0.0
  0
LINE
  5
181D7
330
1E
100
AcDbEntity
  8
印刷されない線
  6
Continuous
 62
   110
 48
0.5
370
    18
100
AcDbLine
 10
80.57226414256001
 20
8677.390798436512
 30
0.0
 11
489.5722641290412
 21
8677.390804102094
 31
0.0
  0
LINE
  5
181D8
330
1E
100
AcDbEntity
  8
印刷されない線
  6
Continuous
 62
   110
 48
0.5
370
    18
100
AcDbLine
 10
80.57226414256001
 20
8677.390798436512
 30
0.0
 11
489.5722641290412
 21
8677.390804102094
 31
0.0
  0
LINE
  5
1837F
330
1E
100
AcDbEntity
  8
1-0_本体
  6
Continuous
 62
     7
 48
0.5
370
    35
100
AcDbLine
 10
163.3773260816565
 20
8543.517564288142
 30
0.0
 11
187.3773260816565
 21
8543.517564288142
 31
0.0
  0
VIEWPORT
  5
26D
330
1A
100
AcDbEntity
 67
     1
  8
0
  6
Continuous
100
AcDbViewport
 10
222.0849642198261
 20
144.9705403342024
 30
0.0
 40
439.6605565658956
 41
275.7024216286894
 68
     2
 69
     1
 12
222.0849642198261
 22
144.9705403342024
 13
0.0
 23
0.0
 14
10.0
 24
10.0
 15
10.0
 25
10.0
 16
0.0
 26
0.0
 36
1.0
 17
0.0
 27
0.0
 37
0.0
 42
50.0
 43
0.0
 44
0.0
 45
275.7024216286894
 50
0.0
 51
0.0
 72
   100
 90
    32800
  1

281
     0
 71
     1
 74
     0
110
0.0
120
0.0
130
0.0
111
1.0
121
0.0
131
0.0
112
0.0
122
1.0
132
0.0
 79
     0
146
0.0
170
     0
 61
     5
348
182ED
292
     1
282
     1
141
0.0
142
0.0
 63
   250
421
  3355443
  0
VIEWPORT
  5
26F
330
1A
100
AcDbEntity
 67
     1
  8
0
  6
Continuous
100
AcDbViewport
 10
205.9071214442321
 20
144.9715340045269
 30
0.0
 40
385.932356956399
 41
273.6534943880363
 68
     1
 69
     2
 12
284.4336325418819
 22
8535.627644183465
 13
0.0
 23
0.0
 14
1.0
 24
1.0
 15
0.0
 25
0.0
 16
0.0
 26
0.0
 36
1.0
 17
0.0
 27
0.0
 37
0.0
 42
50.0
 43
0.0
 44
0.0
 45
294.6190414514385
 50
0.0
 51
0.0
 72
   100
 90
    32800
  1

281
     0
 71
     1
 74
     0
110
0.0
120
0.0
130
0.0
111
1.0
121
0.0
131
0.0
112
0.0
122
1.0
132
0.0
 79
     0
146
0.0
170
     0
 61
     5
348
182ED
292
     1
282
     1
141
0.0
142
0.0
 63
   250
421
  3355443
  0
ENDSEC
  0
SECTION
  2
OBJECTS
  0
DICTIONARY
  5
C
330
0
100
AcDbDictionary
281
     1
  3
ACAD_CIP_PREVIOUS_PRODUCT_INFO
350
18321
  3
ACAD_COLOR
350
18300
  3
ACAD_DETAILVIEWSTYLE
350
18319
  3
ACAD_GROUP
350
D
  3
ACAD_LAYOUT
350
19
  3
ACAD_MATERIAL
350
182CE
  3
ACAD_MLEADERSTYLE
350
18315
  3
ACAD_MLINESTYLE
350
16
  3
ACAD_PLOTSETTINGS
350
18
  3
ACAD_PLOTSTYLENAME
350
E
  3
ACAD_SCALELIST
350
18303
  3
ACAD_SECTIONVIEWSTYLE
350
18317
  3
ACAD_TABLESTYLE
350
18301
  3
ACAD_VISUALSTYLE
350
182E7
  3
AcadDim
350
C795
  3
ACDB_RECOMPOSE_DATA
350
18403
  3
AcDbVariableDictionary
350
15F3
  0
DICTIONARY
  5
12DB0
330
2
100
AcDbDictionary
280
     1
281
     1
  3
ACAD_LAYERSTATES
360
12DB1
  0
DICTIONARY
  5
18329
330
10
100
AcDbDictionary
280
     1
281
     1
  3
ADSK_XREC_LAYER_RECONCILED
360
1832A
  0
DICTIONARY
  5
1832B
330
1175
100
AcDbDictionary
280
     1
281
     1
  3
ADSK_XREC_LAYER_RECONCILED
360
1832C
  0
DICTIONARY
  5
1832D
330
1178
100
AcDbDictionary
280
     1
281
     1
  3
ADSK_XREC_LAYER_RECONCILED
360
1832E
  0
DICTIONARY
  5
1832F
330
14819
100
AcDbDictionary
280
     1
281
     1
  3
ADSK_XREC_LAYER_RECONCILED
360
18330
  0
DICTIONARY
  5
18331
330
1481A
100
AcDbDictionary
280
     1
281
     1
  3
ADSK_XREC_LAYER_RECONCILED
360
18332
  0
DICTIONARY
  5
18333
330
1481B
100
AcDbDictionary
280
     1
281
     1
  3
ADSK_XREC_LAYER_RECONCILED
360
18334
  0
DICTIONARY
  5
18335
330
1481C
100
AcDbDictionary
280
     1
281
     1
  3
ADSK_XREC_LAYER_RECONCILED
360
18336
  0
DICTIONARY
  5
18337
330
1481D
100
AcDbDictionary
280
     1
281
     1
  3
ADSK_XREC_LAYER_RECONCILED
360
18338
  0
DICTIONARY
  5
18339
330
1481E
100
AcDbDictionary
280
     1
281
     1
  3
ADSK_XREC_LAYER_RECONCILED
360
1833A
  0
DICTIONARY
  5
1833B
330
1481F
100
AcDbDictionary
280
     1
281
     1
  3
ADSK_XREC_LAYER_RECONCILED
360
1833C
  0
DICTIONARY
  5
1833D
330
14820
100
AcDbDictionary
280
     1
281
     1
  3
ADSK_XREC_LAYER_RECONCILED
360
1833E
  0
DICTIONARY
  5
1833F
330
14821
100
AcDbDictionary
280
     1
281
     1
  3
ADSK_XREC_LAYER_RECONCILED
360
18340
  0
DICTIONARY
  5
1198
330
1E
100
AcDbDictionary
280
     1
281
     1
  3
ACAD_LAYOUTSELFREF
360
11CF
  3
ACAD_SORTENTS
360
18380
  0
DICTIONARY
  5
119A
330
1A
100
AcDbDictionary
280
     1
281
     1
  3
ACAD_LAYOUTSELFREF
360
11CE
  0
XRECORD
  5
18321
102
{ACAD_REACTORS
330
C
102
}
330
C
100
AcDbXrecord
280
     1
300
ACDLT
300
2014
300
ACDLT_F_S
  0
DICTIONARY
  5
18300
102
{ACAD_REACTORS
330
C
102
}
330
C
100
AcDbDictionary
281
     1
  0
DICTIONARY
  5
18319
102
{ACAD_REACTORS
330
C
102
}
330
C
100
AcDbDictionary
281
     1
  3
Imperial24
350
1831A
  0
DICTIONARY
  5
D
102
{ACAD_REACTORS
330
C
102
}
330
C
100
AcDbDictionary
281
     1
  0
DICTIONARY
  5
19
102
{ACAD_REACTORS
330
C
102
}
330
C
100
AcDbDictionary
281
     1
  3
Model
350
21
  3
ﾚｲｱｳﾄ1
350
1D
  0
DICTIONARY
  5
182CE
102
{ACAD_REACTORS
330
C
102
}
330
C
100
AcDbDictionary
281
     1
  3
ByBlock
350
182D7
  3
ByLayer
350
182CF
  3
Global
350
182DF
  0
DICTIONARY
  5
18315
102
{ACAD_REACTORS
330
C
102
}
330
C
100
AcDbDictionary
281
     1
  3
Standard
350
18316
  0
DICTIONARY
  5
16
102
{ACAD_REACTORS
330
C
102
}
330
C
100
AcDbDictionary
281
     1
  3
Standard
350
17
  0
DICTIONARY
  5
18
102
{ACAD_REACTORS
330
C
102
}
330
C
100
AcDbDictionary
281
     1
  0
ACDBDICTIONARYWDFLT
  5
E
102
{ACAD_REACTORS
330
C
102
}
330
C
100
AcDbDictionary
281
     1
  3
Normal
350
F
100
AcDbDictionaryWithDefault
340
F
  0
DICTIONARY
  5
18303
102
{ACAD_REACTORS
330
C
102
}
330
C
100
AcDbDictionary
281
     1
  3
A0
350
18304
  3
A1
350
18305
  3
A2
350
18306
  3
A3
350
18307
  3
A4
350
18308
  3
A5
350
18309
  3
A6
350
1830A
  3
A7
350
1830B
  3
A8
350
1830C
  3
A9
350
1830D
  3
B0
350
1830E
  3
B1
350
1830F
  3
B2
350
18310
  3
B3
350
18311
  3
B4
350
18312
  3
B5
350
18313
  3
B6
350
18314
  0
DICTIONARY
  5
18317
102
{ACAD_REACTORS
330
C
102
}
330
C
100
AcDbDictionary
281
     1
  3
Imperial24
350
18318
  0
DICTIONARY
  5
18301
102
{ACAD_REACTORS
330
C
102
}
330
C
100
AcDbDictionary
281
     1
  3
Standard
350
18302
  0
DICTIONARY
  5
182E7
102
{ACAD_REACTORS
330
C
102
}
330
C
100
AcDbDictionary
281
     1
  3
2dWireframe
350
182ED
  3
Basic
350
182EC
  3
Brighten
350
182F3
  3
ColorChange
350
182F7
  3
Conceptual
350
182F0
  3
Dim
350
182F2
  3
EdgeColorOff
350
182FF
  3
Facepattern
350
182F6
  3
Flat
350
182E8
  3
FlatWithEdges
350
182E9
  3
Gouraud
350
182EA
  3
GouraudWithEdges
350
182EB
  3
Hidden
350
182EF
  3
JitterOff
350
182FD
  3
Linepattern
350
182F5
  3
OverhangOff
350
182FE
  3
Realistic
350
182F1
  3
Shaded
350
182FC
  3
Shaded with edges
350
182FB
  3
Shades of Gray
350
182F8
  3
Sketchy
350
182F9
  3
Thicken
350
182F4
  3
Wireframe
350
182EE
  3
X-Ray
350
182FA
  0
XRECORD
  5
C795
102
{ACAD_REACTORS
330
C
102
}
330
C
100
AcDbXrecord
280
     1
 90
   990106
  3

 60
     0
 61
     0
 62
     1
 63
     3
 64
     0
 65
     0
 66
     0
 67
     3
 68
     1
 69
     0
 70
     0
 71
     0
 72
     0
 40
3.504893568988336
170
     0
340
0
  0
XRECORD
  5
18403
102
{ACAD_REACTORS
330
C
102
}
330
C
100
AcDbXrecord
280
     1
 90
        1
330
18302
330
18318
330
1831A
  0
DICTIONARY
  5
15F3
102
{ACAD_REACTORS
330
C
102
}
330
C
100
AcDbDictionary
281
     1
  3
CANNOSCALE
350
18353
  3
CMLEADERSTYLE
350
1834F
  3
CTABLESTYLE
350
1834E
  3
CVIEWDETAILSTYLE
350
18350
  3
CVIEWSECTIONSTYLE
350
18351
  3
LAYEREVAL
350
18355
  3
LAYERNOTIFY
350
18356
  3
LIGHTINGUNITS
350
18354
  3
MSLTSCALE
350
18352
  3
SORTENTS
350
15F4
  0
DICTIONARY
  5
12DB1
102
{ACAD_REACTORS
330
12DB0
102
}
330
12DB0
100
AcDbDictionary
281
     1
  0
XRECORD
  5
1832A
102
{ACAD_REACTORS
330
18329
102
}
330
18329
100
AcDbXrecord
280
     1
290
     1
  0
XRECORD
  5
1832C
102
{ACAD_REACTORS
330
1832B
102
}
330
1832B
100
AcDbXrecord
280
     1
290
     1
  0
XRECORD
  5
1832E
102
{ACAD_REACTORS
330
1832D
102
}
330
1832D
100
AcDbXrecord
280
     1
290
     1
  0
XRECORD
  5
18330
102
{ACAD_REACTORS
330
1832F
102
}
330
1832F
100
AcDbXrecord
280
     1
290
     1
  0
XRECORD
  5
18332
102
{ACAD_REACTORS
330
18331
102
}
330
18331
100
AcDbXrecord
280
     1
290
     1
  0
XRECORD
  5
18334
102
{ACAD_REACTORS
330
18333
102
}
330
18333
100
AcDbXrecord
280
     1
290
     1
  0
XRECORD
  5
18336
102
{ACAD_REACTORS
330
18335
102
}
330
18335
100
AcDbXrecord
280
     1
290
     1
  0
XRECORD
  5
18338
102
{ACAD_REACTORS
330
18337
102
}
330
18337
100
AcDbXrecord
280
     1
290
     1
  0
XRECORD
  5
1833A
102
{ACAD_REACTORS
330
18339
102
}
330
18339
100
AcDbXrecord
280
     1
290
     1
  0
XRECORD
  5
1833C
102
{ACAD_REACTORS
330
1833B
102
}
330
1833B
100
AcDbXrecord
280
     1
290
     1
  0
XRECORD
  5
1833E
102
{ACAD_REACTORS
330
1833D
102
}
330
1833D
100
AcDbXrecord
280
     1
290
     1
  0
XRECORD
  5
18340
102
{ACAD_REACTORS
330
1833F
102
}
330
1833F
100
AcDbXrecord
280
     1
290
     1
  0
XRECORD
  5
11CF
102
{ACAD_REACTORS
330
1198
102
}
330
1198
100
AcDbXrecord
280
     1
340
1E
  0
SORTENTSTABLE
  5
18380
102
{ACAD_REACTORS
330
1198
102
}
330
1198
100
AcDbSortentsTable
330
1E
331
175C4
  5
175C4
331
1754E
  5
1754E
331
1750F
  5
1750F
331
17585
  5
17585
331
175C0
  5
175C0
331
17581
  5
17581
331
1750B
  5
1750B
331
1754A
  5
1754A
331
175BC
  5
175BC
331
1757D
  5
1757D
331
174D0
  5
174D0
331
17507
  5
17507
331
17546
  5
17546
331
17579
  5
17579
331
17542
  5
17542
331
175B8
  5
175B8
331
174C8
  5
174C8
331
175FD
  5
175FD
331
175F9
  5
175F9
331
17634
  5
181D4
331
175F5
  5
175F5
331
17630
  5
17631
331
175F1
  5
175F1
331
181D5
  5
181D6
331
1753E
  5
1753E
331
175B4
  5
175B4
331
175EF
  5
175EF
331
174C4
  5
174C4
331
1753A
  5
1753A
331
175B0
  5
175B0
331
175AC
  5
175AC
331
17575
  5
17575
331
174FF
  5
174FF
331
17536
  5
17536
331
175EB
  5
175EB
331
17571
  5
17571
331
174FB
  5
174FB
331
17532
  5
17532
331
175A8
  5
175A8
331
1762C
  5
1762D
331
17628
  5
17629
331
17624
  5
17625
331
17620
  5
17620
331
175E7
  5
175E7
331
175E3
  5
175E3
331
1756D
  5
1756D
331
174F7
  5
174F7
331
1752E
  5
1752E
331
175A4
  5
175A4
331
175DF
  5
175DF
331
175A0
  5
175A0
331
174F3
  5
174F3
331
1752A
  5
1752A
331
17569
  5
17569
331
1759C
  5
1759C
331
17565
  5
17565
331
174EF
  5
174EF
331
17526
  5
17526
331
175DB
  5
175DB
331
17598
  5
17598
331
17561
  5
17561
331
174EB
  5
174EB
331
17522
  5
17522
331
1761C
  5
1761C
331
17618
  5
17618
331
17614
  5
17614
331
17610
  5
17610
331
175D7
  5
175D7
331
175D3
  5
175D3
331
1755D
  5
1755D
331
174E7
  5
174E7
331
1751E
  5
1751E
331
17594
  5
17594
331
175CF
  5
175CF
331
17590
  5
17590
331
174E3
  5
174E3
331
1751A
  5
1751A
331
17559
  5
17559
331
175CB
  5
175CB
331
1758C
  5
1758C
331
17555
  5
17555
331
174DF
  5
174DF
331
17516
  5
17516
331
17588
  5
17588
331
17551
  5
17551
331
174DB
  5
174DB
331
17512
  5
17512
331
1760C
  5
1760C
331
17608
  5
17608
331
17604
  5
17604
331
17600
  5
17600
331
175C7
  5
175C7
331
181D8
  5
1837F
331
175C3
  5
175C3
331
1754D
  5
1754D
331
174D7
  5
174D7
331
1750E
  5
1750E
331
17584
  5
17584
331
175BF
  5
175BF
331
17580
  5
17580
331
174D3
  5
174D3
331
1750A
  5
1750A
331
17549
  5
17549
331
175BB
  5
175BB
331
1757C
  5
1757C
331
17545
  5
17545
331
174CF
  5
174CF
331
17506
  5
17506
331
17578
  5
17578
331
17541
  5
17541
331
174CB
  5
174CB
331
17502
  5
17502
331
175F8
  5
175F8
331
17633
  5
17634
331
175F4
  5
175F4
331
175F0
  5
175F0
331
181D4
  5
181D5
331
175B7
  5
175B7
331
1753D
  5
1753D
331
175B3
  5
175B3
331
175EE
  5
175EE
331
175AF
  5
175AF
331
174C3
  5
174C3
331
17539
  5
17539
331
175AB
  5
175AB
331
17574
  5
17574
331
174FE
  5
174FE
331
17535
  5
17535
331
175EA
  5
175EA
331
17570
  5
17570
331
174FA
  5
174FA
331
17531
  5
17531
331
1762F
  5
17630
331
1762B
  5
1762C
331
17627
  5
17628
331
17623
  5
17624
331
175E6
  5
175E6
331
175A7
  5
175A7
331
175E2
  5
175E2
331
175A3
  5
175A3
331
174F6
  5
174F6
331
1752D
  5
1752D
331
1756C
  5
1756C
331
175DE
  5
175DE
331
1759F
  5
1759F
331
174F2
  5
174F2
331
17529
  5
17529
331
17568
  5
17568
331
1759B
  5
1759B
331
17564
  5
17564
331
174EE
  5
174EE
331
17525
  5
17525
331
175DA
  5
175DA
331
17560
  5
17560
331
174EA
  5
174EA
331
17521
  5
17521
331
1761F
  5
1761F
331
1761B
  5
1761B
331
17617
  5
17617
331
17613
  5
17613
331
1837F
  5
17622
331
175D6
  5
175D6
331
17597
  5
17597
331
175D2
  5
175D2
331
1755C
  5
1755C
331
174E6
  5
174E6
331
1751D
  5
1751D
331
17593
  5
17593
331
175CE
  5
175CE
331
1758F
  5
1758F
331
174E2
  5
174E2
331
17519
  5
17519
331
17558
  5
17558
331
1758B
  5
1758B
331
17554
  5
17554
331
174DE
  5
174DE
331
17515
  5
17515
331
175CA
  5
175CA
331
17550
  5
17550
331
174DA
  5
174DA
331
17511
  5
17511
331
1760F
  5
1760F
331
1760B
  5
1760B
331
17607
  5
17607
331
17603
  5
17603
331
17587
  5
17587
331
175C6
  5
175C6
331
175C2
  5
175C2
331
1754C
  5
1754C
331
174D6
  5
174D6
331
1750D
  5
1750D
331
17583
  5
17583
331
175BE
  5
175BE
331
1757F
  5
1757F
331
174D2
  5
174D2
331
17509
  5
17509
331
17548
  5
17548
331
175BA
  5
175BA
331
1757B
  5
1757B
331
17544
  5
17544
331
174CE
  5
174CE
331
17505
  5
17505
331
17540
  5
17540
331
174CA
  5
174CA
331
17501
  5
17501
331
175FF
  5
175FF
331
175FB
  5
175FB
331
175F7
  5
175F7
331
17632
  5
17633
331
175F3
  5
175F3
331
181D7
  5
181D8
331
1753C
  5
1753C
331
175B2
  5
175B2
331
175ED
  5
175ED
331
175AE
  5
175AE
331
17577
  5
17577
331
174C2
  5
174C2
331
17538
  5
17538
331
175AA
  5
175AA
331
17573
  5
17573
331
17534
  5
17534
331
175E9
  5
175E9
331
174F9
  5
174F9
331
17530
  5
17530
331
1762E
  5
1762F
331
1762A
  5
1762B
331
17626
  5
17627
331
17622
  5
17623
331
175E5
  5
175E5
331
1756F
  5
1756F
331
175A6
  5
175A6
331
175E1
  5
175E1
331
175A2
  5
175A2
331
174F5
  5
174F5
331
1752C
  5
1752C
331
1756B
  5
1756B
331
175DD
  5
175DD
331
1759E
  5
1759E
331
17567
  5
17567
331
174F1
  5
174F1
331
17528
  5
17528
331
1759A
  5
1759A
331
17563
  5
17563
331
174ED
  5
174ED
331
17524
  5
17524
331
175D9
  5
175D9
331
174E9
  5
174E9
331
17520
  5
17520
331
1761E
  5
1761E
331
1761A
  5
1761A
331
17616
  5
17616
331
17612
  5
17612
331
175D5
  5
175D5
331
1755F
  5
1755F
331
17596
  5
17596
331
175D1
  5
175D1
331
17592
  5
17592
331
174E5
  5
174E5
331
1751C
  5
1751C
331
1755B
  5
1755B
331
175CD
  5
175CD
331
1758E
  5
1758E
331
174E1
  5
174E1
331
17518
  5
17518
331
17557
  5
17557
331
1758A
  5
1758A
331
17553
  5
17553
331
174DD
  5
174DD
331
17514
  5
17514
331
175C9
  5
175C9
331
174D9
  5
174D9
331
17510
  5
17510
331
1760E
  5
1760E
331
1760A
  5
1760A
331
17606
  5
17606
331
17602
  5
17602
331
175C5
  5
175C5
331
1754F
  5
1754F
331
17586
  5
17586
331
175C1
  5
175C1
331
1754B
  5
1754B
331
174D5
  5
174D5
331
1750C
  5
1750C
331
17582
  5
17582
331
175BD
  5
175BD
331
1757E
  5
1757E
331
174D1
  5
174D1
331
17508
  5
17508
331
17547
  5
17547
331
1757A
  5
1757A
331
17543
  5
17543
331
174CD
  5
174CD
331
17504
  5
17504
331
175B9
  5
175B9
331
174C9
  5
174C9
331
17500
  5
17500
331
175FE
  5
175FE
331
175FA
  5
175FA
331
175F6
  5
175F6
331
17631
  5
17632
331
175F2
  5
175F2
331
181D6
  5
181D7
331
1753F
  5
1753F
331
175B5
  5
175B5
331
174C5
  5
174C5
331
1753B
  5
1753B
331
175B1
  5
175B1
331
175AD
  5
175AD
331
17576
  5
17576
331
174C1
  5
174C1
331
17537
  5
17537
331
175EC
  5
175EC
331
175A9
  5
175A9
331
17572
  5
17572
331
174FC
  5
174FC
331
17533
  5
17533
331
175E8
  5
175E8
331
174F8
  5
174F8
331
1762D
  5
1762E
331
17629
  5
1762A
331
17625
  5
17626
331
17621
  5
17621
331
175E4
  5
175E4
331
1756E
  5
1756E
331
1752F
  5
1752F
331
175A5
  5
175A5
331
175E0
  5
175E0
331
175A1
  5
175A1
331
174F4
  5
174F4
331
1752B
  5
1752B
331
1756A
  5
1756A
331
175DC
  5
175DC
331
1759D
  5
1759D
331
17566
  5
17566
331
174F0
  5
174F0
331
17527
  5
17527
331
17599
  5
17599
331
17562
  5
17562
331
174EC
  5
174EC
331
17523
  5
17523
331
175D8
  5
175D8
331
174E8
  5
174E8
331
1761D
  5
1761D
331
17619
  5
17619
331
17615
  5
17615
331
17611
  5
17611
331
175D4
  5
175D4
331
1755E
  5
1755E
331
1751F
  5
1751F
331
17595
  5
17595
331
175D0
  5
175D0
331
17591
  5
17591
331
174E4
  5
174E4
331
1751B
  5
1751B
331
1755A
  5
1755A
331
175CC
  5
175CC
331
1758D
  5
1758D
331
17556
  5
17556
331
174E0
  5
174E0
331
17517
  5
17517
331
17589
  5
17589
331
17552
  5
17552
331
174DC
  5
174DC
331
17513
  5
17513
331
175C8
  5
175C8
331
174D8
  5
174D8
331
1760D
  5
1760D
331
17609
  5
17609
331
17605
  5
17605
331
17601
  5
17601
  0
XRECORD
  5
11CE
102
{ACAD_REACTORS
330
119A
102
}
330
119A
100
AcDbXrecord
280
     1
340
1A
  0
ACDBDETAILVIEWSTYLE
  5
1831A
102
{ACAD_XDICTIONARY
360
1834B
102
}
102
{ACAD_REACTORS
330
18319
102
}
330
18319
100
AcDbModelDocViewStyle
 70
     0
  3
Imperial24
290
     0
100
AcDbDetailViewStyle
 70
     0
 71
     0
 90
        3
 71
     1
340
11
 62
   256
 40
0.24
340
0
 62
   256
 40
0.24
300

 40
0.36
280
     3
 71
     2
340
15
 90
       25
 62
   256
 71
     3
340
11
 62
   256
 40
0.24
 90
        1
 40
0.75
 90
        1
300
%<\AcVar ViewType \f "%tc1">% %<\AcVar ViewDetailId>%\PSCALE %<\AcVar ViewScale \f "%sn">%
 71
     4
340
15
 90
       25
 62
   256
340
15
 90
       25
 62
   256
280
     0
  0
LAYOUT
  5
21
102
{ACAD_REACTORS
330
19
102
}
330
19
100
AcDbPlotSettings
  1

  2
RICOH imagio Neo C285 RPCS_3
  4
A4
  6

 40
5.873749732971191
 41
5.873747825622558
 42
5.873748779296875
 43
5.873748779296875
 44
209.9733276367187
 45
296.9259948730469
 46
0.0
 47
0.0
 48
-524.0504031446716
 49
8404.134969956061
140
-115.0504031446717
141
8683.134969956062
142
1.0
143
1.434189472501725
 70
 11952
 72
     1
 73
     1
 74
     4
  7
monochrome.ctb
 75
     0
147
0.6972579419758617
 76
     0
 77
     2
 78
   300
148
524.0504031446716
149
-8404.134969956061
100
AcDbLayout
  1
Model
 70
     1
 71
     0
 10
0.0
 20
0.0
 11
12.0
 21
9.0
 12
0.0
 22
0.0
 32
0.0
 14
0.0
 24
0.0
 34
0.0
 15
0.0
 25
0.0
 35
0.0
146
0.0
 13
0.0
 23
0.0
 33
0.0
 16
1.0
 26
0.0
 36
0.0
 17
0.0
 27
1.0
 37
0.0
 76
     0
330
1E
331
182C6
  0
LAYOUT
  5
1D
102
{ACAD_REACTORS
330
19
102
}
330
19
100
AcDbPlotSettings
  1

  2
RICOH imagio MP C2200 RPCS
  4
A3
  6

 40
5.873749732971191
 41
5.873747825622558
 42
5.873748779296875
 43
5.873748779296875
 44
296.9259948730469
 45
419.9466552734374
 46
0.0
 47
0.0
 48
18.43314144926884
 49
15.98711393996157
140
391.2000962230495
141
272.093511040438
142
1.0
143
0.9131987336517013
 70
   688
 72
     1
 73
     1
 74
     4
  7
monochrome.ctb
 75
     0
147
1.095051890842202
 76
     0
 77
     2
 78
   300
148
-18.43314144926884
149
-15.98711393996157
100
AcDbLayout
  1
ﾚｲｱｳﾄ1
 70
     0
 71
     1
 10
13.06924150222671
 20
10.62321312202526
 11
396.5639952991974
 21
281.7756556283633
 12
0.0
 22
0.0
 32
0.0
 14
12.94094296603259
 24
8.144786810508776
 34
0.0
 15
398.8732999224315
 25
281.7982811985451
 35
0.0
146
0.0
 13
0.0
 23
0.0
 33
0.0
 16
1.0
 26
0.0
 36
0.0
 17
0.0
 27
1.0
 37
0.0
 76
     0
330
1A
331
26F
  0
MATERIAL
  5
182D7
102
{ACAD_XDICTIONARY
360
182D8
102
}
102
{ACAD_REACTORS
330
182CE
102
}
330
182CE
100
AcDbMaterial
  1
ByBlock
 72
     0
 43
0.0208333333333333
 43
0.0
 43
0.0
 43
0.0
 43
0.0
 43
0.0208333333333333
 43
0.0
 43
0.0
 43
0.0
 43
0.0
 43
1.0
 43
0.0
 43
0.0
 43
0.0
 43
0.0
 43
1.0
 77
     0
 47
0.0208333333333333
 47
0.0
 47
0.0
 47
0.0
 47
0.0
 47
0.0208333333333333
 47
0.0
 47
0.0
 47
0.0
 47
0.0
 47
1.0
 47
0.0
 47
0.0
 47
0.0
 47
0.0
 47
1.0
171
     0
 49
0.0208333333333333
 49
0.0
 49
0.0
 49
0.0
 49
0.0
 49
0.0208333333333333
 49
0.0
 49
0.0
 49
0.0
 49
0.0
 49
1.0
 49
0.0
 49
0.0
 49
0.0
 49
0.0
 49
1.0
175
     0
142
0.0208333333333333
142
0.0
142
0.0
142
0.0
142
0.0
142
0.0208333333333333
142
0.0
142
0.0
142
0.0
142
0.0
142
1.0
142
0.0
142
0.0
142
0.0
142
0.0
142
1.0
179
     0
144
0.0208333333333333
144
0.0
144
0.0
144
0.0
144
0.0
144
0.0208333333333333
144
0.0
144
0.0
144
0.0
144
0.0
144
1.0
144
0.0
144
0.0
144
0.0
144
0.0
144
1.0
147
0.0208333333333333
147
0.0
147
0.0
147
0.0
147
0.0
147
0.0208333333333333
147
0.0
147
0.0
147
0.0
147
0.0
147
1.0
147
0.0
147
0.0
147
0.0
147
0.0
147
1.0
  0
MATERIAL
  5
182CF
102
{ACAD_XDICTIONARY
360
182D0
102
}
102
{ACAD_REACTORS
330
182CE
102
}
330
182CE
100
AcDbMaterial
  1
ByLayer
 72
     0
 43
0.0208333333333333
 43
0.0
 43
0.0
 43
0.0
 43
0.0
 43
0.0208333333333333
 43
0.0
 43
0.0
 43
0.0
 43
0.0
 43
1.0
 43
0.0
 43
0.0
 43
0.0
 43
0.0
 43
1.0
 77
     0
 47
0.0208333333333333
 47
0.0
 47
0.0
 47
0.0
 47
0.0
 47
0.0208333333333333
 47
0.0
 47
0.0
 47
0.0
 47
0.0
 47
1.0
 47
0.0
 47
0.0
 47
0.0
 47
0.0
 47
1.0
171
     0
 49
0.0208333333333333
 49
0.0
 49
0.0
 49
0.0
 49
0.0
 49
0.0208333333333333
 49
0.0
 49
0.0
 49
0.0
 49
0.0
 49
1.0
 49
0.0
 49
0.0
 49
0.0
 49
0.0
 49
1.0
175
     0
142
0.0208333333333333
142
0.0
142
0.0
142
0.0
142
0.0
142
0.0208333333333333
142
0.0
142
0.0
142
0.0
142
0.0
142
1.0
142
0.0
142
0.0
142
0.0
142
0.0
142
1.0
179
     0
144
0.0208333333333333
144
0.0
144
0.0
144
0.0
144
0.0
144
0.0208333333333333
144
0.0
144
0.0
144
0.0
144
0.0
144
1.0
144
0.0
144
0.0
144
0.0
144
0.0
144
1.0
147
0.0208333333333333
147
0.0
147
0.0
147
0.0
147
0.0
147
0.0208333333333333
147
0.0
147
0.0
147
0.0
147
0.0
147
1.0
147
0.0
147
0.0
147
0.0
147
0.0
147
1.0
  0
MATERIAL
  5
182DF
102
{ACAD_XDICTIONARY
360
182E0
102
}
102
{ACAD_REACTORS
330
182CE
102
}
330
182CE
100
AcDbMaterial
  1
Global
 72
     0
 43
0.0208333333333333
 43
0.0
 43
0.0
 43
0.0
 43
0.0
 43
0.0208333333333333
 43
0.0
 43
0.0
 43
0.0
 43
0.0
 43
1.0
 43
0.0
 43
0.0
 43
0.0
 43
0.0
 43
1.0
 77
     0
 47
0.0208333333333333
 47
0.0
 47
0.0
 47
0.0
 47
0.0
 47
0.0208333333333333
 47
0.0
 47
0.0
 47
0.0
 47
0.0
 47
1.0
 47
0.0
 47
0.0
 47
0.0
 47
0.0
 47
1.0
171
     0
 49
0.0208333333333333
 49
0.0
 49
0.0
 49
0.0
 49
0.0
 49
0.0208333333333333
 49
0.0
 49
0.0
 49
0.0
 49
0.0
 49
1.0
 49
0.0
 49
0.0
 49
0.0
 49
0.0
 49
1.0
175
     0
142
0.0208333333333333
142
0.0
142
0.0
142
0.0
142
0.0
142
0.0208333333333333
142
0.0
142
0.0
142
0.0
142
0.0
142
1.0
142
0.0
142
0.0
142
0.0
142
0.0
142
1.0
179
     0
144
0.0208333333333333
144
0.0
144
0.0
144
0.0
144
0.0
144
0.0208333333333333
144
0.0
144
0.0
144
0.0
144
0.0
144
1.0
144
0.0
144
0.0
144
0.0
144
0.0
144
1.0
147
0.0208333333333333
147
0.0
147
0.0
147
0.0
147
0.0
147
0.0208333333333333
147
0.0
147
0.0
147
0.0
147
0.0
147
1.0
147
0.0
147
0.0
147
0.0
147
0.0
147
1.0
  0
MLEADERSTYLE
  5
18316
102
{ACAD_REACTORS
330
18315
102
}
330
18315
100
AcDbMLeaderStyle
179
     2
170
     2
171
     1
172
     0
 90
        2
 40
0.0
 41
0.0
173
     1
 91
-1056964608
340
13
 92
       -2
290
     1
 42
0.09
291
     1
 43
0.36
  3
Standard
 44
0.18
300

342
11
174
     1
178
     6
175
     1
176
     0
 93
-1056964608
 45
0.18
292
     0
297
     0
 46
0.18
 94
-1056964608
 47
1.0
 49
1.0
140
1.0
293
     1
141
0.0
294
     1
177
     0
142
1.0
295
     1
296
     0
143
0.125
271
     0
272
     9
273
     9
298
     1
  0
MLINESTYLE
  5
17
102
{ACAD_REACTORS
330
16
102
}
330
16
100
AcDbMlineStyle
  2
STANDARD
 70
     0
  3

 62
   256
 51
90.0
 52
90.0
 71
     2
 49
0.5
 62
   256
  6
BYLAYER
 49
-0.5
 62
   256
  6
BYLAYER
  0
ACDBPLACEHOLDER
  5
F
102
{ACAD_REACTORS
330
E
102
}
330
E
  0
SCALE
  5
18304
102
{ACAD_REACTORS
330
18303
102
}
330
18303
100
AcDbScale
 70
     0
300
1:1
140
1.0
141
1.0
290
     1
  0
SCALE
  5
18305
102
{ACAD_REACTORS
330
18303
102
}
330
18303
100
AcDbScale
 70
     0
300
1/128" = 1'-0"
140
0.0078125
141
12.0
290
     0
  0
SCALE
  5
18306
102
{ACAD_REACTORS
330
18303
102
}
330
18303
100
AcDbScale
 70
     0
300
1/64" = 1'-0"
140
0.015625
141
12.0
290
     0
  0
SCALE
  5
18307
102
{ACAD_REACTORS
330
18303
102
}
330
18303
100
AcDbScale
 70
     0
300
1/32" = 1'-0"
140
0.03125
141
12.0
290
     0
  0
SCALE
  5
18308
102
{ACAD_REACTORS
330
18303
102
}
330
18303
100
AcDbScale
 70
     0
300
1/16" = 1'-0"
140
0.0625
141
12.0
290
     0
  0
SCALE
  5
18309
102
{ACAD_REACTORS
330
18303
102
}
330
18303
100
AcDbScale
 70
     0
300
3/32" = 1'-0"
140
0.09375
141
12.0
290
     0
  0
SCALE
  5
1830A
102
{ACAD_REACTORS
330
18303
102
}
330
18303
100
AcDbScale
 70
     0
300
1/8" = 1'-0"
140
0.125
141
12.0
290
     0
  0
SCALE
  5
1830B
102
{ACAD_REACTORS
330
18303
102
}
330
18303
100
AcDbScale
 70
     0
300
3/16" = 1'-0"
140
0.1875
141
12.0
290
     0
  0
SCALE
  5
1830C
102
{ACAD_REACTORS
330
18303
102
}
330
18303
100
AcDbScale
 70
     0
300
1/4" = 1'-0"
140
0.25
141
12.0
290
     0
  0
SCALE
  5
1830D
102
{ACAD_REACTORS
330
18303
102
}
330
18303
100
AcDbScale
 70
     0
300
3/8" = 1'-0"
140
0.375
141
12.0
290
     0
  0
SCALE
  5
1830E
102
{ACAD_REACTORS
330
18303
102
}
330
18303
100
AcDbScale
 70
     0
300
1/2" = 1'-0"
140
0.5
141
12.0
290
     0
  0
SCALE
  5
1830F
102
{ACAD_REACTORS
330
18303
102
}
330
18303
100
AcDbScale
 70
     0
300
3/4" = 1'-0"
140
0.75
141
12.0
290
     0
  0
SCALE
  5
18310
102
{ACAD_REACTORS
330
18303
102
}
330
18303
100
AcDbScale
 70
     0
300
1" = 1'-0"
140
1.0
141
12.0
290
     0
  0
SCALE
  5
18311
102
{ACAD_REACTORS
330
18303
102
}
330
18303
100
AcDbScale
 70
     0
300
1-1/2" = 1'-0"
140
1.5
141
12.0
290
     0
  0
SCALE
  5
18312
102
{ACAD_REACTORS
330
18303
102
}
330
18303
100
AcDbScale
 70
     0
300
3" = 1'-0"
140
3.0
141
12.0
290
     0
  0
SCALE
  5
18313
102
{ACAD_REACTORS
330
18303
102
}
330
18303
100
AcDbScale
 70
     0
300
6" = 1'-0"
140
6.0
141
12.0
290
     0
  0
SCALE
  5
18314
102
{ACAD_REACTORS
330
18303
102
}
330
18303
100
AcDbScale
 70
     0
300
1'-0" = 1'-0"
140
12.0
141
12.0
290
     0
  0
ACDBSECTIONVIEWSTYLE
  5
18318
102
{ACAD_XDICTIONARY
360
18349
102
}
102
{ACAD_REACTORS
330
18317
102
}
330
18317
100
AcDbModelDocViewStyle
 70
     0
  3
Imperial24
290
     0
100
AcDbSectionViewStyle
 70
     0
 71
     0
 90
       78
 71
     1
340
11
 62
   256
 40
0.24
340
0
340
0
 62
   256
 40
0.24
300
I, O, Q, S, X, Z
 40
0.48
 90
        3
 40
0.18
 90
        1
 71
     2
340
15
 90
       25
 62
   256
340
15
 90
       50
 62
   256
 40
0.24
 40
0.0
 40
0.24
 71
     3
340
11
 62
   256
 40
0.24
 90
        1
 40
0.75
 90
        1
300
%<\AcVar ViewType \f "%tc1">% %<\AcVar ViewSectionStartId>%-%<\AcVar ViewSectionEndId>%\PSCALE %<\AcVar ViewScale \f "%sn">%
 71
     4
 62
   256
 62
   257
300
ANSI31
 40
1.0
 90
        0
290
     0
290
     0
 90
        6
 40
0.0
 40
1.570796326794896
 40
0.2617993877991494
 40
1.308996938995747
 40
-0.2617993877991494
 40
1.832595714594046
  0
TABLESTYLE
  5
18302
102
{ACAD_XDICTIONARY
360
183FF
102
}
102
{ACAD_REACTORS
330
18301
102
}
330
18301
100
AcDbTableStyle
280
     0
  3
Standard
 70
     0
 71
     0
 40
0.06
 41
0.06
280
     0
281
     0
  7
STANDARD
140
0.18
170
     2
 62
     0
 63
     7
283
     0
 90
      512
 91
        0
  1

274
    -2
284
     1
 64
     0
275
    -2
285
     1
 65
     0
276
    -2
286
     1
 66
     0
277
    -2
287
     1
 67
     0
278
    -2
288
     1
 68
     0
279
    -2
289
     1
 69
     0
  7
STANDARD
140
0.25
170
     5
 62
     0
 63
     7
283
     0
 90
      512
 91
        0
  1

274
    -2
284
     1
 64
     0
275
    -2
285
     1
 65
     0
276
    -2
286
     1
 66
     0
277
    -2
287
     1
 67
     0
278
    -2
288
     1
 68
     0
279
    -2
289
     1
 69
     0
  7
STANDARD
140
0.18
170
     5
 62
     0
 63
     7
283
     0
 90
      512
 91
        0
  1

274
    -2
284
     1
 64
     0
275
    -2
285
     1
 65
     0
276
    -2
286
     1
 66
     0
277
    -2
287
     1
 67
     0
278
    -2
288
     1
 68
     0
279
    -2
289
     1
 69
     0
  0
VISUALSTYLE
  5
182ED
102
{ACAD_REACTORS
330
182E7
102
}
330
182E7
100
AcDbVisualStyle
  2
2dWireframe
 70
     4
177
     3
291
     0
 70
    58
 90
        0
176
     1
 90
        2
176
     1
 90
        0
176
     1
 90
        0
176
     1
 40
0.6
176
     1
 40
30.0
176
     1
 62
     7
420
 16777215
176
     1
 90
        1
176
     1
 90
        4
176
     1
 62
     7
176
     1
 62
   257
176
     1
 90
        1
176
     1
 90
        1
176
     1
 40
1.0
176
     1
 90
        0
176
     1
 62
   257
176
     1
 40
1.0
176
     1
 90
        1
176
     1
 90
        6
176
     1
 90
        2
176
     1
 62
     7
176
     1
 90
        5
176
     1
 90
        0
176
     1
 90
        0
176
     1
290
     0
176
     1
 90
        1
176
     1
 40
0.0
176
     1
 90
        0
176
     1
290
     1
176
     1
290
     1
176
     1
290
     0
176
     1
290
     0
176
     1
290
     0
176
     1
290
     0
176
     1
290
     0
176
     1
290
     0
176
     1
290
     0
176
     1
 90
       50
176
     1
 40
0.0
176
     1
 40
1.0
176
     1
 90
        0
176
     1
 62
    18
420
        0
176
     1
 90
       50
176
     1
 90
        3
176
     1
 62
     5
420
      255
176
     1
290
     0
176
     1
 90
       50
176
     1
 90
       50
176
     1
 90
       50
176
     1
290
     0
176
     1
 90
       50
176
     1
 62
   256
176
     0
 40
1.0
176
     0
 90
        2
176
     1
  1
strokes_ogs.tif
176
     1
290
     0
176
     1
 40
1.0
176
     1
 40
1.0
176
     1
  0
VISUALSTYLE
  5
182EC
102
{ACAD_REACTORS
330
182E7
102
}
330
182E7
100
AcDbVisualStyle
  2
Basic
 70
     7
177
     3
291
     1
 70
    58
 90
        1
176
     1
 90
        0
176
     1
 90
        1
176
     1
 90
        0
176
     1
 40
0.6
176
     1
 40
30.0
176
     1
 62
     7
420
 16777215
176
     1
 90
        0
176
     1
 90
        4
176
     1
 62
     7
176
     1
 62
   257
176
     1
 90
        1
176
     1
 90
        1
176
     1
 40
1.0
176
     1
 90
        8
176
     1
 62
     7
176
     1
 40
1.0
176
     1
 90
        1
176
     1
 90
        6
176
     1
 90
        2
176
     1
 62
     7
176
     1
 90
        5
176
     1
 90
        0
176
     1
 90
        0
176
     1
290
     0
176
     1
 90
        1
176
     1
 40
0.0
176
     1
 90
        0
176
     1
290
     0
176
     1
290
     1
176
     1
290
     1
176
     1
290
     0
176
     1
290
     0
176
     1
290
     0
176
     1
290
     0
176
     1
290
     0
176
     1
290
     0
176
     1
 90
       50
176
     1
 40
0.0
176
     1
 40
1.0
176
     1
 90
        0
176
     1
 62
    18
420
        0
176
     1
 90
       50
176
     1
 90
        3
176
     1
 62
     5
420
      255
176
     1
290
     0
176
     1
 90
       50
176
     1
 90
       50
176
     1
 90
       50
176
     1
290
     0
176
     1
 90
       50
176
     1
 62
   256
176
     0
 40
1.0
176
     0
 90
        2
176
     1
  1
strokes_ogs.tif
176
     1
290
     0
176
     1
 40
1.0
176
     1
 40
1.0
176
     1
  0
VISUALSTYLE
  5
182F3
102
{ACAD_REACTORS
330
182E7
102
}
330
182E7
100
AcDbVisualStyle
  2
Brighten
 70
    12
177
     3
291
     1
 70
    58
 90
        2
176
     1
 90
        2
176
     1
 90
        0
176
     1
 90
        0
176
     1
 40
0.6
176
     1
 40
30.0
176
     1
 62
     7
420
 16777215
176
     1
 90
        1
176
     1
 90
        4
176
     1
 62
     7
176
     1
 62
   257
176
     1
 90
        1
176
     1
 90
        1
176
     1
 40
1.0
176
     1
 90
        8
176
     1
 62
     7
176
     1
 40
1.0
176
     1
 90
        1
176
     1
 90
        6
176
     1
 90
        2
176
     1
 62
     7
176
     1
 90
        5
176
     1
 90
        0
176
     1
 90
        0
176
     1
290
     0
176
     1
 90
        1
176
     1
 40
50.0
176
     1
 90
        0
176
     1
290
     0
176
     1
290
     1
176
     1
290
     1
176
     1
290
     0
176
     1
290
     0
176
     1
290
     0
176
     1
290
     0
176
     1
290
     0
176
     1
290
     0
176
     1
 90
       50
176
     1
 40
0.0
176
     1
 40
1.0
176
     1
 90
        0
176
     1
 62
    18
420
        0
176
     1
 90
       50
176
     1
 90
        3
176
     1
 62
     5
420
      255
176
     1
290
     0
176
     1
 90
       50
176
     1
 90
       50
176
     1
 90
       50
176
     1
290
     0
176
     1
 90
       50
176
     1
 62
   256
176
     0
 40
1.0
176
     0
 90
        2
176
     1
  1
strokes_ogs.tif
176
     1
290
     0
176
     1
 40
1.0
176
     1
 40
1.0
176
     1
  0
VISUALSTYLE
  5
182F7
102
{ACAD_REACTORS
330
182E7
102
}
330
182E7
100
AcDbVisualStyle
  2
ColorChange
 70
    16
177
     3
291
     1
 70
    58
 90
        2
176
     1
 90
        2
176
     1
 90
        3
176
     1
 90
        0
176
     1
 40
0.6
176
     1
 40
30.0
176
     1
 62
     8
420
  8421504
176
     1
 90
        1
176
     1
 90
        4
176
     1
 62
     7
176
     1
 62
   257
176
     1
 90
        1
176
     1
 90
        1
176
     1
 40
1.0
176
     1
 90
        8
176
     1
 62
     8
420
  8421504
176
     1
 40
1.0
176
     1
 90
        1
176
     1
 90
        6
176
     1
 90
        2
176
     1
 62
     7
176
     1
 90
        5
176
     1
 90
        0
176
     1
 90
        0
176
     1
290
     0
176
     1
 90
        1
176
     1
 40
0.0
176
     1
 90
        0
176
     1
290
     0
176
     1
290
     1
176
     1
290
     1
176
     1
290
     0
176
     1
290
     0
176
     1
290
     0
176
     1
290
     0
176
     1
290
     0
176
     1
290
     0
176
     1
 90
       50
176
     1
 40
0.0
176
     1
 40
1.0
176
     1
 90
        0
176
     1
 62
    18
420
        0
176
     1
 90
       50
176
     1
 90
        3
176
     1
 62
     5
420
      255
176
     1
290
     0
176
     1
 90
       50
176
     1
 90
       50
176
     1
 90
       50
176
     1
290
     0
176
     1
 90
       50
176
     1
 62
   256
176
     0
 40
1.0
176
     0
 90
        2
176
     1
  1
strokes_ogs.tif
176
     1
290
     0
176
     1
 40
1.0
176
     1
 40
1.0
176
     1
  0
VISUALSTYLE
  5
182F0
102
{ACAD_REACTORS
330
182E7
102
}
330
182E7
100
AcDbVisualStyle
  2
Conceptual
 70
     9
177
     3
291
     0
 70
    58
 90
        3
176
     1
 90
        2
176
     1
 90
        0
176
     1
 90
        0
176
     1
 40
0.6
176
     1
 40
30.0
176
     1
 62
     7
420
 16777215
176
     1
 90
        2
176
     1
 90
        2
176
     1
 62
     7
176
     1
 62
   257
176
     1
 90
        1
176
     1
 90
        1
176
     1
 40
179.0
176
     1
 90
        8
176
     1
 62
     7
176
     1
 40
1.0
176
     1
 90
        1
176
     1
 90
        6
176
     1
 90
        2
176
     1
 62
     7
176
     1
 90
        3
176
     1
 90
        0
176
     1
 90
        0
176
     1
290
     0
176
     1
 90
        1
176
     1
 40
0.0
176
     1
 90
        0
176
     1
290
     0
176
     1
290
     1
176
     1
290
     1
176
     1
290
     0
176
     1
290
     0
176
     1
290
     0
176
     1
290
     0
176
     1
290
     0
176
     1
290
     0
176
     1
 90
       50
176
     1
 40
0.0
176
     1
 40
1.0
176
     1
 90
        0
176
     1
 62
    18
420
        0
176
     1
 90
       50
176
     1
 90
        3
176
     1
 62
     5
420
      255
176
     1
290
     0
176
     1
 90
       50
176
     1
 90
       50
176
     1
 90
       50
176
     1
290
     0
176
     1
 90
       50
176
     1
 62
   256
176
     0
 40
1.0
176
     0
 90
        2
176
     1
  1
strokes_ogs.tif
176
     1
290
     0
176
     1
 40
1.0
176
     1
 40
1.0
176
     1
  0
VISUALSTYLE
  5
182F2
102
{ACAD_REACTORS
330
182E7
102
}
330
182E7
100
AcDbVisualStyle
  2
Dim
 70
    11
177
     3
291
     1
 70
    58
 90
        2
176
     1
 90
        2
176
     1
 90
        0
176
     1
 90
        0
176
     1
 40
0.6
176
     1
 40
30.0
176
     1
 62
     7
420
 16777215
176
     1
 90
        1
176
     1
 90
        4
176
     1
 62
     7
176
     1
 62
   257
176
     1
 90
        1
176
     1
 90
        1
176
     1
 40
1.0
176
     1
 90
        8
176
     1
 62
     7
176
     1
 40
1.0
176
     1
 90
        1
176
     1
 90
        6
176
     1
 90
        2
176
     1
 62
     7
176
     1
 90
        5
176
     1
 90
        0
176
     1
 90
        0
176
     1
290
     0
176
     1
 90
        1
176
     1
 40
-50.0
176
     1
 90
        0
176
     1
290
     0
176
     1
290
     1
176
     1
290
     1
176
     1
290
     0
176
     1
290
     0
176
     1
290
     0
176
     1
290
     0
176
     1
290
     0
176
     1
290
     0
176
     1
 90
       50
176
     1
 40
0.0
176
     1
 40
1.0
176
     1
 90
        0
176
     1
 62
    18
420
        0
176
     1
 90
       50
176
     1
 90
        3
176
     1
 62
     5
420
      255
176
     1
290
     0
176
     1
 90
       50
176
     1
 90
       50
176
     1
 90
       50
176
     1
290
     0
176
     1
 90
       50
176
     1
 62
   256
176
     0
 40
1.0
176
     0
 90
        2
176
     1
  1
strokes_ogs.tif
176
     1
290
     0
176
     1
 40
1.0
176
     1
 40
1.0
176
     1
  0
VISUALSTYLE
  5
182FF
102
{ACAD_REACTORS
330
182E7
102
}
330
182E7
100
AcDbVisualStyle
  2
EdgeColorOff
 70
    22
177
     3
291
     1
 70
    58
 90
        2
176
     0
 90
        2
176
     0
 90
        0
176
     0
 90
        0
176
     0
 40
0.6
176
     0
 40
30.0
176
     0
 62
     7
420
 16777215
176
     0
 90
        1
176
     0
 90
        4
176
     0
 62
     7
176
     0
 62
   257
176
     0
 90
        1
176
     0
 90
        1
176
     0
 40
1.0
176
     0
 90
        8
176
     2
 62
     7
176
     0
 40
1.0
176
     0
 90
        1
176
     0
 90
        6
176
     0
 90
        2
176
     0
 62
     7
176
     0
 90
        5
176
     0
 90
        0
176
     0
 90
        0
176
     0
290
     0
176
     0
 90
        1
176
     0
 40
0.0
176
     0
 90
        0
176
     0
290
     0
176
     0
290
     1
176
     0
290
     1
176
     0
290
     0
176
     0
290
     0
176
     0
290
     0
176
     0
290
     0
176
     0
290
     0
176
     0
290
     0
176
     0
 90
       50
176
     0
 40
0.0
176
     0
 40
1.0
176
     0
 90
        0
176
     0
 62
    18
420
        0
176
     0
 90
       50
176
     0
 90
        3
176
     0
 62
     5
420
      255
176
     0
290
     0
176
     0
 90
       50
176
     0
 90
       50
176
     0
 90
       50
176
     0
290
     0
176
     0
 90
       50
176
     0
 62
   256
176
     0
 40
1.0
176
     0
 90
        2
176
     0
  1
strokes_ogs.tif
176
     0
290
     0
176
     0
 40
1.0
176
     0
 40
1.0
176
     0
  0
VISUALSTYLE
  5
182F6
102
{ACAD_REACTORS
330
182E7
102
}
330
182E7
100
AcDbVisualStyle
  2
Facepattern
 70
    15
177
     3
291
     1
 70
    58
 90
        2
176
     1
 90
        2
176
     1
 90
        0
176
     1
 90
        0
176
     1
 40
0.6
176
     1
 40
30.0
176
     1
 62
     7
420
 16777215
176
     1
 90
        1
176
     1
 90
        4
176
     1
 62
     7
176
     1
 62
   257
176
     1
 90
        1
176
     1
 90
        1
176
     1
 40
1.0
176
     1
 90
        8
176
     1
 62
     7
176
     1
 40
1.0
176
     1
 90
        1
176
     1
 90
        6
176
     1
 90
        2
176
     1
 62
     7
176
     1
 90
        5
176
     1
 90
        0
176
     1
 90
        0
176
     1
290
     0
176
     1
 90
        1
176
     1
 40
0.0
176
     1
 90
        0
176
     1
290
     0
176
     1
290
     1
176
     1
290
     1
176
     1
290
     0
176
     1
290
     0
176
     1
290
     0
176
     1
290
     0
176
     1
290
     0
176
     1
290
     0
176
     1
 90
       50
176
     1
 40
0.0
176
     1
 40
1.0
176
     1
 90
        0
176
     1
 62
    18
420
        0
176
     1
 90
       50
176
     1
 90
        3
176
     1
 62
     5
420
      255
176
     1
290
     0
176
     1
 90
       50
176
     1
 90
       50
176
     1
 90
       50
176
     1
290
     0
176
     1
 90
       50
176
     1
 62
   256
176
     0
 40
1.0
176
     0
 90
        2
176
     1
  1
strokes_ogs.tif
176
     1
290
     0
176
     1
 40
1.0
176
     1
 40
1.0
176
     1
  0
VISUALSTYLE
  5
182E8
102
{ACAD_REACTORS
330
182E7
102
}
330
182E7
100
AcDbVisualStyle
  2
Flat
 70
     0
177
     3
291
     1
 70
    58
 90
        2
176
     1
 90
        1
176
     1
 90
        1
176
     1
 90
        2
176
     1
 40
0.6
176
     1
 40
30.0
176
     1
 62
     7
420
 16777215
176
     1
 90
        0
176
     1
 90
        0
176
     1
 62
     7
176
     1
 62
   257
176
     1
 90
        1
176
     1
 90
        1
176
     1
 40
1.0
176
     1
 90
        8
176
     1
 62
     7
176
     1
 40
1.0
176
     1
 90
        1
176
     1
 90
        6
176
     1
 90
        2
176
     1
 62
     7
176
     1
 90
        5
176
     1
 90
        0
176
     1
 90
        0
176
     1
290
     0
176
     1
 90
       13
176
     1
 40
0.0
176
     1
 90
        0
176
     1
290
     0
176
     1
290
     1
176
     1
290
     1
176
     1
290
     0
176
     1
290
     0
176
     1
290
     0
176
     1
290
     0
176
     1
290
     0
176
     1
290
     0
176
     1
 90
       50
176
     1
 40
0.0
176
     1
 40
1.0
176
     1
 90
        0
176
     1
 62
    18
420
        0
176
     1
 90
       50
176
     1
 90
        3
176
     1
 62
     5
420
      255
176
     1
290
     0
176
     1
 90
       50
176
     1
 90
       50
176
     1
 90
       50
176
     1
290
     0
176
     1
 90
       50
176
     1
 62
   256
176
     0
 40
1.0
176
     0
 90
        2
176
     1
  1
strokes_ogs.tif
176
     1
290
     0
176
     1
 40
1.0
176
     1
 40
1.0
176
     1
  0
VISUALSTYLE
  5
182E9
102
{ACAD_REACTORS
330
182E7
102
}
330
182E7
100
AcDbVisualStyle
  2
FlatWithEdges
 70
     1
177
     3
291
     1
 70
    58
 90
        2
176
     1
 90
        1
176
     1
 90
        1
176
     1
 90
        2
176
     1
 40
0.6
176
     1
 40
30.0
176
     1
 62
     7
420
 16777215
176
     1
 90
        1
176
     1
 90
        0
176
     1
 62
     7
176
     1
 62
   257
176
     1
 90
        1
176
     1
 90
        1
176
     1
 40
1.0
176
     1
 90
        0
176
     1
 62
   257
176
     1
 40
1.0
176
     1
 90
        1
176
     1
 90
        6
176
     1
 90
        2
176
     1
 62
     7
176
     1
 90
        5
176
     1
 90
        0
176
     1
 90
        0
176
     1
290
     0
176
     1
 90
       13
176
     1
 40
0.0
176
     1
 90
        0
176
     1
290
     0
176
     1
290
     1
176
     1
290
     1
176
     1
290
     0
176
     1
290
     0
176
     1
290
     0
176
     1
290
     0
176
     1
290
     0
176
     1
290
     0
176
     1
 90
       50
176
     1
 40
0.0
176
     1
 40
1.0
176
     1
 90
        0
176
     1
 62
    18
420
        0
176
     1
 90
       50
176
     1
 90
        3
176
     1
 62
     5
420
      255
176
     1
290
     0
176
     1
 90
       50
176
     1
 90
       50
176
     1
 90
       50
176
     1
290
     0
176
     1
 90
       50
176
     1
 62
   256
176
     0
 40
1.0
176
     0
 90
        2
176
     1
  1
strokes_ogs.tif
176
     1
290
     0
176
     1
 40
1.0
176
     1
 40
1.0
176
     1
  0
VISUALSTYLE
  5
182EA
102
{ACAD_REACTORS
330
182E7
102
}
330
182E7
100
AcDbVisualStyle
  2
Gouraud
 70
     2
177
     3
291
     1
 70
    58
 90
        2
176
     1
 90
        2
176
     1
 90
        1
176
     1
 90
        2
176
     1
 40
0.6
176
     1
 40
30.0
176
     1
 62
     7
420
 16777215
176
     1
 90
        0
176
     1
 90
        0
176
     1
 62
     7
176
     1
 62
   257
176
     1
 90
        1
176
     1
 90
        1
176
     1
 40
1.0
176
     1
 90
        0
176
     1
 62
     7
176
     1
 40
1.0
176
     1
 90
        1
176
     1
 90
        6
176
     1
 90
        2
176
     1
 62
     7
176
     1
 90
        5
176
     1
 90
        0
176
     1
 90
        0
176
     1
290
     0
176
     1
 90
       13
176
     1
 40
0.0
176
     1
 90
        0
176
     1
290
     0
176
     1
290
     1
176
     1
290
     1
176
     1
290
     0
176
     1
290
     0
176
     1
290
     0
176
     1
290
     0
176
     1
290
     0
176
     1
290
     0
176
     1
 90
       50
176
     1
 40
0.0
176
     1
 40
1.0
176
     1
 90
        0
176
     1
 62
    18
420
        0
176
     1
 90
       50
176
     1
 90
        3
176
     1
 62
     5
420
      255
176
     1
290
     0
176
     1
 90
       50
176
     1
 90
       50
176
     1
 90
       50
176
     1
290
     0
176
     1
 90
       50
176
     1
 62
   256
176
     0
 40
1.0
176
     0
 90
        2
176
     1
  1
strokes_ogs.tif
176
     1
290
     0
176
     1
 40
1.0
176
     1
 40
1.0
176
     1
  0
VISUALSTYLE
  5
182EB
102
{ACAD_REACTORS
330
182E7
102
}
330
182E7
100
AcDbVisualStyle
  2
GouraudWithEdges
 70
     3
177
     3
291
     1
 70
    58
 90
        2
176
     1
 90
        2
176
     1
 90
        1
176
     1
 90
        2
176
     1
 40
0.6
176
     1
 40
30.0
176
     1
 62
     7
420
 16777215
176
     1
 90
        1
176
     1
 90
        0
176
     1
 62
     7
176
     1
 62
   257
176
     1
 90
        1
176
     1
 90
        1
176
     1
 40
1.0
176
     1
 90
        0
176
     1
 62
   257
176
     1
 40
1.0
176
     1
 90
        1
176
     1
 90
        6
176
     1
 90
        2
176
     1
 62
     7
176
     1
 90
        5
176
     1
 90
        0
176
     1
 90
        0
176
     1
290
     0
176
     1
 90
       13
176
     1
 40
0.0
176
     1
 90
        0
176
     1
290
     0
176
     1
290
     1
176
     1
290
     1
176
     1
290
     0
176
     1
290
     0
176
     1
290
     0
176
     1
290
     0
176
     1
290
     0
176
     1
290
     0
176
     1
 90
       50
176
     1
 40
0.0
176
     1
 40
1.0
176
     1
 90
        0
176
     1
 62
    18
420
        0
176
     1
 90
       50
176
     1
 90
        3
176
     1
 62
     5
420
      255
176
     1
290
     0
176
     1
 90
       50
176
     1
 90
       50
176
     1
 90
       50
176
     1
290
     0
176
     1
 90
       50
176
     1
 62
   256
176
     0
 40
1.0
176
     0
 90
        2
176
     1
  1
strokes_ogs.tif
176
     1
290
     0
176
     1
 40
1.0
176
     1
 40
1.0
176
     1
  0
VISUALSTYLE
  5
182EF
102
{ACAD_REACTORS
330
182E7
102
}
330
182E7
100
AcDbVisualStyle
  2
Hidden
 70
     6
177
     3
291
     0
 70
    58
 90
        1
176
     1
 90
        2
176
     1
 90
        2
176
     1
 90
        0
176
     1
 40
0.6
176
     1
 40
30.0
176
     1
 62
     7
420
 16777215
176
     1
 90
        2
176
     1
 90
        2
176
     1
 62
     7
176
     1
 62
   257
176
     1
 90
        2
176
     1
 90
        1
176
     1
 40
40.0
176
     1
 90
        0
176
     1
 62
   257
176
     1
 40
1.0
176
     1
 90
        1
176
     1
 90
        6
176
     1
 90
        2
176
     1
 62
     7
176
     1
 90
        3
176
     1
 90
        0
176
     1
 90
        0
176
     1
290
     0
176
     1
 90
        1
176
     1
 40
0.0
176
     1
 90
        0
176
     1
290
     0
176
     1
290
     1
176
     1
290
     1
176
     1
290
     0
176
     1
290
     0
176
     1
290
     0
176
     1
290
     0
176
     1
290
     0
176
     1
290
     0
176
     1
 90
       50
176
     1
 40
0.0
176
     1
 40
1.0
176
     1
 90
        0
176
     1
 62
    18
420
        0
176
     1
 90
       50
176
     1
 90
        3
176
     1
 62
     5
420
      255
176
     1
290
     0
176
     1
 90
       50
176
     1
 90
       50
176
     1
 90
       50
176
     1
290
     0
176
     1
 90
       50
176
     1
 62
   256
176
     0
 40
1.0
176
     0
 90
        2
176
     1
  1
strokes_ogs.tif
176
     1
290
     0
176
     1
 40
1.0
176
     1
 40
1.0
176
     1
  0
VISUALSTYLE
  5
182FD
102
{ACAD_REACTORS
330
182E7
102
}
330
182E7
100
AcDbVisualStyle
  2
JitterOff
 70
    20
177
     3
291
     1
 70
    58
 90
        2
176
     0
 90
        2
176
     0
 90
        0
176
     0
 90
        0
176
     0
 40
0.6
176
     0
 40
30.0
176
     0
 62
     7
420
 16777215
176
     0
 90
        1
176
     0
 90
        4
176
     0
 62
     7
176
     0
 62
   257
176
     0
 90
        1
176
     0
 90
        1
176
     0
 40
1.0
176
     0
 90
       10
176
     2
 62
     7
176
     0
 40
1.0
176
     0
 90
        1
176
     0
 90
        6
176
     0
 90
        2
176
     0
 62
     7
176
     0
 90
        5
176
     0
 90
        0
176
     0
 90
        0
176
     0
290
     0
176
     0
 90
        1
176
     0
 40
0.0
176
     0
 90
        0
176
     0
290
     0
176
     0
290
     1
176
     0
290
     1
176
     0
290
     0
176
     0
290
     0
176
     0
290
     0
176
     0
290
     0
176
     0
290
     0
176
     0
290
     0
176
     0
 90
       50
176
     0
 40
0.0
176
     0
 40
1.0
176
     0
 90
        0
176
     0
 62
    18
420
        0
176
     0
 90
       50
176
     0
 90
        3
176
     0
 62
     5
420
      255
176
     0
290
     0
176
     0
 90
       50
176
     0
 90
       50
176
     0
 90
       50
176
     0
290
     0
176
     0
 90
       50
176
     0
 62
   256
176
     0
 40
1.0
176
     0
 90
        2
176
     0
  1
strokes_ogs.tif
176
     0
290
     0
176
     0
 40
1.0
176
     0
 40
1.0
176
     0
  0
VISUALSTYLE
  5
182F5
102
{ACAD_REACTORS
330
182E7
102
}
330
182E7
100
AcDbVisualStyle
  2
Linepattern
 70
    14
177
     3
291
     1
 70
    58
 90
        2
176
     1
 90
        2
176
     1
 90
        0
176
     1
 90
        0
176
     1
 40
0.6
176
     1
 40
30.0
176
     1
 62
     7
420
 16777215
176
     1
 90
        1
176
     1
 90
        4
176
     1
 62
     7
176
     1
 62
   257
176
     1
 90
        7
176
     1
 90
        7
176
     1
 40
1.0
176
     1
 90
        8
176
     1
 62
     7
176
     1
 40
1.0
176
     1
 90
        1
176
     1
 90
        6
176
     1
 90
        2
176
     1
 62
     7
176
     1
 90
        5
176
     1
 90
        0
176
     1
 90
        0
176
     1
290
     0
176
     1
 90
        1
176
     1
 40
0.0
176
     1
 90
        0
176
     1
290
     0
176
     1
290
     1
176
     1
290
     1
176
     1
290
     0
176
     1
290
     0
176
     1
290
     0
176
     1
290
     0
176
     1
290
     0
176
     1
290
     0
176
     1
 90
       50
176
     1
 40
0.0
176
     1
 40
1.0
176
     1
 90
        0
176
     1
 62
    18
420
        0
176
     1
 90
       50
176
     1
 90
        3
176
     1
 62
     5
420
      255
176
     1
290
     0
176
     1
 90
       50
176
     1
 90
       50
176
     1
 90
       50
176
     1
290
     0
176
     1
 90
       50
176
     1
 62
   256
176
     0
 40
1.0
176
     0
 90
        2
176
     1
  1
strokes_ogs.tif
176
     1
290
     0
176
     1
 40
1.0
176
     1
 40
1.0
176
     1
  0
VISUALSTYLE
  5
182FE
102
{ACAD_REACTORS
330
182E7
102
}
330
182E7
100
AcDbVisualStyle
  2
OverhangOff
 70
    21
177
     3
291
     1
 70
    58
 90
        2
176
     0
 90
        2
176
     0
 90
        0
176
     0
 90
        0
176
     0
 40
0.6
176
     0
 40
30.0
176
     0
 62
     7
420
 16777215
176
     0
 90
        1
176
     0
 90
        4
176
     0
 62
     7
176
     0
 62
   257
176
     0
 90
        1
176
     0
 90
        1
176
     0
 40
1.0
176
     0
 90
        9
176
     2
 62
     7
176
     0
 40
1.0
176
     0
 90
        1
176
     0
 90
        6
176
     0
 90
        2
176
     0
 62
     7
176
     0
 90
        5
176
     0
 90
        0
176
     0
 90
        0
176
     0
290
     0
176
     0
 90
        1
176
     0
 40
0.0
176
     0
 90
        0
176
     0
290
     0
176
     0
290
     1
176
     0
290
     1
176
     0
290
     0
176
     0
290
     0
176
     0
290
     0
176
     0
290
     0
176
     0
290
     0
176
     0
290
     0
176
     0
 90
       50
176
     0
 40
0.0
176
     0
 40
1.0
176
     0
 90
        0
176
     0
 62
    18
420
        0
176
     0
 90
       50
176
     0
 90
        3
176
     0
 62
     5
420
      255
176
     0
290
     0
176
     0
 90
       50
176
     0
 90
       50
176
     0
 90
       50
176
     0
290
     0
176
     0
 90
       50
176
     0
 62
   256
176
     0
 40
1.0
176
     0
 90
        2
176
     0
  1
strokes_ogs.tif
176
     0
290
     0
176
     0
 40
1.0
176
     0
 40
1.0
176
     0
  0
VISUALSTYLE
  5
182F1
102
{ACAD_REACTORS
330
182E7
102
}
330
182E7
100
AcDbVisualStyle
  2
Realistic
 70
     8
177
     3
291
     0
 70
    58
 90
        2
176
     1
 90
        3
176
     1
 90
        0
176
     1
 90
        2
176
     1
 40
0.6
176
     1
 40
30.0
176
     1
 62
     7
420
 16777215
176
     1
 90
        0
176
     1
 90
        0
176
     1
 62
     7
176
     1
 62
   257
176
     1
 90
        1
176
     1
 90
        1
176
     1
 40
1.0
176
     1
 90
        8
176
     1
 62
   257
176
     1
 40
1.0
176
     1
 90
        1
176
     1
 90
        6
176
     1
 90
        2
176
     1
 62
     7
176
     1
 90
        3
176
     1
 90
        0
176
     1
 90
        0
176
     1
290
     0
176
     1
 90
       13
176
     1
 40
0.0
176
     1
 90
        0
176
     1
290
     0
176
     1
290
     1
176
     1
290
     1
176
     1
290
     0
176
     1
290
     0
176
     1
290
     0
176
     1
290
     0
176
     1
290
     0
176
     1
290
     0
176
     1
 90
       50
176
     1
 40
0.0
176
     1
 40
1.0
176
     1
 90
        0
176
     1
 62
    18
420
        0
176
     1
 90
       50
176
     1
 90
        3
176
     1
 62
     5
420
      255
176
     1
290
     0
176
     1
 90
       50
176
     1
 90
       50
176
     1
 90
       50
176
     1
290
     0
176
     1
 90
       50
176
     1
 62
   256
176
     0
 40
1.0
176
     0
 90
        2
176
     1
  1
strokes_ogs.tif
176
     1
290
     0
176
     1
 40
1.0
176
     1
 40
1.0
176
     1
  0
VISUALSTYLE
  5
182FC
102
{ACAD_REACTORS
330
182E7
102
}
330
182E7
100
AcDbVisualStyle
  2
Shaded
 70
    27
177
     3
291
     0
 70
    58
 90
        2
176
     1
 90
        2
176
     1
 90
        1
176
     1
 90
        2
176
     1
 40
0.6
176
     1
 40
30.0
176
     1
 62
     7
420
 16777215
176
     1
 90
        0
176
     1
 90
        4
176
     1
 62
     7
176
     1
 62
   257
176
     1
 90
        1
176
     1
 90
        1
176
     1
 40
1.0
176
     1
 90
        8
176
     1
 62
   257
176
     1
 40
1.0
176
     1
 90
        1
176
     1
 90
        6
176
     1
 90
        2
176
     1
 62
     8
420
  7895160
176
     1
 90
        3
176
     1
 90
        0
176
     1
 90
        0
176
     1
290
     0
176
     1
 90
        5
176
     1
 40
0.0
176
     1
 90
        0
176
     1
290
     0
176
     1
290
     1
176
     1
290
     1
176
     1
290
     0
176
     1
290
     0
176
     1
290
     0
176
     1
290
     0
176
     1
290
     0
176
     1
290
     0
176
     1
 90
       50
176
     1
 40
0.0
176
     1
 40
1.0
176
     1
 90
        0
176
     1
 62
    18
420
        0
176
     1
 90
       50
176
     1
 90
        3
176
     1
 62
     5
420
      255
176
     1
290
     0
176
     1
 90
       50
176
     1
 90
       50
176
     1
 90
       50
176
     1
290
     0
176
     1
 90
       50
176
     1
 62
   256
176
     0
 40
1.0
176
     0
 90
        2
176
     1
  1
strokes_ogs.tif
176
     1
290
     0
176
     1
 40
1.0
176
     1
 40
1.0
176
     1
  0
VISUALSTYLE
  5
182FB
102
{ACAD_REACTORS
330
182E7
102
}
330
182E7
100
AcDbVisualStyle
  2
Shaded with edges
 70
    26
177
     3
291
     0
 70
    58
 90
        2
176
     1
 90
        2
176
     1
 90
        1
176
     1
 90
        2
176
     1
 40
0.6
176
     1
 40
30.0
176
     1
 62
     7
420
 16777215
176
     1
 90
        1
176
     1
 90
       10
176
     1
 62
     7
176
     1
 62
   257
176
     1
 90
        2
176
     1
 90
        1
176
     1
 40
1.0
176
     1
 90
        8
176
     1
 62
   257
176
     1
 40
1.0
176
     1
 90
        1
176
     1
 90
        6
176
     1
 90
        2
176
     1
 62
     7
176
     1
 90
        3
176
     1
 90
        0
176
     1
 90
        0
176
     1
290
     0
176
     1
 90
        5
176
     1
 40
0.0
176
     1
 90
        0
176
     1
290
     0
176
     1
290
     1
176
     1
290
     1
176
     1
290
     0
176
     1
290
     0
176
     1
290
     0
176
     1
290
     0
176
     1
290
     0
176
     1
290
     0
176
     1
 90
       50
176
     1
 40
0.0
176
     1
 40
1.0
176
     1
 90
        0
176
     1
 62
    18
420
        0
176
     1
 90
       50
176
     1
 90
        3
176
     1
 62
     5
420
      255
176
     1
290
     0
176
     1
 90
       50
176
     1
 90
       50
176
     1
 90
       50
176
     1
290
     0
176
     1
 90
       50
176
     1
 62
   256
176
     0
 40
1.0
176
     0
 90
        2
176
     1
  1
strokes_ogs.tif
176
     1
290
     0
176
     1
 40
1.0
176
     1
 40
1.0
176
     1
  0
VISUALSTYLE
  5
182F8
102
{ACAD_REACTORS
330
182E7
102
}
330
182E7
100
AcDbVisualStyle
  2
Shades of Gray
 70
    23
177
     3
291
     0
 70
    58
 90
        2
176
     1
 90
        2
176
     1
 90
        3
176
     1
 90
        0
176
     1
 40
0.6
176
     1
 40
30.0
176
     1
 62
     7
420
 16777215
176
     1
 90
        2
176
     1
 90
        2
176
     1
 62
     7
176
     1
 62
     7
176
     1
 90
        1
176
     1
 90
        1
176
     1
 40
40.0
176
     1
 90
        8
176
     1
 62
     7
176
     1
 40
1.0
176
     1
 90
        1
176
     1
 90
        6
176
     1
 90
        2
176
     1
 62
     7
176
     1
 90
        3
176
     1
 90
        0
176
     1
 90
        0
176
     1
290
     0
176
     1
 90
        1
176
     1
 40
0.0
176
     1
 90
        0
176
     1
290
     0
176
     1
290
     1
176
     1
290
     1
176
     1
290
     0
176
     1
290
     0
176
     1
290
     0
176
     1
290
     0
176
     1
290
     0
176
     1
290
     0
176
     1
 90
       50
176
     1
 40
0.0
176
     1
 40
1.0
176
     1
 90
        0
176
     1
 62
    18
420
        0
176
     1
 90
       50
176
     1
 90
        3
176
     1
 62
     5
420
      255
176
     1
290
     0
176
     1
 90
       50
176
     1
 90
       50
176
     1
 90
       50
176
     1
290
     0
176
     1
 90
       50
176
     1
 62
   256
176
     0
 40
1.0
176
     0
 90
        2
176
     1
  1
strokes_ogs.tif
176
     1
290
     0
176
     1
 40
1.0
176
     1
 40
1.0
176
     1
  0
VISUALSTYLE
  5
182F9
102
{ACAD_REACTORS
330
182E7
102
}
330
182E7
100
AcDbVisualStyle
  2
Sketchy
 70
    24
177
     3
291
     0
 70
    58
 90
        1
176
     1
 90
        2
176
     1
 90
        2
176
     1
 90
        0
176
     1
 40
0.6
176
     1
 40
30.0
176
     1
 62
     7
420
 16777215
176
     1
 90
        2
176
     1
 90
        2
176
     1
 62
     7
176
     1
 62
     7
176
     1
 90
        1
176
     1
 90
        1
176
     1
 40
40.0
176
     1
 90
       11
176
     1
 62
     7
176
     1
 40
1.0
176
     1
 90
        1
176
     1
 90
        6
176
     1
 90
        2
176
     1
 62
     7
176
     1
 90
        6
176
     1
 90
        0
176
     1
 90
        0
176
     1
290
     0
176
     1
 90
        1
176
     1
 40
0.0
176
     1
 90
        0
176
     1
290
     0
176
     1
290
     1
176
     1
290
     1
176
     1
290
     0
176
     1
290
     0
176
     1
290
     0
176
     1
290
     0
176
     1
290
     0
176
     1
290
     0
176
     1
 90
       50
176
     1
 40
0.0
176
     1
 40
1.0
176
     1
 90
        0
176
     1
 62
    18
420
        0
176
     1
 90
       50
176
     1
 90
        3
176
     1
 62
     5
420
      255
176
     1
290
     0
176
     1
 90
       50
176
     1
 90
       50
176
     1
 90
       50
176
     1
290
     0
176
     1
 90
       50
176
     1
 62
   256
176
     0
 40
1.0
176
     0
 90
        2
176
     1
  1
strokes_ogs.tif
176
     1
290
     0
176
     1
 40
1.0
176
     1
 40
1.0
176
     1
  0
VISUALSTYLE
  5
182F4
102
{ACAD_REACTORS
330
182E7
102
}
330
182E7
100
AcDbVisualStyle
  2
Thicken
 70
    13
177
     3
291
     1
 70
    58
 90
        2
176
     1
 90
        2
176
     1
 90
        0
176
     1
 90
        0
176
     1
 40
0.6
176
     1
 40
30.0
176
     1
 62
     7
420
 16777215
176
     1
 90
        1
176
     1
 90
        4
176
     1
 62
     7
176
     1
 62
   257
176
     1
 90
        1
176
     1
 90
        1
176
     1
 40
1.0
176
     1
 90
       12
176
     1
 62
     7
176
     1
 40
1.0
176
     1
 90
        1
176
     1
 90
        6
176
     1
 90
        2
176
     1
 62
     7
176
     1
 90
        5
176
     1
 90
        0
176
     1
 90
        0
176
     1
290
     0
176
     1
 90
        1
176
     1
 40
0.0
176
     1
 90
        0
176
     1
290
     0
176
     1
290
     1
176
     1
290
     1
176
     1
290
     0
176
     1
290
     0
176
     1
290
     0
176
     1
290
     0
176
     1
290
     0
176
     1
290
     0
176
     1
 90
       50
176
     1
 40
0.0
176
     1
 40
1.0
176
     1
 90
        0
176
     1
 62
    18
420
        0
176
     1
 90
       50
176
     1
 90
        3
176
     1
 62
     5
420
      255
176
     1
290
     0
176
     1
 90
       50
176
     1
 90
       50
176
     1
 90
       50
176
     1
290
     0
176
     1
 90
       50
176
     1
 62
   256
176
     0
 40
1.0
176
     0
 90
        2
176
     1
  1
strokes_ogs.tif
176
     1
290
     0
176
     1
 40
1.0
176
     1
 40
1.0
176
     1
  0
VISUALSTYLE
  5
182EE
102
{ACAD_REACTORS
330
182E7
102
}
330
182E7
100
AcDbVisualStyle
  2
Wireframe
 70
     5
177
     3
291
     0
 70
    58
 90
        0
176
     1
 90
        2
176
     1
 90
        0
176
     1
 90
        0
176
     1
 40
0.6
176
     1
 40
30.0
176
     1
 62
     7
420
 16777215
176
     1
 90
        1
176
     1
 90
        4
176
     1
 62
     7
176
     1
 62
   257
176
     1
 90
        1
176
     1
 90
        1
176
     1
 40
1.0
176
     1
 90
        0
176
     1
 62
   257
176
     1
 40
1.0
176
     1
 90
        1
176
     1
 90
        6
176
     1
 90
        2
176
     1
 62
     7
176
     1
 90
        3
176
     1
 90
        0
176
     1
 90
        0
176
     1
290
     0
176
     1
 90
        1
176
     1
 40
0.0
176
     1
 90
        0
176
     1
290
     0
176
     1
290
     1
176
     1
290
     1
176
     1
290
     0
176
     1
290
     0
176
     1
290
     0
176
     1
290
     0
176
     1
290
     0
176
     1
290
     0
176
     1
 90
       50
176
     1
 40
0.0
176
     1
 40
1.0
176
     1
 90
        0
176
     1
 62
    18
420
        0
176
     1
 90
       50
176
     1
 90
        3
176
     1
 62
     5
420
      255
176
     1
290
     0
176
     1
 90
       50
176
     1
 90
       50
176
     1
 90
       50
176
     1
290
     0
176
     1
 90
       50
176
     1
 62
   256
176
     0
 40
1.0
176
     0
 90
        2
176
     1
  1
strokes_ogs.tif
176
     1
290
     0
176
     1
 40
1.0
176
     1
 40
1.0
176
     1
  0
VISUALSTYLE
  5
182FA
102
{ACAD_REACTORS
330
182E7
102
}
330
182E7
100
AcDbVisualStyle
  2
X-Ray
 70
    25
177
     3
291
     0
 70
    58
 90
        2
176
     1
 90
        2
176
     1
 90
        1
176
     1
 90
        1
176
     1
 40
0.5
176
     1
 40
30.0
176
     1
 62
     7
420
 16777215
176
     1
 90
        1
176
     1
 90
        0
176
     1
 62
     7
176
     1
 62
   257
176
     1
 90
        1
176
     1
 90
        1
176
     1
 40
1.0
176
     1
 90
        8
176
     1
 62
     7
176
     1
 40
1.0
176
     1
 90
        1
176
     1
 90
        6
176
     1
 90
        2
176
     1
 62
     7
176
     1
 90
        3
176
     1
 90
        0
176
     1
 90
        0
176
     1
290
     0
176
     1
 90
       13
176
     1
 40
0.0
176
     1
 90
        0
176
     1
290
     0
176
     1
290
     1
176
     1
290
     1
176
     1
290
     0
176
     1
290
     0
176
     1
290
     0
176
     1
290
     0
176
     1
290
     0
176
     1
290
     0
176
     1
 90
       50
176
     1
 40
0.0
176
     1
 40
1.0
176
     1
 90
        0
176
     1
 62
    18
420
        0
176
     1
 90
       50
176
     1
 90
        3
176
     1
 62
     5
420
      255
176
     1
290
     0
176
     1
 90
       50
176
     1
 90
       50
176
     1
 90
       50
176
     1
290
     0
176
     1
 90
       50
176
     1
 62
   256
176
     0
 40
1.0
176
     0
 90
        2
176
     1
  1
strokes_ogs.tif
176
     1
290
     0
176
     1
 40
1.0
176
     1
 40
1.0
176
     1
  0
DICTIONARYVAR
  5
18353
102
{ACAD_REACTORS
330
15F3
102
}
330
15F3
100
DictionaryVariables
280
     0
  1
1:1
  0
DICTIONARYVAR
  5
1834F
102
{ACAD_REACTORS
330
15F3
102
}
330
15F3
100
DictionaryVariables
280
     0
  1
STANDARD
  0
DICTIONARYVAR
  5
1834E
102
{ACAD_REACTORS
330
15F3
102
}
330
15F3
100
DictionaryVariables
280
     0
  1
STANDARD
  0
DICTIONARYVAR
  5
18350
102
{ACAD_REACTORS
330
15F3
102
}
330
15F3
100
DictionaryVariables
280
     0
  1
Imperial24
  0
DICTIONARYVAR
  5
18351
102
{ACAD_REACTORS
330
15F3
102
}
330
15F3
100
DictionaryVariables
280
     0
  1
Imperial24
  0
DICTIONARYVAR
  5
18355
102
{ACAD_REACTORS
330
15F3
102
}
330
15F3
100
DictionaryVariables
280
     0
  1
1
  0
DICTIONARYVAR
  5
18356
102
{ACAD_REACTORS
330
15F3
102
}
330
15F3
100
DictionaryVariables
280
     0
  1
15
  0
DICTIONARYVAR
  5
18354
102
{ACAD_REACTORS
330
15F3
102
}
330
15F3
100
DictionaryVariables
280
     0
  1
0
  0
DICTIONARYVAR
  5
18352
102
{ACAD_REACTORS
330
15F3
102
}
330
15F3
100
DictionaryVariables
280
     0
  1
0
  0
DICTIONARYVAR
  5
15F4
102
{ACAD_REACTORS
330
15F3
102
}
330
15F3
100
DictionaryVariables
280
     0
  1
96
  0
DICTIONARY
  5
1834B
330
1831A
100
AcDbDictionary
280
     1
281
     1
  3
ACAD_XREC_ROUNDTRIP
360
18402
  0
DICTIONARY
  5
182D8
330
182D7
100
AcDbDictionary
280
     1
281
     1
  3
BUMPTILE
360
182DA
  3
DIFFUSETILE
360
182D9
  3
OPACITYTILE
360
182DD
  3
REFLECTIONTILE
360
182DC
  3
REFRACTIONTILE
360
182DE
  3
SPECULARTILE
360
182DB
  0
DICTIONARY
  5
182D0
330
182CF
100
AcDbDictionary
280
     1
281
     1
  3
BUMPTILE
360
182D2
  3
DIFFUSETILE
360
182D1
  3
OPACITYTILE
360
182D5
  3
REFLECTIONTILE
360
182D4
  3
REFRACTIONTILE
360
182D6
  3
SPECULARTILE
360
182D3
  0
DICTIONARY
  5
182E0
330
182DF
100
AcDbDictionary
280
     1
281
     1
  3
BUMPTILE
360
182E2
  3
DIFFUSETILE
360
182E1
  3
OPACITYTILE
360
182E5
  3
REFLECTIONTILE
360
182E4
  3
REFRACTIONTILE
360
182E6
  3
SPECULARTILE
360
182E3
  0
DICTIONARY
  5
18349
330
18318
100
AcDbDictionary
280
     1
281
     1
  3
ACAD_XREC_ROUNDTRIP
360
18401
  0
DICTIONARY
  5
183FF
330
18302
100
AcDbDictionary
280
     1
281
     1
  3
ACAD_ROUNDTRIP_2008_TABLESTYLE_CELLSTYLEMAP
360
18400
  0
XRECORD
  5
18402
102
{ACAD_REACTORS
330
1834B
102
}
330
1834B
100
AcDbXrecord
280
     1
102
DISPLAYNAME
  1
Imperial24
102
FLAGS
 90
        0
  0
XRECORD
  5
182DA
102
{ACAD_REACTORS
330
182D8
102
}
330
182D8
100
AcDbXrecord
280
     1
270
     1
271
     1
  0
XRECORD
  5
182D9
102
{ACAD_REACTORS
330
182D8
102
}
330
182D8
100
AcDbXrecord
280
     1
270
     1
271
     1
  0
XRECORD
  5
182DD
102
{ACAD_REACTORS
330
182D8
102
}
330
182D8
100
AcDbXrecord
280
     1
270
     1
271
     1
  0
XRECORD
  5
182DC
102
{ACAD_REACTORS
330
182D8
102
}
330
182D8
100
AcDbXrecord
280
     1
270
     1
271
     1
  0
XRECORD
  5
182DE
102
{ACAD_REACTORS
330
182D8
102
}
330
182D8
100
AcDbXrecord
280
     1
270
     1
271
     1
  0
XRECORD
  5
182DB
102
{ACAD_REACTORS
330
182D8
102
}
330
182D8
100
AcDbXrecord
280
     1
270
     1
271
     1
  0
XRECORD
  5
182D2
102
{ACAD_REACTORS
330
182D0
102
}
330
182D0
100
AcDbXrecord
280
     1
270
     1
271
     1
  0
XRECORD
  5
182D1
102
{ACAD_REACTORS
330
182D0
102
}
330
182D0
100
AcDbXrecord
280
     1
270
     1
271
     1
  0
XRECORD
  5
182D5
102
{ACAD_REACTORS
330
182D0
102
}
330
182D0
100
AcDbXrecord
280
     1
270
     1
271
     1
  0
XRECORD
  5
182D4
102
{ACAD_REACTORS
330
182D0
102
}
330
182D0
100
AcDbXrecord
280
     1
270
     1
271
     1
  0
XRECORD
  5
182D6
102
{ACAD_REACTORS
330
182D0
102
}
330
182D0
100
AcDbXrecord
280
     1
270
     1
271
     1
  0
XRECORD
  5
182D3
102
{ACAD_REACTORS
330
182D0
102
}
330
182D0
100
AcDbXrecord
280
     1
270
     1
271
     1
  0
XRECORD
  5
182E2
102
{ACAD_REACTORS
330
182E0
102
}
330
182E0
100
AcDbXrecord
280
     1
270
     1
271
     1
  0
XRECORD
  5
182E1
102
{ACAD_REACTORS
330
182E0
102
}
330
182E0
100
AcDbXrecord
280
     1
270
     1
271
     1
  0
XRECORD
  5
182E5
102
{ACAD_REACTORS
330
182E0
102
}
330
182E0
100
AcDbXrecord
280
     1
270
     1
271
     1
  0
XRECORD
  5
182E4
102
{ACAD_REACTORS
330
182E0
102
}
330
182E0
100
AcDbXrecord
280
     1
270
     1
271
     1
  0
XRECORD
  5
182E6
102
{ACAD_REACTORS
330
182E0
102
}
330
182E0
100
AcDbXrecord
280
     1
270
     1
271
     1
  0
XRECORD
  5
182E3
102
{ACAD_REACTORS
330
182E0
102
}
330
182E0
100
AcDbXrecord
280
     1
270
     1
271
     1
  0
XRECORD
  5
18401
102
{ACAD_REACTORS
330
18349
102
}
330
18349
100
AcDbXrecord
280
     1
102
DISPLAYNAME
  1
Imperial24
102
FLAGS
 90
        0
  0
CELLSTYLEMAP
  5
18400
102
{ACAD_REACTORS
330
183FF
102
}
330
183FF
100
AcDbCellStyleMap
 90
        3
300
CELLSTYLE
  1
TABLEFORMAT_BEGIN
 90
        5
170
     1
 91
        0
 92
    32768
 62
   257
 93
        1
300
CONTENTFORMAT
  1
CONTENTFORMAT_BEGIN
 90
        0
 91
        0
 92
      512
 93
        0
300

 40
0.0
140
1.0
 94
        5
 62
     0
340
11
144
0.25
309
CONTENTFORMAT_END
171
     0
 94
        0
309
TABLEFORMAT_END
  1
CELLSTYLE_BEGIN
 90
        1
 91
        1
300
_TITLE
309
CELLSTYLE_END
300
CELLSTYLE
  1
TABLEFORMAT_BEGIN
 90
        5
170
     1
 91
        0
 92
        0
 62
   257
 93
        1
300
CONTENTFORMAT
  1
CONTENTFORMAT_BEGIN
 90
        0
 91
        0
 92
      512
 93
        0
300

 40
0.0
140
1.0
 94
        5
 62
     0
340
11
144
0.18
309
CONTENTFORMAT_END
171
     0
 94
        0
309
TABLEFORMAT_END
  1
CELLSTYLE_BEGIN
 90
        2
 91
        1
300
_HEADER
309
CELLSTYLE_END
300
CELLSTYLE
  1
TABLEFORMAT_BEGIN
 90
        5
170
     1
 91
        0
 92
        0
 62
   257
 93
        1
300
CONTENTFORMAT
  1
CONTENTFORMAT_BEGIN
 90
        0
 91
        0
 92
      512
 93
        0
300

 40
0.0
140
1.0
 94
        2
 62
     0
340
11
144
0.18
309
CONTENTFORMAT_END
171
     0
 94
        0
309
TABLEFORMAT_END
  1
CELLSTYLE_BEGIN
 90
        3
 91
        2
300
_DATA
309
CELLSTYLE_END
  0
ENDSEC
  0
SECTION
  2
ACDSDATA
 70
     2
 71
     6
  0
ACDSSCHEMA
 90
        0
  1
AcDb_Thumbnail_Schema
  2
AcDbDs::ID
280
    10
 91
        8
  2
Thumbnail_Data
280
    15
 91
        0
101
ACDSRECORD
 95
        0
 90
        1
  2
AcDbDs::TreatedAsObjectData
280
     1
291
     1
101
ACDSRECORD
 95
        0
 90
        2
  2
AcDbDs::Legacy
280
     1
291
     1
101
ACDSRECORD
  1
AcDbDs::ID
 90
        3
  2
AcDs:Indexable
280
     1
291
     1
101
ACDSRECORD
  1
AcDbDs::ID
 90
        4
  2
AcDbDs::HandleAttribute
280
     7
282
     1
  0
ACDSSCHEMA
 90
        1
  1
AcDbDs::TreatedAsObjectDataSchema
  2
AcDbDs::TreatedAsObjectData
280
     1
 91
        0
  0
ACDSSCHEMA
 90
        2
  1
AcDbDs::LegacySchema
  2
AcDbDs::Legacy
280
     1
 91
        0
  0
ACDSSCHEMA
 90
        3
  1
AcDbDs::IndexedPropertySchema
  2
AcDs:Indexable
280
     1
 91
        0
  0
ACDSSCHEMA
 90
        4
  1
AcDbDs::HandleAttributeSchema
  2
AcDbDs::HandleAttribute
280
     7
 91
        1
284
     1
  0
ACDSRECORD
 90
        0
  2
AcDbDs::ID
280
    10
320
21
  2
Thumbnail_Data
280
    15
 94
     2128
310
89504E470D0A1A0A0000000D4948445200000100000000700803000000C6F95E2100000300504C5445212830000000C8C8C80000000000000000000000000000000000000000000000000000330000660000990000CC0000FF0033000033330033660033990033CC0033FF0066000066330066660066990066CC0066FF0099
310
000099330099660099990099CC0099FF00CC0000CC3300CC6600CC9900CCCC00CCFF00FF0000FF3300FF6600FF9900FFCC00FFFF3300003300333300663300993300CC3300FF3333003333333333663333993333CC3333FF3366003366333366663366993366CC3366FF3399003399333399663399993399CC3399FF33CC00
310
33CC3333CC6633CC9933CCCC33CCFF33FF0033FF3333FF6633FF9933FFCC33FFFF6600006600336600666600996600CC6600FF6633006633336633666633996633CC6633FF6666006666336666666666996666CC6666FF6699006699336699666699996699CC6699FF66CC0066CC3366CC6666CC9966CCCC66CCFF66FF0066
310
FF3366FF6666FF9966FFCC66FFFF9900009900339900669900999900CC9900FF9933009933339933669933999933CC9933FF9966009966339966669966999966CC9966FF9999009999339999669999999999CC9999FF99CC0099CC3399CC6699CC9999CCCC99CCFF99FF0099FF3399FF6699FF9999FFCC99FFFFCC0000CC00
310
33CC0066CC0099CC00CCCC00FFCC3300CC3333CC3366CC3399CC33CCCC33FFCC6600CC6633CC6666CC6699CC66CCCC66FFCC9900CC9933CC9966CC9999CC99CCCC99FFCCCC00CCCC33CCCC66CCCC99CCCCCCCCCCFFCCFF00CCFF33CCFF66CCFF99CCFFCCCCFFFFFF0000FF0033FF0066FF0099FF00CCFF00FFFF3300FF3333
310
FF3366FF3399FF33CCFF33FFFF6600FF6633FF6666FF6699FF66CCFF66FFFF9900FF9933FF9966FF9999FF99CCFF99FFFFCC00FFCC33FFCC66FFCC99FFCCCCFFCCFFFFFF00FFFF33FFFF66FFFF99FFFFCCFFFFFF0000000D0D0D1A1A1A2828283535354343435050505D5D5D6B6B6B787878868686939393A1A1A1AEAEAEBB
310
BBBBC9C9C9D6D6D6E4E4E4F1F1F1FFFFFF000000000000000000000000000000000000000000000000000000000000B21171F60000031A4944415478DAED9D6B92AC200C85B31C6AAADCFEDD002B6111FCBFF800A3CD4BDB19099C533353D84C5BE623092FED26822008822008BAAA9F16F5A7001E3B930DFAB22508006402
310
107A4D00000000000000000000000069A9BC06F00075B3AE33008A1F8597D4D8217009C034F51102EA50040000A8327D954000B6AC3E016C49AEC27E5B311E98481E80D5B96DA507146221E70131748D780007407639206BAC76BF4B7418635600C5FE300340912C00EE8FF6616FBC077409808E39C003D0ABE67FD186E580
310
3A0079359C03281102D65CCB0152016806C09AB9E5D71E724D02970048EC059CB313CF01E473C052AC06206C32C492E011C0E7400900FA04C043C0E5BD91011CC701F50098CDE201E82DFF0D05200C84E681CF1C049700B8F74600B033F0937DCCA51ACB01450F88CC06DDE162B326CD01E81DC05E541DE700BBFA8E6C0077
310
BBC1138059EEE0B3A85A1F0A3F0840E65CE03E80A59D7D4B4717533A0760370076A229B19C240F40DD64C8F7A1E9B60F0B8AB12164C3002AA7C3AA724559C90350B720B203D0C5F57359002A97C43C00E3FCC514EC9701404517454D220728EE010500A24360CB01690F702E53DC406A1E407963240D6081271180BA0020B6
310
35E6BBC1256130FB8F1BAB94DA54930F200C14BC07501C808835C160E8B985B9D5510066EF06E501081EB04CEAE9D4D22A02ECD3014CE805A8070014F300E603B179C2360EA0EE00D425F3390968E2EF1C0D00E56FAF01003900E64EFD1B003E551C6FB21C0340EE1E634921A01E0981CACA5E00282ADD6A2E2909AA9B0072
310
5ED03F807CA85FBCA6B7A7C359BF8DBD7CFF998A4E003C7D4D6F03B8D70BC805B035B70E6B1AA30118DE030080DD2869693C007C496CF41C60F63DC021019885C1B0DDE06ABCFD3774080CE9012109D2F039A06E1CA03AF480D36373944F169D01F0FAF2D3A1E40350EC675800571F930780CE003CDFCB8902F09B9F95020F
310
1000E01D0100000000000000000000000000000040CF00D2B74CBD07E04FBF44C0DBBD175E07D0CA172B3408C0DEAB724A57454EB03DA5F52680D84331C1187E7CB233519D3819ABF2A5F7008CFE1D232DD12008BAABFF2843462A0C22B83F0000000049454E44AE426082016CDB1F0130FB4B567A82012222222222226F90
310
3F95D63047695003710000000049454E44AE426082B6F2334E2A942A973203001BDBE23E7FAAB28DA4CDBFD8B8625A198A13003F1723D8047E0640FA8FAD0995FF5F7E018F5DA5D9990000000049454E44AE426082BA1062472602E0771F06C0003A0380E401607D0091DD09F6A6EF02C8D99DE0D531009BBA404967065029
310
0A60430088040060DE1890FE2C72B53C0089BBC0D300F03687F76E871F075065F79D5AD3E2B91322175DEA6D41560F003C09600C17D0EB1EE4DD7DD15FDA55EA4900CBBA075304A60AC0167D6901701E9F977ADD8314D40010B70060003C088661901280701B1D3B6F4F1500C0BA02962C803D19A43806ACABD9A4A40B40EB
310
AFA2154C0289106CAB62FF914C85ED6E72D2797898A40B4845C9058228406F10E4307832254601C061535554EBDF34A5DF7FDBC2E3DBEAD67B5562EF00567FC017ED99013080D70164ADCEF8280064008401BC9CD57400A09FD7C7BC0C000902E8ED2D62AD010C2A0C8001300006C00018000360000C8001300006C0001800
310
0360000C800130806F00487D9EF236002C971101FC6DF20080BF97A400C0DF3784019400487995F2F21B699B00477B46BF70D6D3EF1D9CA4DBB01EC8D9938DAA05308024002404585876F90F97071AE4047E50E80000000049454E44AE426082
  0
ACDSRECORD
 90
        0
  2
AcDbDs::ID
280
    10
320
1D
  2
Thumbnail_Data
280
    15
 94
     2139
310
89504E470D0A1A0A0000000D4948445200000100000000B5080300000087DCD12600000300504C5445FFFFFF000000C8C8C80000000000000000000000000000000000000000000000000000330000660000990000CC0000FF0033000033330033660033990033CC0033FF0066000066330066660066990066CC0066FF0099
310
000099330099660099990099CC0099FF00CC0000CC3300CC6600CC9900CCCC00CCFF00FF0000FF3300FF6600FF9900FFCC00FFFF3300003300333300663300993300CC3300FF3333003333333333663333993333CC3333FF3366003366333366663366993366CC3366FF3399003399333399663399993399CC3399FF33CC00
310
33CC3333CC6633CC9933CCCC33CCFF33FF0033FF3333FF6633FF9933FFCC33FFFF6600006600336600666600996600CC6600FF6633006633336633666633996633CC6633FF6666006666336666666666996666CC6666FF6699006699336699666699996699CC6699FF66CC0066CC3366CC6666CC9966CCCC66CCFF66FF0066
310
FF3366FF6666FF9966FFCC66FFFF9900009900339900669900999900CC9900FF9933009933339933669933999933CC9933FF9966009966339966669966999966CC9966FF9999009999339999669999999999CC9999FF99CC0099CC3399CC6699CC9999CCCC99CCFF99FF0099FF3399FF6699FF9999FFCC99FFFFCC0000CC00
310
33CC0066CC0099CC00CCCC00FFCC3300CC3333CC3366CC3399CC33CCCC33FFCC6600CC6633CC6666CC6699CC66CCCC66FFCC9900CC9933CC9966CC9999CC99CCCC99FFCCCC00CCCC33CCCC66CCCC99CCCCCCCCCCFFCCFF00CCFF33CCFF66CCFF99CCFFCCCCFFFFFF0000FF0033FF0066FF0099FF00CCFF00FFFF3300FF3333
310
FF3366FF3399FF33CCFF33FFFF6600FF6633FF6666FF6699FF66CCFF66FFFF9900FF9933FF9966FF9999FF99CCFF99FFFFCC00FFCC33FFCC66FFCC99FFCCCCFFCCFFFFFF00FFFF33FFFF66FFFF99FFFFCCFFFFFF0000000D0D0D1A1A1A2828283535354343435050505D5D5D6B6B6B787878868686939393A1A1A1AEAEAEBB
310
BBBBC9C9C9D6D6D6E4E4E4F1F1F1FFFFFF000000000000000000000000000000000000000000000000000000000000B0E2D235000005164944415478DAED9D0B8E84200C86394EB389F73F0037E94976C4270F151004EDDFEC261BC71D876FFA026A55AC840B0000C09F68190188F9B2BDC1FF0E3507C09E3C07E00F008403
310
106702CA1BBF92E504434800000000000000000000000000000000000000A09410910C00942E5F0390FC1F1F3301000080B03990EF0DE98B00D2DD9F1413A0A343C5000C030000000000803800C34E240218BA03A09F0DDA66DCE6E77900764EC3B942EACEE4701ABE1A0C8AA701580ACCB606B073F85838FC7E2926A01A69
310
4000805E36F33D00FAC85AEE034832816B254B01B07BB3711C53318341E00260ED96392C950F6C4D92D201A82427483501FCC6A37F3A30FD6D03185F71CC6139F41D006C461304C06A39BE377D2E02C0B800153BFED23E6017059638F01BA90B40AFB28D5F6F27EF034096064C4E50B500A02C0D582A9A021A607C00BB2E60
310
3CC4D6FA491E0035FD5CEBBFAA0BE08E09DC0983B7A46018344E90339D603600D513802DB22587C152005A2642A3A29BEC869F4C84CAE5C02500A84300D55261006809C0C9040100260000260E8806C053C4970960778743250043EF1A30CE054C3A2C17803181EE019C2DC066AF078C5FFF24669E5F18C0F479AF00F83718
310
05EF39A26200CA99C0F871CE96ABCCEBD700B47B4556DE21454A3C804EA3C0E582250D6BA49DAD2C0700557382BC2442B59CE00C60DC7E503D025853E1BA51C007B00AEB81ED05121E9C4344F556849A0148D180CB95D1CF0350AF06306B358FBFB30A77B428DADE07C805705D87F011000113D8BD85BFFD6056AAD70F476F
310
F501EB94C30F72C37EFC5EBB8169FF71CECCA63CEB9D4ED02943583341DE8E5DC9B233DE0AC0BD8D1177FF85795B79E3A8CBA8B62630AF1284E6A97900C6883F6F2D735AEBA726006EEF0E936BE67ABF17FF6200567D40AC0FD82914A72A40441D5E0500772B44BC5AACDDF643AA0150230D88A91051710078CAF967F57909
310
803171232EE103964A0C9E835F72F3BB6700504C81848EAF13B4004CEB2E3911A02180DF710AA7408900E6EBE81C0FD8743AACFD4BEB3C00F61E6C729BAD5200DC0F5CB55A7C7B75349C35A68C7F5FAFF791BD145E6A45E80A00C5C28F2A970F2ADA5C9A97AA01B500D899375396FA5D9FC1C13284180D889514004E86B207
310
A02E7439F47DC7DC2FE139C1560042E5F24F0098F55E1F448087019CDE31121CEA55F78418008A9D1CE24D006EFB003BDA760D4045D9806B0511179E4C201C00440098D2E8680DEA0B400113385AFA92058000000000A05F00F4288060B31A95DFACA68406506D00359BD51431016A6602D4870F6806A0C03F94718204004D
310
001C4FBA1E0F835407006538C1C4CE147D03788D0970A61150DAEB353AB1BD0040DD5674B55684223E6BC4596F02A0AA00A8DF91351780FF60981A001E901B1A604A1E9E990D760A60EE222315C0DA42432C80DDDD3252006C1E8E945509051380131409407A185CBAC8C80170561F201780966C02EBFDDB6201B0D343441A
310
80E9EEF19CFAC5CF00984BE025A6C2A307E4B58413262014003B1D24E4E501B2C2201221253A153EED2E9F30E4CE1E3DF6AEE70BF40360DBA9A14E54190000A0058025290600B9004834809E121A0068E503A402E8FC61BA3081A7E602EF170000000000000000000000000000000000000000000000000000000000000078
310
BBA4DC571F05804A0900BCC804FEBE2AD100E221725AB7D7D4B353CAF038F404BED3719500F097AA7489675F3D4DE3E46CFF727F0ED63300318D924F4ECD1A520D00D67900100D409213142DD995DE9F11000000D9F20FAB46B75429A1E7E10000000049454E44AE426082
  0
ENDSEC
  0
EOF
