  0
SECTION
  2
HEADER
  9
$ACADVER
  1
AC1027
  9
$ACADMAINTVER
 70
    55
  9
$DWGCODEPAGE
  3
ANSI_932
  9
$LASTSAVEDBY
  1
石井
  9
$REQUIREDVERSIONS
160
                 0
  9
$INSBASE
 10
0.0
 20
0.0
 30
0.0
  9
$EXTMIN
 10
2463.151271731479
 20
8455.826176538941
 30
0.0
  9
$EXTMAX
 10
2872.151271752586
 20
8736.826182204522
 30
0.0
  9
$LIMMIN
 10
0.0
 20
0.0
  9
$LIMMAX
 10
42000.0
 20
29700.0
  9
$ORTHOMODE
 70
     1
  9
$REGENMODE
 70
     1
  9
$FILLMODE
 70
     1
  9
$QTEXTMODE
 70
     0
  9
$MIRRTEXT
 70
     1
  9
$LTSCALE
 40
1.0
  9
$ATTMODE
 70
     1
  9
$TEXTSIZE
 40
0.2
  9
$TRACEWID
 40
0.05
  9
$TEXTSTYLE
  7
白抜
  9
$CLAYER
  8
1-0_本体
  9
$CELTYPE
  6
CONTINUOUS
  9
$CECOLOR
 62
     7
  9
$CELTSCALE
 40
0.5
  9
$DISPSILH
 70
     0
  9
$DIMSCALE
 40
1.0
  9
$DIMASZ
 40
1.0
  9
$DIMEXO
 40
3.0
  9
$DIMDLI
 40
3.75
  9
$DIMRND
 40
0.0
  9
$DIMDLE
 40
0.0
  9
$DIMEXE
 40
1.0
  9
$DIMTP
 40
0.0
  9
$DIMTM
 40
0.0
  9
$DIMTXT
 40
3.0
  9
$DIMCEN
 40
1.5
  9
$DIMTSZ
 40
0.0
  9
$DIMTOL
 70
     0
  9
$DIMLIM
 70
     0
  9
$DIMTIH
 70
     0
  9
$DIMTOH
 70
     0
  9
$DIMSE1
 70
     0
  9
$DIMSE2
 70
     0
  9
$DIMTAD
 70
     1
  9
$DIMZIN
 70
     8
  9
$DIMBLK
  1
Dot
  9
$DIMASO
 70
     1
  9
$DIMSHO
 70
     1
  9
$DIMPOST
  1

  9
$DIMAPOST
  1

  9
$DIMALT
 70
     0
  9
$DIMALTD
 70
     3
  9
$DIMALTF
 40
0.03937007874016
  9
$DIMLFAC
 40
1.0
  9
$DIMTOFL
 70
     1
  9
$DIMTVP
 40
0.0
  9
$DIMTIX
 70
     0
  9
$DIMSOXD
 70
     0
  9
$DIMSAH
 70
     0
  9
$DIMBLK1
  1

  9
$DIMBLK2
  1

  9
$DIMSTYLE
  2
ISO-25
  9
$DIMCLRD
 70
     3
  9
$DIMCLRE
 70
     3
  9
$DIMCLRT
 70
     3
  9
$DIMTFAC
 40
1.0
  9
$DIMGAP
 40
0.625
  9
$DIMJUST
 70
     0
  9
$DIMSD1
 70
     0
  9
$DIMSD2
 70
     0
  9
$DIMTOLJ
 70
     0
  9
$DIMTZIN
 70
     8
  9
$DIMALTZ
 70
     0
  9
$DIMALTTZ
 70
     0
  9
$DIMUPT
 70
     0
  9
$DIMDEC
 70
     2
  9
$DIMTDEC
 70
     2
  9
$DIMALTU
 70
     2
  9
$DIMALTTD
 70
     3
  9
$DIMTXSTY
  7
明朝
  9
$DIMAUNIT
 70
     0
  9
$DIMADEC
 70
     0
  9
$DIMALTRND
 40
0.0
  9
$DIMAZIN
 70
     0
  9
$DIMDSEP
 70
    46
  9
$DIMATFIT
 70
     3
  9
$DIMFRAC
 70
     0
  9
$DIMLDRBLK
  1

  9
$DIMLUNIT
 70
     2
  9
$DIMLWD
 70
    -2
  9
$DIMLWE
 70
    -2
  9
$DIMTMOVE
 70
     0
  9
$DIMFXL
 40
1.0
  9
$DIMFXLON
 70
     0
  9
$DIMJOGANG
 40
0.7853981633974483
  9
$DIMTFILL
 70
     0
  9
$DIMTFILLCLR
 70
     0
  9
$DIMARCSYM
 70
     0
  9
$DIMLTYPE
  6

  9
$DIMLTEX1
  6

  9
$DIMLTEX2
  6

  9
$DIMTXTDIRECTION
 70
     0
  9
$LUNITS
 70
     2
  9
$LUPREC
 70
     4
  9
$SKETCHINC
 40
0.1
  9
$FILLETRAD
 40
10.0
  9
$AUNITS
 70
     0
  9
$AUPREC
 70
     0
  9
$MENU
  1
.
  9
$ELEVATION
 40
0.0
  9
$PELEVATION
 40
0.0
  9
$THICKNESS
 40
0.0
  9
$LIMCHECK
 70
     0
  9
$CHAMFERA
 40
0.0
  9
$CHAMFERB
 40
0.0
  9
$CHAMFERC
 40
0.0
  9
$CHAMFERD
 40
0.0
  9
$SKPOLY
 70
     0
  9
$TDCREATE
 40
2453535.375353912
  9
$TDUCREATE
 40
2453535.000353912
  9
$TDUPDATE
 40
2457815.589732511
  9
$TDUUPDATE
 40
2457815.214732512
  9
$TDINDWG
 40
4.1771190046
  9
$TDUSRTIMER
 40
4.1771190046
  9
$USRTIMER
 70
     1
  9
$ANGBASE
 50
0.0
  9
$ANGDIR
 70
     0
  9
$PDMODE
 70
     0
  9
$PDSIZE
 40
0.0
  9
$PLINEWID
 40
0.0
  9
$SPLFRAME
 70
     0
  9
$SPLINETYPE
 70
     6
  9
$SPLINESEGS
 70
 30000
  9
$HANDSEED
  5
2FC61
  9
$SURFTAB1
 70
     6
  9
$SURFTAB2
 70
     6
  9
$SURFTYPE
 70
     6
  9
$SURFU
 70
     6
  9
$SURFV
 70
     6
  9
$UCSBASE
  2

  9
$UCSNAME
  2

  9
$UCSORG
 10
0.0
 20
0.0
 30
0.0
  9
$UCSXDIR
 10
1.0
 20
0.0
 30
0.0
  9
$UCSYDIR
 10
0.0
 20
1.0
 30
0.0
  9
$UCSORTHOREF
  2

  9
$UCSORTHOVIEW
 70
     0
  9
$UCSORGTOP
 10
0.0
 20
0.0
 30
0.0
  9
$UCSORGBOTTOM
 10
0.0
 20
0.0
 30
0.0
  9
$UCSORGLEFT
 10
0.0
 20
0.0
 30
0.0
  9
$UCSORGRIGHT
 10
0.0
 20
0.0
 30
0.0
  9
$UCSORGFRONT
 10
0.0
 20
0.0
 30
0.0
  9
$UCSORGBACK
 10
0.0
 20
0.0
 30
0.0
  9
$PUCSBASE
  2

  9
$PUCSNAME
  2

  9
$PUCSORG
 10
0.0
 20
0.0
 30
0.0
  9
$PUCSXDIR
 10
1.0
 20
0.0
 30
0.0
  9
$PUCSYDIR
 10
0.0
 20
1.0
 30
0.0
  9
$PUCSORTHOREF
  2

  9
$PUCSORTHOVIEW
 70
     0
  9
$PUCSORGTOP
 10
0.0
 20
0.0
 30
0.0
  9
$PUCSORGBOTTOM
 10
0.0
 20
0.0
 30
0.0
  9
$PUCSORGLEFT
 10
0.0
 20
0.0
 30
0.0
  9
$PUCSORGRIGHT
 10
0.0
 20
0.0
 30
0.0
  9
$PUCSORGFRONT
 10
0.0
 20
0.0
 30
0.0
  9
$PUCSORGBACK
 10
0.0
 20
0.0
 30
0.0
  9
$USERI1
 70
     0
  9
$USERI2
 70
     0
  9
$USERI3
 70
     0
  9
$USERI4
 70
     0
  9
$USERI5
 70
     0
  9
$USERR1
 40
0.0
  9
$USERR2
 40
0.0
  9
$USERR3
 40
0.0
  9
$USERR4
 40
0.0
  9
$USERR5
 40
0.0
  9
$WORLDVIEW
 70
     1
  9
$SHADEDGE
 70
     3
  9
$SHADEDIF
 70
    70
  9
$TILEMODE
 70
     1
  9
$MAXACTVP
 70
    48
  9
$PINSBASE
 10
0.0
 20
0.0
 30
0.0
  9
$PLIMCHECK
 70
     0
  9
$PEXTMIN
 10
16.65063860546252
 20
9.243728421930086
 30
0.0
  9
$PEXTMAX
 10
389.0126180048625
 20
273.2293407601361
 30
0.0
  9
$PLIMMIN
 10
16.69706222174885
 20
11.45631619771972
  9
$PLIMMAX
 10
386.7689362347263
 20
273.1180248599498
  9
$UNITMODE
 70
     0
  9
$VISRETAIN
 70
     1
  9
$PLINEGEN
 70
     0
  9
$PSLTSCALE
 70
     0
  9
$TREEDEPTH
 70
  3020
  9
$CMLSTYLE
  2
Standard
  9
$CMLJUST
 70
     0
  9
$CMLSCALE
 40
1.0
  9
$PROXYGRAPHICS
 70
     1
  9
$MEASUREMENT
 70
     0
  9
$CELWEIGHT
370
    35
  9
$ENDCAPS
280
     0
  9
$JOINSTYLE
280
     0
  9
$LWDISPLAY
290
     1
  9
$INSUNITS
 70
     0
  9
$HYPERLINKBASE
  1

  9
$STYLESHEET
  1
monochrome.ctb
  9
$XEDIT
290
     1
  9
$CEPSNTYPE
380
     0
  9
$PSTYLEMODE
290
     1
  9
$FINGERPRINTGUID
  2
{9EDDDDE4-70DF-410C-B5FF-732209A9D3A9}
  9
$VERSIONGUID
  2
{03594A7B-E51A-498A-8121-750B98124C33}
  9
$EXTNAMES
290
     1
  9
$PSVPSCALE
 40
0.0
  9
$OLESTARTUP
290
     0
  9
$SORTENTS
280
    96
  9
$INDEXCTL
280
     0
  9
$HIDETEXT
280
     0
  9
$XCLIPFRAME
280
     2
  9
$HALOGAP
280
     0
  9
$OBSCOLOR
 70
   257
  9
$OBSLTYPE
280
     0
  9
$INTERSECTIONDISPLAY
280
     0
  9
$INTERSECTIONCOLOR
 70
   257
  9
$DIMASSOC
280
     1
  9
$PROJECTNAME
  1

  9
$CAMERADISPLAY
290
     0
  9
$LENSLENGTH
 40
50.0
  9
$CAMERAHEIGHT
 40
0.0
  9
$STEPSPERSEC
 40
2.0
  9
$STEPSIZE
 40
6.0
  9
$3DDWFPREC
 40
2.0
  9
$PSOLWIDTH
 40
0.25
  9
$PSOLHEIGHT
 40
4.0
  9
$LOFTANG1
 40
1.570796326794896
  9
$LOFTANG2
 40
1.570796326794896
  9
$LOFTMAG1
 40
0.0
  9
$LOFTMAG2
 40
0.0
  9
$LOFTPARAM
 70
     7
  9
$LOFTNORMALS
280
     1
  9
$LATITUDE
 40
37.795
  9
$LONGITUDE
 40
-122.394
  9
$NORTHDIRECTION
 40
0.0
  9
$TIMEZONE
 70
 -8000
  9
$LIGHTGLYPHDISPLAY
280
     1
  9
$TILEMODELIGHTSYNCH
280
     1
  9
$CMATERIAL
347
2F7E7
  9
$SOLIDHIST
280
     0
  9
$SHOWHIST
280
     1
  9
$DWFFRAME
280
     2
  9
$DGNFRAME
280
     0
  9
$REALWORLDSCALE
290
     1
  9
$INTERFERECOLOR
 62
     1
  9
$INTERFEREOBJVS
345
2F809
  9
$INTERFEREVPVS
346
2F806
  9
$CSHADOW
280
     0
  9
$SHADOWPLANELOCATION
 40
0.0
  0
ENDSEC
  0
SECTION
  2
CLASSES
  0
CLASS
  1
ACDBDICTIONARYWDFLT
  2
AcDbDictionaryWithDefault
  3
ObjectDBX Classes
 90
        0
 91
        1
280
     0
281
     0
  0
CLASS
  1
DICTIONARYVAR
  2
AcDbDictionaryVar
  3
ObjectDBX Classes
 90
        0
 91
       10
280
     0
281
     0
  0
CLASS
  1
MATERIAL
  2
AcDbMaterial
  3
ObjectDBX Classes
 90
     1153
 91
        3
280
     0
281
     0
  0
CLASS
  1
VISUALSTYLE
  2
AcDbVisualStyle
  3
ObjectDBX Classes
 90
     4095
 91
       24
280
     0
281
     0
  0
CLASS
  1
TABLESTYLE
  2
AcDbTableStyle
  3
ObjectDBX Classes
 90
     4095
 91
        1
280
     0
281
     0
  0
CLASS
  1
SCALE
  2
AcDbScale
  3
ObjectDBX Classes
 90
     1153
 91
       17
280
     0
281
     0
  0
CLASS
  1
MLEADERSTYLE
  2
AcDbMLeaderStyle
  3
ACDB_MLEADERSTYLE_CLASS
 90
     4095
 91
        1
280
     0
281
     0
  0
CLASS
  1
ACDBSECTIONVIEWSTYLE
  2
AcDbSectionViewStyle
  3
ObjectDBX Classes
 90
     1025
 91
        1
280
     0
281
     0
  0
CLASS
  1
ACDBDETAILVIEWSTYLE
  2
AcDbDetailViewStyle
  3
ObjectDBX Classes
 90
     1025
 91
        1
280
     0
281
     0
  0
CLASS
  1
SORTENTSTABLE
  2
AcDbSortentsTable
  3
ObjectDBX Classes
 90
        0
 91
        1
280
     0
281
     0
  0
CLASS
  1
CELLSTYLEMAP
  2
AcDbCellStyleMap
  3
ObjectDBX Classes
 90
     1152
 91
        1
280
     0
281
     0
  0
ENDSEC
  0
SECTION
  2
TABLES
  0
TABLE
  2
VPORT
  5
8
330
0
100
AcDbSymbolTable
 70
     1
  0
VPORT
  5
2F7DE
330
8
100
AcDbSymbolTableRecord
100
AcDbViewportTableRecord
  2
*Active
 70
     0
 10
0.0
 20
0.0
 11
1.0
 21
1.0
 12
2710.340554106339
 22
8603.009634424331
 13
0.0
 23
0.0
 14
1.0
 24
1.0
 15
10.0
 25
10.0
 16
0.0
 26
0.0
 36
1.0
 17
0.0
 27
0.0
 37
0.0
 40
270.8206736666978
 41
0.9001663893510814
 42
50.0
 43
0.0
 44
0.0
 50
0.0
 51
0.0
 71
     0
 72
   100
 73
     1
 74
     1
 75
     0
 76
     0
 77
     0
 78
     0
281
     0
 65
     1
110
0.0
120
0.0
130
0.0
111
1.0
121
0.0
131
0.0
112
0.0
122
1.0
132
0.0
 79
     0
146
0.0
348
2F805
 60
     3
 61
     5
292
     1
282
     1
141
0.0
142
0.0
 63
   250
421
  3355443
1001
ACAD_NAV_VCDISPLAY
1070
     3
  0
ENDTAB
  0
TABLE
  2
LTYPE
  5
5
330
0
100
AcDbSymbolTable
 70
     4
  0
LTYPE
  5
13
330
5
100
AcDbSymbolTableRecord
100
AcDbLinetypeTableRecord
  2
ByBlock
 70
     0
  3

 72
    65
 73
     0
 40
0.0
  0
LTYPE
  5
14
330
5
100
AcDbSymbolTableRecord
100
AcDbLinetypeTableRecord
  2
ByLayer
 70
     0
  3

 72
    65
 73
     0
 40
0.0
  0
LTYPE
  5
15
330
5
100
AcDbSymbolTableRecord
100
AcDbLinetypeTableRecord
  2
CONTINUOUS
 70
     0
  3
実線
 72
    65
 73
     0
 40
0.0
  0
LTYPE
  5
2A9F6
330
5
100
AcDbSymbolTableRecord
100
AcDbLinetypeTableRecord
  2
かくれ線
 70
     0
  3
ISO dash __ __ __ __ __ __ __ __ __ __ __
 72
    65
 73
     2
 40
8.0
 49
6.0
 74
     0
 49
-2.0
 74
     0
  0
LTYPE
  5
2A9F7
330
5
100
AcDbSymbolTableRecord
100
AcDbLinetypeTableRecord
  2
中心線
 70
     0
  3
ISO long-dash dot ____ . ____ . ____ . ____ . _
 72
    65
 73
     4
 40
38.0
 49
30.0
 74
     0
 49
-2.0
 74
     0
 49
4.0
 74
     0
 49
-2.0
 74
     0
  0
LTYPE
  5
2A9F8
330
5
100
AcDbSymbolTableRecord
100
AcDbLinetypeTableRecord
  2
想像線
 70
     0
  3
ISO long-dash double-dot ____ .. ____ .. ____ .
 72
    65
 73
     6
 40
40.0
 49
26.0
 74
     0
 49
-2.0
 74
     0
 49
4.0
 74
     0
 49
-2.0
 74
     0
 49
4.0
 74
     0
 49
-2.0
 74
     0
  0
ENDTAB
  0
TABLE
  2
LAYER
  5
2
102
{ACAD_XDICTIONARY
360
27FCE
102
}
330
0
100
AcDbSymbolTable
 70
    14
  0
LAYER
  5
10
102
{ACAD_XDICTIONARY
360
2F842
102
}
330
2
100
AcDbSymbolTableRecord
100
AcDbLayerTableRecord
  2
0
 70
     0
 62
     7
  6
CONTINUOUS
370
    18
390
F
347
2F7F7
348
0
  0
LAYER
  5
36
102
{ACAD_XDICTIONARY
360
2F844
102
}
330
2
100
AcDbSymbolTableRecord
100
AcDbLayerTableRecord
  2
0-0
 70
     0
 62
     7
  6
CONTINUOUS
370
    18
390
F
347
2F7F7
348
0
  0
LAYER
  5
CA7
330
2
100
AcDbSymbolTableRecord
100
AcDbLayerTableRecord
  2
Defpoints
 70
     0
 62
     7
  6
CONTINUOUS
290
     0
370
    18
390
F
347
2F7F7
348
0
  0
LAYER
  5
1175
102
{ACAD_XDICTIONARY
360
2F846
102
}
330
2
100
AcDbSymbolTableRecord
100
AcDbLayerTableRecord
  2
印刷されない線
 70
     0
 62
   110
  6
CONTINUOUS
290
     0
370
    18
390
F
347
2F7F7
348
0
  0
LAYER
  5
1178
102
{ACAD_XDICTIONARY
360
2F848
102
}
330
2
100
AcDbSymbolTableRecord
100
AcDbLayerTableRecord
  2
図枠
 70
     0
 62
   110
  6
CONTINUOUS
370
    35
390
F
347
2F7F7
348
0
  0
LAYER
  5
2A9F9
102
{ACAD_XDICTIONARY
360
2F84A
102
}
330
2
100
AcDbSymbolTableRecord
100
AcDbLayerTableRecord
  2
1-0_本体
 70
     0
 62
     7
  6
CONTINUOUS
370
    35
390
F
347
2F7F7
348
0
  0
LAYER
  5
2A9FA
102
{ACAD_XDICTIONARY
360
2F84C
102
}
330
2
100
AcDbSymbolTableRecord
100
AcDbLayerTableRecord
  2
1-A_中心
 70
     0
 62
     6
  6
中心線
370
    18
390
F
347
2F7F7
348
0
  0
LAYER
  5
2A9FB
102
{ACAD_XDICTIONARY
360
2F84E
102
}
330
2
100
AcDbSymbolTableRecord
100
AcDbLayerTableRecord
  2
1-4_ビス
 70
     0
 62
     7
  6
CONTINUOUS
370
    35
390
F
347
2F7F7
348
0
  0
LAYER
  5
2A9FC
102
{ACAD_XDICTIONARY
360
2F850
102
}
330
2
100
AcDbSymbolTableRecord
100
AcDbLayerTableRecord
  2
1-2_扉･枠
 70
     0
 62
     4
  6
想像線
370
    18
390
F
347
2F7F7
348
0
  0
LAYER
  5
2A9FD
102
{ACAD_XDICTIONARY
360
2F852
102
}
330
2
100
AcDbSymbolTableRecord
100
AcDbLayerTableRecord
  2
1-B_寸法
 70
     0
 62
     3
  6
CONTINUOUS
370
    18
390
F
347
2F7F7
348
0
  0
LAYER
  5
2A9FE
102
{ACAD_XDICTIONARY
360
2F854
102
}
330
2
100
AcDbSymbolTableRecord
100
AcDbLayerTableRecord
  2
1-C_文字
 70
     0
 62
     3
  6
CONTINUOUS
370
    18
390
F
347
2F7F7
348
0
  0
LAYER
  5
2A9FF
102
{ACAD_XDICTIONARY
360
2F856
102
}
330
2
100
AcDbSymbolTableRecord
100
AcDbLayerTableRecord
  2
1-1_本体2
 70
     0
 62
     7
  6
かくれ線
370
    18
390
F
347
2F7F7
348
0
  0
LAYER
  5
2AA00
102
{ACAD_XDICTIONARY
360
2F858
102
}
330
2
100
AcDbSymbolTableRecord
100
AcDbLayerTableRecord
  2
1-5_ビス2
 70
     0
 62
     7
  6
かくれ線
370
    18
390
F
347
2F7F7
348
0
  0
LAYER
  5
2AA01
102
{ACAD_XDICTIONARY
360
2F85A
102
}
330
2
100
AcDbSymbolTableRecord
100
AcDbLayerTableRecord
  2
1-3_付属
 70
     0
 62
     7
  6
CONTINUOUS
370
    18
390
F
347
2F7F7
348
0
  0
ENDTAB
  0
TABLE
  2
STYLE
  5
3
330
0
100
AcDbSymbolTable
 70
     4
  0
STYLE
  5
11
330
3
100
AcDbSymbolTableRecord
100
AcDbTextStyleTableRecord
  2
STANDARD
 70
     0
 40
0.0
 41
1.0
 50
0.0
 71
     0
 42
0.2
  3
simplex.shx
  4
bigfont.shx
  0
STYLE
  5
D84A
330
3
100
AcDbSymbolTableRecord
100
AcDbTextStyleTableRecord
  2
明朝
 70
     0
 40
3.0
 41
1.0
 50
0.0
 71
     0
 42
0.2
  3

  4

1001
ACAD
1000
MS Gothic
1071
    32817
  0
STYLE
  5
17D06
330
3
100
AcDbSymbolTableRecord
100
AcDbTextStyleTableRecord
  2
白抜
 70
     0
 40
3.0
 41
1.0
 50
0.0
 71
     0
 42
0.2
  3
HGPGothicE.ttf
  4

1001
ACAD
1000
HGPGothicE
1071
    32818
  0
STYLE
  5
26A03
330
3
100
AcDbSymbolTableRecord
100
AcDbTextStyleTableRecord
  2
丸ゴシック
 70
     0
 40
3.0
 41
0.5
 50
0.0
 71
     0
 42
0.2
  3
HGRSMP.TTF
  4

1001
ACAD
1000
HGMaruGothicMPRO
1071
    32818
  0
ENDTAB
  0
TABLE
  2
VIEW
  5
6
330
0
100
AcDbSymbolTable
 70
     0
  0
ENDTAB
  0
TABLE
  2
UCS
  5
7
330
0
100
AcDbSymbolTable
 70
     0
  0
ENDTAB
  0
TABLE
  2
APPID
  5
9
330
0
100
AcDbSymbolTable
 70
     4
  0
APPID
  5
12
330
9
100
AcDbSymbolTableRecord
100
AcDbRegAppTableRecord
  2
ACAD
 70
     0
  0
APPID
  5
2F841
330
9
100
AcDbSymbolTableRecord
100
AcDbRegAppTableRecord
  2
ACAD_NAV_VCDISPLAY
 70
     0
  0
APPID
  5
2F89F
330
9
100
AcDbSymbolTableRecord
100
AcDbRegAppTableRecord
  2
ACAD_EXEMPT_FROM_CAD_STANDARDS
 70
     0
  0
APPID
  5
2FC07
330
9
100
AcDbSymbolTableRecord
100
AcDbRegAppTableRecord
  2
AcadAnnoMonitorAlertIconDisabled
 70
     0
  0
ENDTAB
  0
TABLE
  2
DIMSTYLE
  5
A
330
0
100
AcDbSymbolTable
 70
     1
100
AcDbDimStyleTable
 71
     1
340
CAD
  0
DIMSTYLE
105
CAD
102
{ACAD_REACTORS
330
2C1D1
330
2C1D2
330
2C1D4
330
2C1D9
330
2C1CD
330
2C1B4
330
2C1B5
330
2C11D
330
2C12A
330
2C12B
330
2C11C
330
2C11E
330
2C11B
330
2C0CB
330
2C0CE
330
2C0D0
330
2C14F
330
2C150
330
2C1A5
330
20EF4
330
22694
330
2273A
330
2C838
330
25225
330
2ED20
330
2ED1E
330
2ED1D
330
2ED1C
330
2ED1B
330
2ED1A
330
2ED19
330
2ED18
330
2ED17
330
2ED16
330
2FB4F
102
}
330
A
100
AcDbSymbolTableRecord
100
AcDbDimStyleTableRecord
  2
ISO-25
 70
     0
 41
1.0
 42
3.0
 43
3.75
 44
1.0
 73
     0
 74
     0
 77
     1
 78
     8
140
3.0
141
1.5
143
0.03937007874016
147
0.625
171
     3
172
     1
176
     3
177
     3
178
     3
271
     2
272
     2
274
     3
283
     0
284
     8
340
D84A
342
91D9
  0
ENDTAB
  0
TABLE
  2
BLOCK_RECORD
  5
1
330
0
100
AcDbSymbolTable
 70
    36
  0
BLOCK_RECORD
  5
1E
102
{ACAD_XDICTIONARY
360
1198
102
}
330
1
100
AcDbSymbolTableRecord
100
AcDbBlockTableRecord
  2
*Model_Space
340
21
 70
     0
280
     1
281
     0
  0
BLOCK_RECORD
  5
1A
102
{ACAD_XDICTIONARY
360
119A
102
}
330
1
100
AcDbSymbolTableRecord
100
AcDbBlockTableRecord
  2
*Paper_Space
340
1D
 70
     0
280
     1
281
     0
  0
BLOCK_RECORD
  5
91D9
330
1
100
AcDbSymbolTableRecord
100
AcDbBlockTableRecord
  2
_Dot
340
0
102
{BLKREFS
331
2EC44
331
2EC45
331
2EC4D
331
2EC4E
331
2EC56
331
2EC57
331
2EC6A
331
2EC6B
331
2ECDA
331
2ECDB
331
2F8E7
331
2F8E8
331
2F8F0
331
2F8F1
331
2F902
331
2F903
331
2F90B
331
2F90C
331
2F914
331
2F915
331
2EBA2
331
2EBA3
331
2EBAB
331
2EBAC
331
2EBB4
331
2EBB5
331
2EBBD
331
2EBBE
331
2EBC6
331
2EBC7
331
2EBCF
331
2EBD0
331
2EBD8
331
2EBD9
331
2EBE1
331
2EBE2
331
2EBEA
331
2EBEB
331
2EBF3
331
2EBF4
331
2EBFC
331
2EBFD
331
2EC32
331
2EC33
331
2EC3B
331
2EC3C
331
2FA2B
331
2FA2C
331
2FA34
331
2FA35
331
2FA3D
331
2FA3E
331
2FA46
331
2FA47
331
2FA4F
331
2FA50
331
2FA58
331
2FA59
331
2FA61
331
2FA62
331
2FA6A
331
2FA6B
331
2FA73
331
2FA74
331
2FA7C
331
2FA7D
331
2FC15
331
2FC16
331
2FC35
331
2FC36
102
}
 70
     0
280
     1
281
     0
  0
BLOCK_RECORD
  5
21239
330
1
100
AcDbSymbolTableRecord
100
AcDbBlockTableRecord
  2
*D1
340
0
 70
     0
280
     1
281
     0
  0
BLOCK_RECORD
  5
22695
330
1
100
AcDbSymbolTableRecord
100
AcDbBlockTableRecord
  2
*D2
340
0
 70
     0
280
     1
281
     0
  0
BLOCK_RECORD
  5
2273B
330
1
100
AcDbSymbolTableRecord
100
AcDbBlockTableRecord
  2
*D3
340
0
 70
     0
280
     1
281
     0
  0
BLOCK_RECORD
  5
25226
330
1
100
AcDbSymbolTableRecord
100
AcDbBlockTableRecord
  2
*D4
340
0
 70
     0
280
     1
281
     0
  0
BLOCK_RECORD
  5
2C21B
330
1
100
AcDbSymbolTableRecord
100
AcDbBlockTableRecord
  2
*D5
340
0
 70
     0
280
     1
281
     0
  0
BLOCK_RECORD
  5
2C227
330
1
100
AcDbSymbolTableRecord
100
AcDbBlockTableRecord
  2
*D6
340
0
 70
     0
280
     1
281
     0
  0
BLOCK_RECORD
  5
2C233
330
1
100
AcDbSymbolTableRecord
100
AcDbBlockTableRecord
  2
*D7
340
0
 70
     0
280
     1
281
     0
  0
BLOCK_RECORD
  5
2C23F
330
1
100
AcDbSymbolTableRecord
100
AcDbBlockTableRecord
  2
*D8
340
0
 70
     0
280
     1
281
     0
  0
BLOCK_RECORD
  5
2C24B
330
1
100
AcDbSymbolTableRecord
100
AcDbBlockTableRecord
  2
*D9
340
0
 70
     0
280
     1
281
     0
  0
BLOCK_RECORD
  5
2C257
330
1
100
AcDbSymbolTableRecord
100
AcDbBlockTableRecord
  2
*D10
340
0
 70
     0
280
     1
281
     0
  0
BLOCK_RECORD
  5
2C263
330
1
100
AcDbSymbolTableRecord
100
AcDbBlockTableRecord
  2
*D11
340
0
 70
     0
280
     1
281
     0
  0
BLOCK_RECORD
  5
2C26F
330
1
100
AcDbSymbolTableRecord
100
AcDbBlockTableRecord
  2
*D12
340
0
 70
     0
280
     1
281
     0
  0
BLOCK_RECORD
  5
2C27B
330
1
100
AcDbSymbolTableRecord
100
AcDbBlockTableRecord
  2
*D13
340
0
 70
     0
280
     1
281
     0
  0
BLOCK_RECORD
  5
2C287
330
1
100
AcDbSymbolTableRecord
100
AcDbBlockTableRecord
  2
*D14
340
0
 70
     0
280
     1
281
     0
  0
BLOCK_RECORD
  5
2C293
330
1
100
AcDbSymbolTableRecord
100
AcDbBlockTableRecord
  2
*D15
340
0
 70
     0
280
     1
281
     0
  0
BLOCK_RECORD
  5
2C29F
330
1
100
AcDbSymbolTableRecord
100
AcDbBlockTableRecord
  2
*D16
340
0
 70
     0
280
     1
281
     0
  0
BLOCK_RECORD
  5
2C2AD
330
1
100
AcDbSymbolTableRecord
100
AcDbBlockTableRecord
  2
*D17
340
0
 70
     0
280
     1
281
     0
  0
BLOCK_RECORD
  5
2C2B9
330
1
100
AcDbSymbolTableRecord
100
AcDbBlockTableRecord
  2
*D18
340
0
 70
     0
280
     1
281
     0
  0
BLOCK_RECORD
  5
2C2C5
330
1
100
AcDbSymbolTableRecord
100
AcDbBlockTableRecord
  2
*D19
340
0
 70
     0
280
     1
281
     0
  0
BLOCK_RECORD
  5
2C2D1
330
1
100
AcDbSymbolTableRecord
100
AcDbBlockTableRecord
  2
*D20
340
0
 70
     0
280
     1
281
     0
  0
BLOCK_RECORD
  5
2C2DD
330
1
100
AcDbSymbolTableRecord
100
AcDbBlockTableRecord
  2
*D21
340
0
 70
     0
280
     1
281
     0
  0
BLOCK_RECORD
  5
2C2E9
330
1
100
AcDbSymbolTableRecord
100
AcDbBlockTableRecord
  2
*D22
340
0
 70
     0
280
     1
281
     0
  0
BLOCK_RECORD
  5
2C2F5
330
1
100
AcDbSymbolTableRecord
100
AcDbBlockTableRecord
  2
*D23
340
0
 70
     0
280
     1
281
     0
  0
BLOCK_RECORD
  5
2C839
330
1
100
AcDbSymbolTableRecord
100
AcDbBlockTableRecord
  2
*D24
340
0
 70
     0
280
     1
281
     0
  0
BLOCK_RECORD
  5
2ED21
330
1
100
AcDbSymbolTableRecord
100
AcDbBlockTableRecord
  2
*D25
340
0
 70
     0
280
     1
281
     0
  0
BLOCK_RECORD
  5
2ED2D
330
1
100
AcDbSymbolTableRecord
100
AcDbBlockTableRecord
  2
*D26
340
0
 70
     0
280
     1
281
     0
  0
BLOCK_RECORD
  5
2ED39
330
1
100
AcDbSymbolTableRecord
100
AcDbBlockTableRecord
  2
*D27
340
0
 70
     0
280
     1
281
     0
  0
BLOCK_RECORD
  5
2ED45
330
1
100
AcDbSymbolTableRecord
100
AcDbBlockTableRecord
  2
*D28
340
0
 70
     0
280
     1
281
     0
  0
BLOCK_RECORD
  5
2ED51
330
1
100
AcDbSymbolTableRecord
100
AcDbBlockTableRecord
  2
*D29
340
0
 70
     0
280
     1
281
     0
  0
BLOCK_RECORD
  5
2ED5F
330
1
100
AcDbSymbolTableRecord
100
AcDbBlockTableRecord
  2
*D30
340
0
 70
     0
280
     1
281
     0
  0
BLOCK_RECORD
  5
2ED6B
330
1
100
AcDbSymbolTableRecord
100
AcDbBlockTableRecord
  2
*D31
340
0
 70
     0
280
     1
281
     0
  0
BLOCK_RECORD
  5
2ED77
330
1
100
AcDbSymbolTableRecord
100
AcDbBlockTableRecord
  2
*D32
340
0
 70
     0
280
     1
281
     0
  0
BLOCK_RECORD
  5
2ED85
330
1
100
AcDbSymbolTableRecord
100
AcDbBlockTableRecord
  2
*D33
340
0
 70
     0
280
     1
281
     0
  0
BLOCK_RECORD
  5
2ED91
330
1
100
AcDbSymbolTableRecord
100
AcDbBlockTableRecord
  2
*D34
340
0
 70
     0
280
     1
281
     0
  0
BLOCK_RECORD
  5
2FB50
330
1
100
AcDbSymbolTableRecord
100
AcDbBlockTableRecord
  2
*D35
340
0
 70
     0
280
     1
281
     0
  0
ENDTAB
  0
ENDSEC
  0
SECTION
  2
BLOCKS
  0
BLOCK
  5
1F
330
1E
100
AcDbEntity
  8
0
100
AcDbBlockBegin
  2
*Model_Space
 70
     0
 10
0.0
 20
0.0
 30
0.0
  3
*Model_Space
  1

  0
ENDBLK
  5
20
330
1E
100
AcDbEntity
  8
0
100
AcDbBlockEnd
  0
BLOCK
  5
1B
330
1A
100
AcDbEntity
 67
     1
  8
0
100
AcDbBlockBegin
  2
*Paper_Space
 70
     0
 10
0.0
 20
0.0
 30
0.0
  3
*Paper_Space
  1

  0
ENDBLK
  5
1C
330
1A
100
AcDbEntity
 67
     1
  8
0
100
AcDbBlockEnd
  0
BLOCK
  5
91DC
330
91D9
100
AcDbEntity
  8
0
 48
0.5
370
    13
100
AcDbBlockBegin
  2
_Dot
 70
     0
 10
0.0
 20
0.0
 30
0.0
  3
_Dot
  1

  0
LWPOLYLINE
  5
91DA
330
91D9
100
AcDbEntity
  8
0
  6
ByBlock
 62
     0
370
    13
100
AcDbPolyline
 90
        2
 70
     1
 43
0.5
 10
-0.25
 20
0.0
 42
1.0
 10
0.25
 20
0.0
 42
1.0
  0
LINE
  5
91DB
330
91D9
100
AcDbEntity
  8
0
  6
ByBlock
 62
     0
370
    -2
100
AcDbLine
 10
-0.5
 20
0.0
 30
0.0
 11
-1.0
 21
0.0
 31
0.0
  0
ENDBLK
  5
91DD
330
91D9
100
AcDbEntity
  8
0
 48
0.5
370
    13
100
AcDbBlockEnd
  0
BLOCK
  5
21243
330
21239
100
AcDbEntity
  8
0
 48
0.5
370
    30
100
AcDbBlockBegin
  2
*D1
 70
     1
 10
0.0
 20
0.0
 30
0.0
  3
*D1
  1

  0
LINE
  5
2F8E4
330
21239
100
AcDbEntity
  8
1-B_寸法
  6
Continuous
 62
     3
440
 16777216
 48
0.5
370
    -2
100
AcDbLine
 10
2857.879483336422
 20
8499.907191063901
 30
0.0
 11
2860.879483336423
 21
8499.907191063901
 31
0.0
  0
LINE
  5
2F8E5
330
21239
100
AcDbEntity
  8
1-B_寸法
  6
Continuous
 62
     3
440
 16777216
 48
0.5
370
    -2
100
AcDbLine
 10
2857.879483336422
 20
8491.9071910639
 30
0.0
 11
2860.879483336423
 21
8491.9071910639
 31
0.0
  0
LINE
  5
2F8E6
330
21239
100
AcDbEntity
  8
1-B_寸法
  6
Continuous
 62
     3
440
 16777216
 48
0.5
370
    -2
100
AcDbLine
 10
2859.879483336423
 20
8498.907191063899
 30
0.0
 11
2859.879483336423
 21
8492.907191063899
 31
0.0
  0
INSERT
  5
2F8E7
330
21239
100
AcDbEntity
  8
1-B_寸法
  6
Continuous
 62
     3
440
 16777216
 48
0.5
370
    -2
100
AcDbBlockReference
  2
_Dot
 10
2859.879483336423
 20
8499.907191063901
 30
0.0
 50
90.0
  0
INSERT
  5
2F8E8
330
21239
100
AcDbEntity
  8
1-B_寸法
  6
Continuous
 62
     3
440
 16777216
 48
0.5
370
    -2
100
AcDbBlockReference
  2
_Dot
 10
2859.879483336423
 20
8491.9071910639
 30
0.0
 50
270.0
  0
MTEXT
  5
2F8E9
330
21239
100
AcDbEntity
  8
1-B_寸法
  6
Continuous
 62
     3
440
 16777216
 48
0.5
370
    18
100
AcDbMText
 10
2857.754483336421
 20
8495.907191063899
 30
0.0
 40
3.0
 41
0.0
 46
0.0
 71
     5
 72
     1
  1
8
  7
明朝
 11
0.0000000000000001
 21
1.0
 31
0.0
 73
     1
 44
1.0
  0
POINT
  5
2F8EA
330
21239
100
AcDbEntity
  8
Defpoints
  6
Continuous
 62
     0
440
 16777216
 48
0.5
370
    35
100
AcDbPoint
 10
2854.879483336421
 20
8499.907191063901
 30
0.0
  0
POINT
  5
2F8EB
330
21239
100
AcDbEntity
  8
Defpoints
  6
Continuous
 62
     0
440
 16777216
 48
0.5
370
    35
100
AcDbPoint
 10
2854.879483336422
 20
8491.9071910639
 30
0.0
  0
POINT
  5
2F8EC
330
21239
100
AcDbEntity
  8
Defpoints
  6
Continuous
 62
     0
440
 16777216
 48
0.5
370
    35
100
AcDbPoint
 10
2859.879483336423
 20
8491.9071910639
 30
0.0
  0
ENDBLK
  5
21244
330
21239
100
AcDbEntity
  8
0
 48
0.5
370
    30
100
AcDbBlockEnd
  0
BLOCK
  5
2269F
330
22695
100
AcDbEntity
  8
0
 48
0.5
370
    30
100
AcDbBlockBegin
  2
*D2
 70
     1
 10
0.0
 20
0.0
 30
0.0
  3
*D2
  1

  0
LINE
  5
2F8ED
330
22695
100
AcDbEntity
  8
1-B_寸法
  6
Continuous
 62
     3
440
 16777216
 48
0.5
370
    -2
100
AcDbLine
 10
2662.379483336422
 20
8527.907191063899
 30
0.0
 11
2656.879483336423
 21
8527.907191063899
 31
0.0
  0
LINE
  5
2F8EE
330
22695
100
AcDbEntity
  8
1-B_寸法
  6
Continuous
 62
     3
440
 16777216
 48
0.5
370
    -2
100
AcDbLine
 10
2662.379483336422
 20
8517.907191063899
 30
0.0
 11
2656.879483336423
 21
8517.907191063899
 31
0.0
  0
LINE
  5
2F8EF
330
22695
100
AcDbEntity
  8
1-B_寸法
  6
Continuous
 62
     3
440
 16777216
 48
0.5
370
    -2
100
AcDbLine
 10
2657.879483336423
 20
8526.9071910639
 30
0.0
 11
2657.879483336423
 21
8518.907191063901
 31
0.0
  0
INSERT
  5
2F8F0
330
22695
100
AcDbEntity
  8
1-B_寸法
  6
Continuous
 62
     3
440
 16777216
 48
0.5
370
    -2
100
AcDbBlockReference
  2
_Dot
 10
2657.879483336423
 20
8527.907191063899
 30
0.0
 50
90.0
  0
INSERT
  5
2F8F1
330
22695
100
AcDbEntity
  8
1-B_寸法
  6
Continuous
 62
     3
440
 16777216
 48
0.5
370
    -2
100
AcDbBlockReference
  2
_Dot
 10
2657.879483336423
 20
8517.907191063899
 30
0.0
 50
270.0
  0
MTEXT
  5
2F8F2
330
22695
100
AcDbEntity
  8
1-B_寸法
  6
Continuous
 62
     3
440
 16777216
 48
0.5
370
    18
100
AcDbMText
 10
2655.754483336421
 20
8522.907191063898
 30
0.0
 40
3.0
 41
0.0
 46
0.0
 71
     5
 72
     1
  1
10
  7
明朝
 11
0.0000000000000001
 21
1.0
 31
0.0
 73
     1
 44
1.0
  0
POINT
  5
2F8F3
330
22695
100
AcDbEntity
  8
Defpoints
  6
Continuous
 62
     0
440
 16777216
 48
0.5
370
    35
100
AcDbPoint
 10
2665.379483336422
 20
8527.907191063899
 30
0.0
  0
POINT
  5
2F8F4
330
22695
100
AcDbEntity
  8
Defpoints
  6
Continuous
 62
     0
440
 16777216
 48
0.5
370
    35
100
AcDbPoint
 10
2665.379483336422
 20
8517.907191063899
 30
0.0
  0
POINT
  5
2F8F5
330
22695
100
AcDbEntity
  8
Defpoints
  6
Continuous
 62
     0
440
 16777216
 48
0.5
370
    35
100
AcDbPoint
 10
2657.879483336423
 20
8517.907191063899
 30
0.0
  0
ENDBLK
  5
226A0
330
22695
100
AcDbEntity
  8
0
 48
0.5
370
    30
100
AcDbBlockEnd
  0
BLOCK
  5
22745
330
2273B
100
AcDbEntity
  8
0
 48
0.5
370
    30
100
AcDbBlockBegin
  2
*D3
 70
     1
 10
0.0
 20
0.0
 30
0.0
  3
*D3
  1

  0
LINE
  5
2F8FF
330
2273B
100
AcDbEntity
  8
1-B_寸法
  6
Continuous
 62
     3
440
 16777216
 48
0.5
370
    -2
100
AcDbLine
 10
2677.879483336421
 20
8546.907191764907
 30
0.0
 11
2677.879483336421
 21
8551.407191764907
 31
0.0
  0
LINE
  5
2F900
330
2273B
100
AcDbEntity
  8
1-B_寸法
  6
Continuous
 62
     3
440
 16777216
 48
0.5
370
    -2
100
AcDbLine
 10
2697.879483341651
 20
8546.907191764907
 30
0.0
 11
2697.879483341651
 21
8551.407191764907
 31
0.0
  0
LINE
  5
2F901
330
2273B
100
AcDbEntity
  8
1-B_寸法
  6
Continuous
 62
     3
440
 16777216
 48
0.5
370
    -2
100
AcDbLine
 10
2678.879483336422
 20
8550.407191764907
 30
0.0
 11
2696.879483341651
 21
8550.407191764907
 31
0.0
  0
INSERT
  5
2F902
330
2273B
100
AcDbEntity
  8
1-B_寸法
  6
Continuous
 62
     3
440
 16777216
 48
0.5
370
    -2
100
AcDbBlockReference
  2
_Dot
 10
2677.879483336421
 20
8550.407191764907
 30
0.0
 50
180.0
  0
INSERT
  5
2F903
330
2273B
100
AcDbEntity
  8
1-B_寸法
  6
Continuous
 62
     3
440
 16777216
 48
0.5
370
    -2
100
AcDbBlockReference
  2
_Dot
 10
2697.879483341651
 20
8550.407191764907
 30
0.0
  0
MTEXT
  5
2F904
330
2273B
100
AcDbEntity
  8
1-B_寸法
  6
Continuous
 62
     3
440
 16777216
 48
0.5
370
    18
100
AcDbMText
 10
2687.879483339036
 20
8552.532191764907
 30
0.0
 40
3.0
 41
0.0
 46
0.0
 71
     5
 72
     1
  1
20
  7
明朝
 73
     1
 44
1.0
  0
POINT
  5
2F905
330
2273B
100
AcDbEntity
  8
Defpoints
  6
Continuous
 62
     0
440
 16777216
 48
0.5
370
    35
100
AcDbPoint
 10
2677.879483336421
 20
8543.907191764906
 30
0.0
  0
POINT
  5
2F906
330
2273B
100
AcDbEntity
  8
Defpoints
  6
Continuous
 62
     0
440
 16777216
 48
0.5
370
    35
100
AcDbPoint
 10
2697.879483341651
 20
8543.907191764906
 30
0.0
  0
POINT
  5
2F907
330
2273B
100
AcDbEntity
  8
Defpoints
  6
Continuous
 62
     0
440
 16777216
 48
0.5
370
    35
100
AcDbPoint
 10
2697.879483341651
 20
8550.407191764907
 30
0.0
  0
ENDBLK
  5
22746
330
2273B
100
AcDbEntity
  8
0
 48
0.5
370
    30
100
AcDbBlockEnd
  0
BLOCK
  5
25230
330
25226
100
AcDbEntity
  8
0
 48
0.5
370
    30
100
AcDbBlockBegin
  2
*D4
 70
     1
 10
0.0
 20
0.0
 30
0.0
  3
*D4
  1

  0
LINE
  5
2F908
330
25226
100
AcDbEntity
  8
1-B_寸法
  6
Continuous
 62
     3
440
 16777216
 48
0.5
370
    -2
100
AcDbLine
 10
2710.879483336422
 20
8527.907191063899
 30
0.0
 11
2713.12823517179
 21
8527.907191063899
 31
0.0
  0
LINE
  5
2F909
330
25226
100
AcDbEntity
  8
1-B_寸法
  6
Continuous
 62
     3
440
 16777216
 48
0.5
370
    -2
100
AcDbLine
 10
2710.879483336422
 20
8499.907191063901
 30
0.0
 11
2713.12823517179
 21
8499.907191063901
 31
0.0
  0
LINE
  5
2F90A
330
25226
100
AcDbEntity
  8
1-B_寸法
  6
Continuous
 62
     3
440
 16777216
 48
0.5
370
    -2
100
AcDbLine
 10
2712.128235171789
 20
8526.9071910639
 30
0.0
 11
2712.128235171789
 21
8500.9071910639
 31
0.0
  0
INSERT
  5
2F90B
330
25226
100
AcDbEntity
  8
1-B_寸法
  6
Continuous
 62
     3
440
 16777216
 48
0.5
370
    -2
100
AcDbBlockReference
  2
_Dot
 10
2712.128235171789
 20
8527.907191063899
 30
0.0
 50
90.0
  0
INSERT
  5
2F90C
330
25226
100
AcDbEntity
  8
1-B_寸法
  6
Continuous
 62
     3
440
 16777216
 48
0.5
370
    -2
100
AcDbBlockReference
  2
_Dot
 10
2712.128235171789
 20
8499.907191063901
 30
0.0
 50
270.0
  0
MTEXT
  5
2F90D
330
25226
100
AcDbEntity
  8
1-B_寸法
  6
Continuous
 62
     3
440
 16777216
 48
0.5
370
    18
100
AcDbMText
 10
2710.003235171788
 20
8513.067630303126
 30
0.0
 40
3.0
 41
0.0
 46
0.0
 71
     5
 72
     1
  1
28
  7
明朝
 11
0.0000000000000001
 21
1.0
 31
0.0
 73
     1
 44
1.0
  0
POINT
  5
2F90E
330
25226
100
AcDbEntity
  8
Defpoints
  6
Continuous
 62
     0
440
 16777216
 48
0.5
370
    35
100
AcDbPoint
 10
2707.879483336422
 20
8527.907191063899
 30
0.0
  0
POINT
  5
2F90F
330
25226
100
AcDbEntity
  8
Defpoints
  6
Continuous
 62
     0
440
 16777216
 48
0.5
370
    35
100
AcDbPoint
 10
2707.879483336422
 20
8499.907191063901
 30
0.0
  0
POINT
  5
2F910
330
25226
100
AcDbEntity
  8
Defpoints
  6
Continuous
 62
     0
440
 16777216
 48
0.5
370
    35
100
AcDbPoint
 10
2712.128235171789
 20
8499.907191063901
 30
0.0
  0
ENDBLK
  5
25231
330
25226
100
AcDbEntity
  8
0
 48
0.5
370
    30
100
AcDbBlockEnd
  0
BLOCK
  5
2C225
330
2C21B
100
AcDbEntity
  8
0
 48
0.5
370
    18
100
AcDbBlockBegin
  2
*D5
 70
     1
 10
0.0
 20
0.0
 30
0.0
  3
*D5
  1

  0
LINE
  5
2EBA8
330
2C21B
100
AcDbEntity
  8
1-B_寸法
  6
Continuous
 62
     3
440
 16777216
 48
0.5
370
    -2
100
AcDbLine
 10
2558.651271717959
 20
8492.828275076396
 30
0.0
 11
2558.651271717959
 21
8487.328275076396
 31
0.0
  0
LINE
  5
2EBA9
330
2C21B
100
AcDbEntity
  8
1-B_寸法
  6
Continuous
 62
     3
440
 16777216
 48
0.5
370
    -2
100
AcDbLine
 10
2538.651271717959
 20
8492.828275076396
 30
0.0
 11
2538.651271717959
 21
8487.328275076396
 31
0.0
  0
LINE
  5
2EBAA
330
2C21B
100
AcDbEntity
  8
1-B_寸法
  6
Continuous
 62
     3
440
 16777216
 48
0.5
370
    -2
100
AcDbLine
 10
2557.651271717959
 20
8488.328275076396
 30
0.0
 11
2539.651271717959
 21
8488.328275076396
 31
0.0
  0
INSERT
  5
2EBAB
330
2C21B
100
AcDbEntity
  8
1-B_寸法
  6
Continuous
 62
     3
440
 16777216
 48
0.5
370
    -2
100
AcDbBlockReference
  2
_Dot
 10
2558.651271717959
 20
8488.328275076396
 30
0.0
  0
INSERT
  5
2EBAC
330
2C21B
100
AcDbEntity
  8
1-B_寸法
  6
Continuous
 62
     3
440
 16777216
 48
0.5
370
    -2
100
AcDbBlockReference
  2
_Dot
 10
2538.651271717959
 20
8488.328275076396
 30
0.0
 50
180.0
  0
MTEXT
  5
2EBAD
330
2C21B
100
AcDbEntity
  8
1-B_寸法
  6
Continuous
 62
     3
440
 16777216
 48
0.5
370
    18
100
AcDbMText
 10
2548.651271717959
 20
8490.453275076395
 30
0.0
 40
3.0
 41
0.0
 46
0.0
 71
     5
 72
     1
  1
20
  7
明朝
 73
     1
 44
1.0
  0
POINT
  5
2EBAE
330
2C21B
100
AcDbEntity
  8
Defpoints
  6
Continuous
 62
     0
440
 16777216
 48
0.5
370
    35
100
AcDbPoint
 10
2558.651271717959
 20
8495.828275076396
 30
0.0
  0
POINT
  5
2EBAF
330
2C21B
100
AcDbEntity
  8
Defpoints
  6
Continuous
 62
     0
440
 16777216
 48
0.5
370
    35
100
AcDbPoint
 10
2538.651271717959
 20
8495.828275076396
 30
0.0
  0
POINT
  5
2EBB0
330
2C21B
100
AcDbEntity
  8
Defpoints
  6
Continuous
 62
     0
440
 16777216
 48
0.5
370
    35
100
AcDbPoint
 10
2538.651271717959
 20
8488.328275076396
 30
0.0
  0
ENDBLK
  5
2C226
330
2C21B
100
AcDbEntity
  8
0
 48
0.5
370
    18
100
AcDbBlockEnd
  0
BLOCK
  5
2C231
330
2C227
100
AcDbEntity
  8
0
 48
0.5
370
    18
100
AcDbBlockBegin
  2
*D6
 70
     1
 10
0.0
 20
0.0
 30
0.0
  3
*D6
  1

  0
LINE
  5
2EB9F
330
2C227
100
AcDbEntity
  8
1-B_寸法
  6
Continuous
 62
     3
440
 16777216
 48
0.5
370
    -2
100
AcDbLine
 10
2568.651271717959
 20
8492.828275076396
 30
0.0
 11
2568.651271717959
 21
8479.828275076396
 31
0.0
  0
LINE
  5
2EBA0
330
2C227
100
AcDbEntity
  8
1-B_寸法
  6
Continuous
 62
     3
440
 16777216
 48
0.5
370
    -2
100
AcDbLine
 10
2528.651271717959
 20
8492.828275076396
 30
0.0
 11
2528.651271717959
 21
8479.828275076396
 31
0.0
  0
LINE
  5
2EBA1
330
2C227
100
AcDbEntity
  8
1-B_寸法
  6
Continuous
 62
     3
440
 16777216
 48
0.5
370
    -2
100
AcDbLine
 10
2567.651271717958
 20
8480.828275076396
 30
0.0
 11
2529.651271717959
 21
8480.828275076396
 31
0.0
  0
INSERT
  5
2EBA2
330
2C227
100
AcDbEntity
  8
1-B_寸法
  6
Continuous
 62
     3
440
 16777216
 48
0.5
370
    -2
100
AcDbBlockReference
  2
_Dot
 10
2568.651271717959
 20
8480.828275076396
 30
0.0
  0
INSERT
  5
2EBA3
330
2C227
100
AcDbEntity
  8
1-B_寸法
  6
Continuous
 62
     3
440
 16777216
 48
0.5
370
    -2
100
AcDbBlockReference
  2
_Dot
 10
2528.651271717959
 20
8480.828275076396
 30
0.0
 50
180.0
  0
MTEXT
  5
2EBA4
330
2C227
100
AcDbEntity
  8
1-B_寸法
  6
Continuous
 62
     3
440
 16777216
 48
0.5
370
    18
100
AcDbMText
 10
2548.651271717959
 20
8482.953275076395
 30
0.0
 40
3.0
 41
0.0
 46
0.0
 71
     5
 72
     1
  1
40
  7
明朝
 73
     1
 44
1.0
  0
POINT
  5
2EBA5
330
2C227
100
AcDbEntity
  8
Defpoints
  6
Continuous
 62
     0
440
 16777216
 48
0.5
370
    35
100
AcDbPoint
 10
2568.651271717959
 20
8495.828275076396
 30
0.0
  0
POINT
  5
2EBA6
330
2C227
100
AcDbEntity
  8
Defpoints
  6
Continuous
 62
     0
440
 16777216
 48
0.5
370
    35
100
AcDbPoint
 10
2528.651271717959
 20
8495.828275076396
 30
0.0
  0
POINT
  5
2EBA7
330
2C227
100
AcDbEntity
  8
Defpoints
  6
Continuous
 62
     0
440
 16777216
 48
0.5
370
    35
100
AcDbPoint
 10
2528.651271717959
 20
8480.828275076396
 30
0.0
  0
ENDBLK
  5
2C232
330
2C227
100
AcDbEntity
  8
0
 48
0.5
370
    18
100
AcDbBlockEnd
  0
BLOCK
  5
2C23D
330
2C233
100
AcDbEntity
  8
0
 48
0.5
370
    18
100
AcDbBlockBegin
  2
*D7
 70
     1
 10
0.0
 20
0.0
 30
0.0
  3
*D7
  1

  0
LINE
  5
2EBB1
330
2C233
100
AcDbEntity
  8
1-B_寸法
  6
Continuous
 62
     3
440
 16777216
 48
0.5
370
    -2
100
AcDbLine
 10
2530.651271717961
 20
8703.828275076395
 30
0.0
 11
2505.151271717962
 21
8703.828275076395
 31
0.0
  0
LINE
  5
2EBB2
330
2C233
100
AcDbEntity
  8
1-B_寸法
  6
Continuous
 62
     3
440
 16777216
 48
0.5
370
    -2
100
AcDbLine
 10
2525.651271717959
 20
8495.828275076396
 30
0.0
 11
2505.151271717962
 21
8495.828275076396
 31
0.0
  0
LINE
  5
2EBB3
330
2C233
100
AcDbEntity
  8
1-B_寸法
  6
Continuous
 62
     3
440
 16777216
 48
0.5
370
    -2
100
AcDbLine
 10
2506.151271717961
 20
8702.828275076397
 30
0.0
 11
2506.151271717961
 21
8496.828275076396
 31
0.0
  0
INSERT
  5
2EBB4
330
2C233
100
AcDbEntity
  8
1-B_寸法
  6
Continuous
 62
     3
440
 16777216
 48
0.5
370
    -2
100
AcDbBlockReference
  2
_Dot
 10
2506.151271717961
 20
8703.828275076395
 30
0.0
 50
90.0
  0
INSERT
  5
2EBB5
330
2C233
100
AcDbEntity
  8
1-B_寸法
  6
Continuous
 62
     3
440
 16777216
 48
0.5
370
    -2
100
AcDbBlockReference
  2
_Dot
 10
2506.151271717961
 20
8495.828275076396
 30
0.0
 50
270.0
  0
MTEXT
  5
2EBB6
330
2C233
100
AcDbEntity
  8
1-B_寸法
  6
Continuous
 62
     3
440
 16777216
 48
0.5
370
    18
100
AcDbMText
 10
2504.02627171796
 20
8599.828275076395
 30
0.0
 40
3.0
 41
0.0
 46
0.0
 71
     5
 72
     1
  1
208
  7
明朝
 11
0.0000000000000001
 21
1.0
 31
0.0
 73
     1
 44
1.0
  0
POINT
  5
2EBB7
330
2C233
100
AcDbEntity
  8
Defpoints
  6
Continuous
 62
     0
440
 16777216
 48
0.5
370
    35
100
AcDbPoint
 10
2533.651271717961
 20
8703.828275076395
 30
0.0
  0
POINT
  5
2EBB8
330
2C233
100
AcDbEntity
  8
Defpoints
  6
Continuous
 62
     0
440
 16777216
 48
0.5
370
    35
100
AcDbPoint
 10
2528.651271717959
 20
8495.828275076396
 30
0.0
  0
POINT
  5
2EBB9
330
2C233
100
AcDbEntity
  8
Defpoints
  6
Continuous
 62
     0
440
 16777216
 48
0.5
370
    35
100
AcDbPoint
 10
2506.151271717961
 20
8495.828275076396
 30
0.0
  0
ENDBLK
  5
2C23E
330
2C233
100
AcDbEntity
  8
0
 48
0.5
370
    18
100
AcDbBlockEnd
  0
BLOCK
  5
2C249
330
2C23F
100
AcDbEntity
  8
0
 48
0.5
370
    18
100
AcDbBlockBegin
  2
*D8
 70
     1
 10
0.0
 20
0.0
 30
0.0
  3
*D8
  1

  0
LINE
  5
2EBE7
330
2C23F
100
AcDbEntity
  8
1-B_寸法
  6
Continuous
 62
     3
440
 16777216
 48
0.5
370
    -2
100
AcDbLine
 10
2525.651271717959
 20
8505.828275076394
 30
0.0
 11
2520.15127171796
 21
8505.828275076394
 31
0.0
  0
LINE
  5
2EBE8
330
2C23F
100
AcDbEntity
  8
1-B_寸法
  6
Continuous
 62
     3
440
 16777216
 48
0.5
370
    -2
100
AcDbLine
 10
2525.651271717959
 20
8495.828275076396
 30
0.0
 11
2520.15127171796
 21
8495.828275076396
 31
0.0
  0
LINE
  5
2EBE9
330
2C23F
100
AcDbEntity
  8
1-B_寸法
  6
Continuous
 62
     3
440
 16777216
 48
0.5
370
    -2
100
AcDbLine
 10
2521.15127171796
 20
8504.828275076397
 30
0.0
 11
2521.15127171796
 21
8496.828275076396
 31
0.0
  0
INSERT
  5
2EBEA
330
2C23F
100
AcDbEntity
  8
1-B_寸法
  6
Continuous
 62
     3
440
 16777216
 48
0.5
370
    -2
100
AcDbBlockReference
  2
_Dot
 10
2521.15127171796
 20
8505.828275076394
 30
0.0
 50
90.0
  0
INSERT
  5
2EBEB
330
2C23F
100
AcDbEntity
  8
1-B_寸法
  6
Continuous
 62
     3
440
 16777216
 48
0.5
370
    -2
100
AcDbBlockReference
  2
_Dot
 10
2521.15127171796
 20
8495.828275076396
 30
0.0
 50
270.0
  0
MTEXT
  5
2EBEC
330
2C23F
100
AcDbEntity
  8
1-B_寸法
  6
Continuous
 62
     3
440
 16777216
 48
0.5
370
    18
100
AcDbMText
 10
2519.026271717959
 20
8500.828275076395
 30
0.0
 40
3.0
 41
0.0
 46
0.0
 71
     5
 72
     1
  1
10
  7
明朝
 11
0.0000000000000001
 21
1.0
 31
0.0
 73
     1
 44
1.0
  0
POINT
  5
2EBED
330
2C23F
100
AcDbEntity
  8
Defpoints
  6
Continuous
 62
     0
440
 16777216
 48
0.5
370
    35
100
AcDbPoint
 10
2528.651271717959
 20
8505.828275076394
 30
0.0
  0
POINT
  5
2EBEE
330
2C23F
100
AcDbEntity
  8
Defpoints
  6
Continuous
 62
     0
440
 16777216
 48
0.5
370
    35
100
AcDbPoint
 10
2528.651271717959
 20
8495.828275076396
 30
0.0
  0
POINT
  5
2EBEF
330
2C23F
100
AcDbEntity
  8
Defpoints
  6
Continuous
 62
     0
440
 16777216
 48
0.5
370
    35
100
AcDbPoint
 10
2521.15127171796
 20
8495.828275076396
 30
0.0
  0
ENDBLK
  5
2C24A
330
2C23F
100
AcDbEntity
  8
0
 48
0.5
370
    18
100
AcDbBlockEnd
  0
BLOCK
  5
2C255
330
2C24B
100
AcDbEntity
  8
0
 48
0.5
370
    18
100
AcDbBlockBegin
  2
*D9
 70
     1
 10
0.0
 20
0.0
 30
0.0
  3
*D9
  1

  0
LINE
  5
2EBF0
330
2C24B
100
AcDbEntity
  8
1-B_寸法
  6
Continuous
 62
     3
440
 16777216
 48
0.5
370
    -2
100
AcDbLine
 10
2525.651271717959
 20
8520.828275076395
 30
0.0
 11
2520.15127171796
 21
8520.828275076395
 31
0.0
  0
LINE
  5
2EBF1
330
2C24B
100
AcDbEntity
  8
1-B_寸法
  6
Continuous
 62
     3
440
 16777216
 48
0.5
370
    -2
100
AcDbLine
 10
2525.651271717959
 20
8505.828275076394
 30
0.0
 11
2520.15127171796
 21
8505.828275076394
 31
0.0
  0
LINE
  5
2EBF2
330
2C24B
100
AcDbEntity
  8
1-B_寸法
  6
Continuous
 62
     3
440
 16777216
 48
0.5
370
    -2
100
AcDbLine
 10
2521.15127171796
 20
8519.828275076395
 30
0.0
 11
2521.15127171796
 21
8506.828275076395
 31
0.0
  0
INSERT
  5
2EBF3
330
2C24B
100
AcDbEntity
  8
1-B_寸法
  6
Continuous
 62
     3
440
 16777216
 48
0.5
370
    -2
100
AcDbBlockReference
  2
_Dot
 10
2521.15127171796
 20
8520.828275076395
 30
0.0
 50
90.0
  0
INSERT
  5
2EBF4
330
2C24B
100
AcDbEntity
  8
1-B_寸法
  6
Continuous
 62
     3
440
 16777216
 48
0.5
370
    -2
100
AcDbBlockReference
  2
_Dot
 10
2521.15127171796
 20
8505.828275076394
 30
0.0
 50
270.0
  0
MTEXT
  5
2EBF5
330
2C24B
100
AcDbEntity
  8
1-B_寸法
  6
Continuous
 62
     3
440
 16777216
 48
0.5
370
    18
100
AcDbMText
 10
2519.026271717959
 20
8513.328275076395
 30
0.0
 40
3.0
 41
0.0
 46
0.0
 71
     5
 72
     1
  1
15
  7
明朝
 11
0.0000000000000001
 21
1.0
 31
0.0
 73
     1
 44
1.0
  0
POINT
  5
2EBF6
330
2C24B
100
AcDbEntity
  8
Defpoints
  6
Continuous
 62
     0
440
 16777216
 48
0.5
370
    35
100
AcDbPoint
 10
2528.651271717959
 20
8520.828275076395
 30
0.0
  0
POINT
  5
2EBF7
330
2C24B
100
AcDbEntity
  8
Defpoints
  6
Continuous
 62
     0
440
 16777216
 48
0.5
370
    35
100
AcDbPoint
 10
2528.651271717959
 20
8505.828275076394
 30
0.0
  0
POINT
  5
2EBF8
330
2C24B
100
AcDbEntity
  8
Defpoints
  6
Continuous
 62
     0
440
 16777216
 48
0.5
370
    35
100
AcDbPoint
 10
2521.15127171796
 20
8505.828275076394
 30
0.0
  0
ENDBLK
  5
2C256
330
2C24B
100
AcDbEntity
  8
0
 48
0.5
370
    18
100
AcDbBlockEnd
  0
BLOCK
  5
2C261
330
2C257
100
AcDbEntity
  8
0
 48
0.5
370
    18
100
AcDbBlockBegin
  2
*D10
 70
     1
 10
0.0
 20
0.0
 30
0.0
  3
*D10
  1

  0
LINE
  5
2EBF9
330
2C257
100
AcDbEntity
  8
1-B_寸法
  6
Continuous
 62
     3
440
 16777216
 48
0.5
370
    -2
100
AcDbLine
 10
2525.651271717959
 20
8520.828275076395
 30
0.0
 11
2520.15127171796
 21
8520.828275076395
 31
0.0
  0
LINE
  5
2EBFA
330
2C257
100
AcDbEntity
  8
1-B_寸法
  6
Continuous
 62
     3
440
 16777216
 48
0.5
370
    -2
100
AcDbLine
 10
2525.651271717959
 20
8535.828275076395
 30
0.0
 11
2520.15127171796
 21
8535.828275076395
 31
0.0
  0
LINE
  5
2EBFB
330
2C257
100
AcDbEntity
  8
1-B_寸法
  6
Continuous
 62
     3
440
 16777216
 48
0.5
370
    -2
100
AcDbLine
 10
2521.15127171796
 20
8521.828275076396
 30
0.0
 11
2521.15127171796
 21
8534.828275076396
 31
0.0
  0
INSERT
  5
2EBFC
330
2C257
100
AcDbEntity
  8
1-B_寸法
  6
Continuous
 62
     3
440
 16777216
 48
0.5
370
    -2
100
AcDbBlockReference
  2
_Dot
 10
2521.15127171796
 20
8520.828275076395
 30
0.0
 50
270.0
  0
INSERT
  5
2EBFD
330
2C257
100
AcDbEntity
  8
1-B_寸法
  6
Continuous
 62
     3
440
 16777216
 48
0.5
370
    -2
100
AcDbBlockReference
  2
_Dot
 10
2521.15127171796
 20
8535.828275076395
 30
0.0
 50
90.0
  0
MTEXT
  5
2EBFE
330
2C257
100
AcDbEntity
  8
1-B_寸法
  6
Continuous
 62
     3
440
 16777216
 48
0.5
370
    18
100
AcDbMText
 10
2519.026271717959
 20
8528.328275076395
 30
0.0
 40
3.0
 41
0.0
 46
0.0
 71
     5
 72
     1
  1
15
  7
明朝
 11
0.0000000000000001
 21
1.0
 31
0.0
 73
     1
 44
1.0
  0
POINT
  5
2EBFF
330
2C257
100
AcDbEntity
  8
Defpoints
  6
Continuous
 62
     0
440
 16777216
 48
0.5
370
    35
100
AcDbPoint
 10
2528.651271717959
 20
8520.828275076395
 30
0.0
  0
POINT
  5
2EC00
330
2C257
100
AcDbEntity
  8
Defpoints
  6
Continuous
 62
     0
440
 16777216
 48
0.5
370
    35
100
AcDbPoint
 10
2528.651271717959
 20
8535.828275076395
 30
0.0
  0
POINT
  5
2EC01
330
2C257
100
AcDbEntity
  8
Defpoints
  6
Continuous
 62
     0
440
 16777216
 48
0.5
370
    35
100
AcDbPoint
 10
2521.15127171796
 20
8535.828275076395
 30
0.0
  0
ENDBLK
  5
2C262
330
2C257
100
AcDbEntity
  8
0
 48
0.5
370
    18
100
AcDbBlockEnd
  0
BLOCK
  5
2C26D
330
2C263
100
AcDbEntity
  8
0
 48
0.5
370
    18
100
AcDbBlockBegin
  2
*D11
 70
     1
 10
0.0
 20
0.0
 30
0.0
  3
*D11
  1

  0
LINE
  5
2EBCC
330
2C263
100
AcDbEntity
  8
1-B_寸法
  6
Continuous
 62
     3
440
 16777216
 48
0.5
370
    -2
100
AcDbLine
 10
2525.651271717959
 20
8620.828275076396
 30
0.0
 11
2520.15127171796
 21
8620.828275076396
 31
0.0
  0
LINE
  5
2EBCD
330
2C263
100
AcDbEntity
  8
1-B_寸法
  6
Continuous
 62
     3
440
 16777216
 48
0.5
370
    -2
100
AcDbLine
 10
2525.651271717959
 20
8605.828275076396
 30
0.0
 11
2520.15127171796
 21
8605.828275076396
 31
0.0
  0
LINE
  5
2EBCE
330
2C263
100
AcDbEntity
  8
1-B_寸法
  6
Continuous
 62
     3
440
 16777216
 48
0.5
370
    -2
100
AcDbLine
 10
2521.15127171796
 20
8619.828275076395
 30
0.0
 11
2521.15127171796
 21
8606.828275076395
 31
0.0
  0
INSERT
  5
2EBCF
330
2C263
100
AcDbEntity
  8
1-B_寸法
  6
Continuous
 62
     3
440
 16777216
 48
0.5
370
    -2
100
AcDbBlockReference
  2
_Dot
 10
2521.15127171796
 20
8620.828275076396
 30
0.0
 50
90.0
  0
INSERT
  5
2EBD0
330
2C263
100
AcDbEntity
  8
1-B_寸法
  6
Continuous
 62
     3
440
 16777216
 48
0.5
370
    -2
100
AcDbBlockReference
  2
_Dot
 10
2521.15127171796
 20
8605.828275076396
 30
0.0
 50
270.0
  0
MTEXT
  5
2EBD1
330
2C263
100
AcDbEntity
  8
1-B_寸法
  6
Continuous
 62
     3
440
 16777216
 48
0.5
370
    18
100
AcDbMText
 10
2519.026271717959
 20
8613.328275076396
 30
0.0
 40
3.0
 41
0.0
 46
0.0
 71
     5
 72
     1
  1
15
  7
明朝
 11
0.0000000000000001
 21
1.0
 31
0.0
 73
     1
 44
1.0
  0
POINT
  5
2EBD2
330
2C263
100
AcDbEntity
  8
Defpoints
  6
Continuous
 62
     0
440
 16777216
 48
0.5
370
    35
100
AcDbPoint
 10
2528.651271717959
 20
8620.828275076396
 30
0.0
  0
POINT
  5
2EBD3
330
2C263
100
AcDbEntity
  8
Defpoints
  6
Continuous
 62
     0
440
 16777216
 48
0.5
370
    35
100
AcDbPoint
 10
2528.651271717959
 20
8605.828275076396
 30
0.0
  0
POINT
  5
2EBD4
330
2C263
100
AcDbEntity
  8
Defpoints
  6
Continuous
 62
     0
440
 16777216
 48
0.5
370
    35
100
AcDbPoint
 10
2521.15127171796
 20
8605.828275076396
 30
0.0
  0
ENDBLK
  5
2C26E
330
2C263
100
AcDbEntity
  8
0
 48
0.5
370
    18
100
AcDbBlockEnd
  0
BLOCK
  5
2C279
330
2C26F
100
AcDbEntity
  8
0
 48
0.5
370
    18
100
AcDbBlockBegin
  2
*D12
 70
     1
 10
0.0
 20
0.0
 30
0.0
  3
*D12
  1

  0
LINE
  5
2EBD5
330
2C26F
100
AcDbEntity
  8
1-B_寸法
  6
Continuous
 62
     3
440
 16777216
 48
0.5
370
    -2
100
AcDbLine
 10
2525.651271717959
 20
8620.828275076396
 30
0.0
 11
2520.15127171796
 21
8620.828275076396
 31
0.0
  0
LINE
  5
2EBD6
330
2C26F
100
AcDbEntity
  8
1-B_寸法
  6
Continuous
 62
     3
440
 16777216
 48
0.5
370
    -2
100
AcDbLine
 10
2525.651271717959
 20
8635.828275076397
 30
0.0
 11
2520.15127171796
 21
8635.828275076397
 31
0.0
  0
LINE
  5
2EBD7
330
2C26F
100
AcDbEntity
  8
1-B_寸法
  6
Continuous
 62
     3
440
 16777216
 48
0.5
370
    -2
100
AcDbLine
 10
2521.15127171796
 20
8621.828275076396
 30
0.0
 11
2521.15127171796
 21
8634.828275076396
 31
0.0
  0
INSERT
  5
2EBD8
330
2C26F
100
AcDbEntity
  8
1-B_寸法
  6
Continuous
 62
     3
440
 16777216
 48
0.5
370
    -2
100
AcDbBlockReference
  2
_Dot
 10
2521.15127171796
 20
8620.828275076396
 30
0.0
 50
270.0
  0
INSERT
  5
2EBD9
330
2C26F
100
AcDbEntity
  8
1-B_寸法
  6
Continuous
 62
     3
440
 16777216
 48
0.5
370
    -2
100
AcDbBlockReference
  2
_Dot
 10
2521.15127171796
 20
8635.828275076397
 30
0.0
 50
90.0
  0
MTEXT
  5
2EBDA
330
2C26F
100
AcDbEntity
  8
1-B_寸法
  6
Continuous
 62
     3
440
 16777216
 48
0.5
370
    18
100
AcDbMText
 10
2519.026271717959
 20
8628.328275076396
 30
0.0
 40
3.0
 41
0.0
 46
0.0
 71
     5
 72
     1
  1
15
  7
明朝
 11
0.0000000000000001
 21
1.0
 31
0.0
 73
     1
 44
1.0
  0
POINT
  5
2EBDB
330
2C26F
100
AcDbEntity
  8
Defpoints
  6
Continuous
 62
     0
440
 16777216
 48
0.5
370
    35
100
AcDbPoint
 10
2528.651271717959
 20
8620.828275076396
 30
0.0
  0
POINT
  5
2EBDC
330
2C26F
100
AcDbEntity
  8
Defpoints
  6
Continuous
 62
     0
440
 16777216
 48
0.5
370
    35
100
AcDbPoint
 10
2528.651271717959
 20
8635.828275076397
 30
0.0
  0
POINT
  5
2EBDD
330
2C26F
100
AcDbEntity
  8
Defpoints
  6
Continuous
 62
     0
440
 16777216
 48
0.5
370
    35
100
AcDbPoint
 10
2521.15127171796
 20
8635.828275076397
 30
0.0
  0
ENDBLK
  5
2C27A
330
2C26F
100
AcDbEntity
  8
0
 48
0.5
370
    18
100
AcDbBlockEnd
  0
BLOCK
  5
2C285
330
2C27B
100
AcDbEntity
  8
0
 48
0.5
370
    18
100
AcDbBlockBegin
  2
*D13
 70
     1
 10
0.0
 20
0.0
 30
0.0
  3
*D13
  1

  0
LINE
  5
2EBBA
330
2C27B
100
AcDbEntity
  8
1-B_寸法
  6
Continuous
 62
     3
440
 16777216
 48
0.5
370
    -2
100
AcDbLine
 10
2525.651271717959
 20
8635.828275076397
 30
0.0
 11
2520.15127171796
 21
8635.828275076397
 31
0.0
  0
LINE
  5
2EBBB
330
2C27B
100
AcDbEntity
  8
1-B_寸法
  6
Continuous
 62
     3
440
 16777216
 48
0.5
370
    -2
100
AcDbLine
 10
2525.651271717959
 20
8645.828275076395
 30
0.0
 11
2520.15127171796
 21
8645.828275076395
 31
0.0
  0
LINE
  5
2EBBC
330
2C27B
100
AcDbEntity
  8
1-B_寸法
  6
Continuous
 62
     3
440
 16777216
 48
0.5
370
    -2
100
AcDbLine
 10
2521.15127171796
 20
8636.828275076394
 30
0.0
 11
2521.15127171796
 21
8644.828275076395
 31
0.0
  0
INSERT
  5
2EBBD
330
2C27B
100
AcDbEntity
  8
1-B_寸法
  6
Continuous
 62
     3
440
 16777216
 48
0.5
370
    -2
100
AcDbBlockReference
  2
_Dot
 10
2521.15127171796
 20
8635.828275076397
 30
0.0
 50
270.0
  0
INSERT
  5
2EBBE
330
2C27B
100
AcDbEntity
  8
1-B_寸法
  6
Continuous
 62
     3
440
 16777216
 48
0.5
370
    -2
100
AcDbBlockReference
  2
_Dot
 10
2521.15127171796
 20
8645.828275076395
 30
0.0
 50
90.0
  0
MTEXT
  5
2EBBF
330
2C27B
100
AcDbEntity
  8
1-B_寸法
  6
Continuous
 62
     3
440
 16777216
 48
0.5
370
    18
100
AcDbMText
 10
2519.026271717959
 20
8640.828275076396
 30
0.0
 40
3.0
 41
0.0
 46
0.0
 71
     5
 72
     1
  1
10
  7
明朝
 11
0.0000000000000001
 21
1.0
 31
0.0
 73
     1
 44
1.0
  0
POINT
  5
2EBC0
330
2C27B
100
AcDbEntity
  8
Defpoints
  6
Continuous
 62
     0
440
 16777216
 48
0.5
370
    35
100
AcDbPoint
 10
2528.651271717959
 20
8635.828275076397
 30
0.0
  0
POINT
  5
2EBC1
330
2C27B
100
AcDbEntity
  8
Defpoints
  6
Continuous
 62
     0
440
 16777216
 48
0.5
370
    35
100
AcDbPoint
 10
2528.651271717959
 20
8645.828275076395
 30
0.0
  0
POINT
  5
2EBC2
330
2C27B
100
AcDbEntity
  8
Defpoints
  6
Continuous
 62
     0
440
 16777216
 48
0.5
370
    35
100
AcDbPoint
 10
2521.15127171796
 20
8645.828275076395
 30
0.0
  0
ENDBLK
  5
2C286
330
2C27B
100
AcDbEntity
  8
0
 48
0.5
370
    18
100
AcDbBlockEnd
  0
BLOCK
  5
2C291
330
2C287
100
AcDbEntity
  8
0
 48
0.5
370
    18
100
AcDbBlockBegin
  2
*D14
 70
     1
 10
0.0
 20
0.0
 30
0.0
  3
*D14
  1

  0
LINE
  5
2EBC3
330
2C287
100
AcDbEntity
  8
1-B_寸法
  6
Continuous
 62
     3
440
 16777216
 48
0.5
370
    -2
100
AcDbLine
 10
2526.651271717959
 20
8645.828275076395
 30
0.0
 11
2512.65127171796
 21
8645.828275076395
 31
0.0
  0
LINE
  5
2EBC4
330
2C287
100
AcDbEntity
  8
1-B_寸法
  6
Continuous
 62
     3
440
 16777216
 48
0.5
370
    -2
100
AcDbLine
 10
2525.651271717959
 20
8495.828275076396
 30
0.0
 11
2512.65127171796
 21
8495.828275076396
 31
0.0
  0
LINE
  5
2EBC5
330
2C287
100
AcDbEntity
  8
1-B_寸法
  6
Continuous
 62
     3
440
 16777216
 48
0.5
370
    -2
100
AcDbLine
 10
2513.65127171796
 20
8644.828275076395
 30
0.0
 11
2513.65127171796
 21
8496.828275076396
 31
0.0
  0
INSERT
  5
2EBC6
330
2C287
100
AcDbEntity
  8
1-B_寸法
  6
Continuous
 62
     3
440
 16777216
 48
0.5
370
    -2
100
AcDbBlockReference
  2
_Dot
 10
2513.65127171796
 20
8645.828275076395
 30
0.0
 50
90.0
  0
INSERT
  5
2EBC7
330
2C287
100
AcDbEntity
  8
1-B_寸法
  6
Continuous
 62
     3
440
 16777216
 48
0.5
370
    -2
100
AcDbBlockReference
  2
_Dot
 10
2513.65127171796
 20
8495.828275076396
 30
0.0
 50
270.0
  0
MTEXT
  5
2EBC8
330
2C287
100
AcDbEntity
  8
1-B_寸法
  6
Continuous
 62
     3
440
 16777216
 48
0.5
370
    18
100
AcDbMText
 10
2511.526271717959
 20
8570.828275076395
 30
0.0
 40
3.0
 41
0.0
 46
0.0
 71
     5
 72
     1
  1
150
  7
明朝
 11
0.0000000000000001
 21
1.0
 31
0.0
 73
     1
 44
1.0
  0
POINT
  5
2EBC9
330
2C287
100
AcDbEntity
  8
Defpoints
  6
Continuous
 62
     0
440
 16777216
 48
0.5
370
    35
100
AcDbPoint
 10
2529.651271717959
 20
8645.828275076395
 30
0.0
  0
POINT
  5
2EBCA
330
2C287
100
AcDbEntity
  8
Defpoints
  6
Continuous
 62
     0
440
 16777216
 48
0.5
370
    35
100
AcDbPoint
 10
2528.651271717959
 20
8495.828275076396
 30
0.0
  0
POINT
  5
2EBCB
330
2C287
100
AcDbEntity
  8
Defpoints
  6
Continuous
 62
     0
440
 16777216
 48
0.5
370
    35
100
AcDbPoint
 10
2513.65127171796
 20
8495.828275076396
 30
0.0
  0
ENDBLK
  5
2C292
330
2C287
100
AcDbEntity
  8
0
 48
0.5
370
    18
100
AcDbBlockEnd
  0
BLOCK
  5
2C29D
330
2C293
100
AcDbEntity
  8
0
 48
0.5
370
    18
100
AcDbBlockBegin
  2
*D15
 70
     1
 10
0.0
 20
0.0
 30
0.0
  3
*D15
  1

  0
LINE
  5
2EBDE
330
2C293
100
AcDbEntity
  8
1-B_寸法
  6
Continuous
 62
     3
440
 16777216
 48
0.5
370
    -2
100
AcDbLine
 10
2525.651271717959
 20
8605.828275076396
 30
0.0
 11
2520.15127171796
 21
8605.828275076396
 31
0.0
  0
LINE
  5
2EBDF
330
2C293
100
AcDbEntity
  8
1-B_寸法
  6
Continuous
 62
     3
440
 16777216
 48
0.5
370
    -2
100
AcDbLine
 10
2525.651271717959
 20
8535.828275076395
 30
0.0
 11
2520.15127171796
 21
8535.828275076395
 31
0.0
  0
LINE
  5
2EBE0
330
2C293
100
AcDbEntity
  8
1-B_寸法
  6
Continuous
 62
     3
440
 16777216
 48
0.5
370
    -2
100
AcDbLine
 10
2521.15127171796
 20
8604.828275076396
 30
0.0
 11
2521.15127171796
 21
8536.828275076395
 31
0.0
  0
INSERT
  5
2EBE1
330
2C293
100
AcDbEntity
  8
1-B_寸法
  6
Continuous
 62
     3
440
 16777216
 48
0.5
370
    -2
100
AcDbBlockReference
  2
_Dot
 10
2521.15127171796
 20
8605.828275076396
 30
0.0
 50
90.0
  0
INSERT
  5
2EBE2
330
2C293
100
AcDbEntity
  8
1-B_寸法
  6
Continuous
 62
     3
440
 16777216
 48
0.5
370
    -2
100
AcDbBlockReference
  2
_Dot
 10
2521.15127171796
 20
8535.828275076395
 30
0.0
 50
270.0
  0
MTEXT
  5
2EBE3
330
2C293
100
AcDbEntity
  8
1-B_寸法
  6
Continuous
 62
     3
440
 16777216
 48
0.5
370
    18
100
AcDbMText
 10
2519.026271717959
 20
8570.828275076395
 30
0.0
 40
3.0
 41
0.0
 46
0.0
 71
     5
 72
     1
  1
70
  7
明朝
 11
0.0000000000000001
 21
1.0
 31
0.0
 73
     1
 44
1.0
  0
POINT
  5
2EBE4
330
2C293
100
AcDbEntity
  8
Defpoints
  6
Continuous
 62
     0
440
 16777216
 48
0.5
370
    35
100
AcDbPoint
 10
2528.651271717959
 20
8605.828275076396
 30
0.0
  0
POINT
  5
2EBE5
330
2C293
100
AcDbEntity
  8
Defpoints
  6
Continuous
 62
     0
440
 16777216
 48
0.5
370
    35
100
AcDbPoint
 10
2528.651271717959
 20
8535.828275076395
 30
0.0
  0
POINT
  5
2EBE6
330
2C293
100
AcDbEntity
  8
Defpoints
  6
Continuous
 62
     0
440
 16777216
 48
0.5
370
    35
100
AcDbPoint
 10
2521.15127171796
 20
8535.828275076395
 30
0.0
  0
ENDBLK
  5
2C29E
330
2C293
100
AcDbEntity
  8
0
 48
0.5
370
    18
100
AcDbBlockEnd
  0
BLOCK
  5
2C2AB
330
2C29F
100
AcDbEntity
  8
0
 48
0.5
370
    18
100
AcDbBlockBegin
  2
*D16
 70
     1
 10
0.0
 20
0.0
 30
0.0
  3
*D16
  1

  0
LINE
  5
2FC30
330
2C29F
100
AcDbEntity
  8
1-B_寸法
  6
Continuous
 62
     3
440
 16777216
 48
0.5
370
    -2
100
AcDbLine
 10
2571.651271717959
 20
8597.828275076395
 30
0.0
 11
2619.651271717961
 21
8597.828275076395
 31
0.0
  0
LINE
  5
2FC31
330
2C29F
100
AcDbEntity
  8
1-B_寸法
  6
Continuous
 62
     3
440
 16777216
 48
0.5
370
    -2
100
AcDbLine
 10
2571.651271717959
 20
8595.828275076396
 30
0.0
 11
2619.651271717961
 21
8595.828275076396
 31
0.0
  0
LINE
  5
2FC32
330
2C29F
100
AcDbEntity
  8
1-B_寸法
  6
Continuous
 62
     3
440
 16777216
 48
0.5
370
    -2
100
AcDbLine
 10
2618.651271717962
 20
8598.828275076396
 30
0.0
 11
2618.651271717962
 21
8599.828275076395
 31
0.0
  0
LINE
  5
2FC33
330
2C29F
100
AcDbEntity
  8
1-B_寸法
  6
Continuous
 62
     3
440
 16777216
 48
0.5
370
    -2
100
AcDbLine
 10
2618.651271717962
 20
8594.828275076395
 30
0.0
 11
2618.651271717962
 21
8591.02497558401
 31
0.0
  0
LINE
  5
2FC34
330
2C29F
100
AcDbEntity
  8
1-B_寸法
  6
Continuous
 62
     3
440
 16777216
 48
0.5
370
    -2
100
AcDbLine
 10
2618.651271717962
 20
8597.828275076395
 30
0.0
 11
2618.651271717962
 21
8595.828275076396
 31
0.0
  0
INSERT
  5
2FC35
330
2C29F
100
AcDbEntity
  8
1-B_寸法
  6
Continuous
 62
     3
440
 16777216
 48
0.5
370
    -2
100
AcDbBlockReference
  2
_Dot
 10
2618.651271717962
 20
8597.828275076395
 30
0.0
 50
270.0
  0
INSERT
  5
2FC36
330
2C29F
100
AcDbEntity
  8
1-B_寸法
  6
Continuous
 62
     3
440
 16777216
 48
0.5
370
    -2
100
AcDbBlockReference
  2
_Dot
 10
2618.651271717962
 20
8595.828275076396
 30
0.0
 50
90.0
  0
MTEXT
  5
2FC37
330
2C29F
100
AcDbEntity
  8
1-B_寸法
  6
Continuous
 62
     3
440
 16777216
 48
0.5
370
    18
100
AcDbMText
 10
2616.52627171796
 20
8592.426625330203
 30
0.0
 40
3.0
 41
0.0
 46
0.0
 71
     5
 72
     1
  1
2
  7
明朝
 11
0.0000000000000001
 21
1.0
 31
0.0
 73
     1
 44
1.0
  0
POINT
  5
2FC38
330
2C29F
100
AcDbEntity
  8
Defpoints
  6
Continuous
 62
     0
440
 16777216
 48
0.5
370
    35
100
AcDbPoint
 10
2568.651271717959
 20
8597.828275076395
 30
0.0
  0
POINT
  5
2FC39
330
2C29F
100
AcDbEntity
  8
Defpoints
  6
Continuous
 62
     0
440
 16777216
 48
0.5
370
    35
100
AcDbPoint
 10
2568.651271717959
 20
8595.828275076396
 30
0.0
  0
POINT
  5
2FC3A
330
2C29F
100
AcDbEntity
  8
Defpoints
  6
Continuous
 62
     0
440
 16777216
 48
0.5
370
    35
100
AcDbPoint
 10
2618.651271717962
 20
8595.828275076396
 30
0.0
  0
ENDBLK
  5
2C2AC
330
2C29F
100
AcDbEntity
  8
0
 48
0.5
370
    18
100
AcDbBlockEnd
  0
BLOCK
  5
2C2B7
330
2C2AD
100
AcDbEntity
  8
0
 48
0.5
370
    18
100
AcDbBlockBegin
  2
*D17
 70
     1
 10
0.0
 20
0.0
 30
0.0
  3
*D17
  1

  0
LINE
  5
2EC67
330
2C2AD
100
AcDbEntity
  8
1-B_寸法
  6
Continuous
 62
     3
440
 16777216
 48
0.5
370
    -2
100
AcDbLine
 10
2571.651271717959
 20
8595.828275076396
 30
0.0
 11
2619.65127171796
 21
8595.828275076396
 31
0.0
  0
LINE
  5
2EC68
330
2C2AD
100
AcDbEntity
  8
1-B_寸法
  6
Continuous
 62
     3
440
 16777216
 48
0.5
370
    -2
100
AcDbLine
 10
2571.651271717959
 20
8495.828275076396
 30
0.0
 11
2619.65127171796
 21
8495.828275076396
 31
0.0
  0
LINE
  5
2EC69
330
2C2AD
100
AcDbEntity
  8
1-B_寸法
  6
Continuous
 62
     3
440
 16777216
 48
0.5
370
    -2
100
AcDbLine
 10
2618.65127171796
 20
8594.828275076395
 30
0.0
 11
2618.65127171796
 21
8496.828275076396
 31
0.0
  0
INSERT
  5
2EC6A
330
2C2AD
100
AcDbEntity
  8
1-B_寸法
  6
Continuous
 62
     3
440
 16777216
 48
0.5
370
    -2
100
AcDbBlockReference
  2
_Dot
 10
2618.65127171796
 20
8595.828275076396
 30
0.0
 50
90.0
  0
INSERT
  5
2EC6B
330
2C2AD
100
AcDbEntity
  8
1-B_寸法
  6
Continuous
 62
     3
440
 16777216
 48
0.5
370
    -2
100
AcDbBlockReference
  2
_Dot
 10
2618.65127171796
 20
8495.828275076396
 30
0.0
 50
270.0
  0
MTEXT
  5
2EC6C
330
2C2AD
100
AcDbEntity
  8
1-B_寸法
  6
Continuous
 62
     3
440
 16777216
 48
0.5
370
    18
100
AcDbMText
 10
2616.526271717959
 20
8545.828275076395
 30
0.0
 40
3.0
 41
0.0
 46
0.0
 71
     5
 72
     1
  1
100
  7
明朝
 11
0.0000000000000001
 21
1.0
 31
0.0
 73
     1
 44
1.0
  0
POINT
  5
2EC6D
330
2C2AD
100
AcDbEntity
  8
Defpoints
  6
Continuous
 62
     0
440
 16777216
 48
0.5
370
    35
100
AcDbPoint
 10
2568.651271717959
 20
8595.828275076396
 30
0.0
  0
POINT
  5
2EC6E
330
2C2AD
100
AcDbEntity
  8
Defpoints
  6
Continuous
 62
     0
440
 16777216
 48
0.5
370
    35
100
AcDbPoint
 10
2568.651271717959
 20
8495.828275076396
 30
0.0
  0
POINT
  5
2EC6F
330
2C2AD
100
AcDbEntity
  8
Defpoints
  6
Continuous
 62
     0
440
 16777216
 48
0.5
370
    35
100
AcDbPoint
 10
2618.65127171796
 20
8495.828275076396
 30
0.0
  0
ENDBLK
  5
2C2B8
330
2C2AD
100
AcDbEntity
  8
0
 48
0.5
370
    18
100
AcDbBlockEnd
  0
BLOCK
  5
2C2C3
330
2C2B9
100
AcDbEntity
  8
0
 48
0.5
370
    18
100
AcDbBlockBegin
  2
*D18
 70
     1
 10
0.0
 20
0.0
 30
0.0
  3
*D18
  1

  0
LINE
  5
2EC2F
330
2C2B9
100
AcDbEntity
  8
1-B_寸法
  6
Continuous
 62
     3
440
 16777216
 48
0.5
370
    -2
100
AcDbLine
 10
2718.65127171796
 20
8685.828275076396
 30
0.0
 11
2724.151271717961
 21
8685.828275076396
 31
0.0
  0
LINE
  5
2EC30
330
2C2B9
100
AcDbEntity
  8
1-B_寸法
  6
Continuous
 62
     3
440
 16777216
 48
0.5
370
    -2
100
AcDbLine
 10
2718.65127171796
 20
8615.828275076395
 30
0.0
 11
2724.151271717961
 21
8615.828275076395
 31
0.0
  0
LINE
  5
2EC31
330
2C2B9
100
AcDbEntity
  8
1-B_寸法
  6
Continuous
 62
     3
440
 16777216
 48
0.5
370
    -2
100
AcDbLine
 10
2723.151271717961
 20
8684.828275076396
 30
0.0
 11
2723.151271717961
 21
8616.828275076397
 31
0.0
  0
INSERT
  5
2EC32
330
2C2B9
100
AcDbEntity
  8
1-B_寸法
  6
Continuous
 62
     3
440
 16777216
 48
0.5
370
    -2
100
AcDbBlockReference
  2
_Dot
 10
2723.151271717961
 20
8685.828275076396
 30
0.0
 50
90.0
  0
INSERT
  5
2EC33
330
2C2B9
100
AcDbEntity
  8
1-B_寸法
  6
Continuous
 62
     3
440
 16777216
 48
0.5
370
    -2
100
AcDbBlockReference
  2
_Dot
 10
2723.151271717961
 20
8615.828275076395
 30
0.0
 50
270.0
  0
MTEXT
  5
2EC34
330
2C2B9
100
AcDbEntity
  8
1-B_寸法
  6
Continuous
 62
     3
440
 16777216
 48
0.5
370
    18
100
AcDbMText
 10
2721.02627171796
 20
8650.828275076396
 30
0.0
 40
3.0
 41
0.0
 46
0.0
 71
     5
 72
     1
  1
70
  7
明朝
 11
0.0000000000000001
 21
1.0
 31
0.0
 73
     1
 44
1.0
  0
POINT
  5
2EC35
330
2C2B9
100
AcDbEntity
  8
Defpoints
  6
Continuous
 62
     0
440
 16777216
 48
0.5
370
    35
100
AcDbPoint
 10
2715.651271717959
 20
8685.828275076396
 30
0.0
  0
POINT
  5
2EC36
330
2C2B9
100
AcDbEntity
  8
Defpoints
  6
Continuous
 62
     0
440
 16777216
 48
0.5
370
    35
100
AcDbPoint
 10
2715.651271717959
 20
8615.828275076395
 30
0.0
  0
POINT
  5
2EC37
330
2C2B9
100
AcDbEntity
  8
Defpoints
  6
Continuous
 62
     0
440
 16777216
 48
0.5
370
    35
100
AcDbPoint
 10
2723.151271717961
 20
8615.828275076395
 30
0.0
  0
ENDBLK
  5
2C2C4
330
2C2B9
100
AcDbEntity
  8
0
 48
0.5
370
    18
100
AcDbBlockEnd
  0
BLOCK
  5
2C2CF
330
2C2C5
100
AcDbEntity
  8
0
 48
0.5
370
    18
100
AcDbBlockBegin
  2
*D19
 70
     1
 10
0.0
 20
0.0
 30
0.0
  3
*D19
  1

  0
LINE
  5
2EC38
330
2C2C5
100
AcDbEntity
  8
1-B_寸法
  6
Continuous
 62
     3
440
 16777216
 48
0.5
370
    -2
100
AcDbLine
 10
2718.65127171796
 20
8703.828275076395
 30
0.0
 11
2731.651271717962
 21
8703.828275076395
 31
0.0
  0
LINE
  5
2EC39
330
2C2C5
100
AcDbEntity
  8
1-B_寸法
  6
Continuous
 62
     3
440
 16777216
 48
0.5
370
    -2
100
AcDbLine
 10
2718.65127171796
 20
8597.828275076395
 30
0.0
 11
2731.651271717962
 21
8597.828275076395
 31
0.0
  0
LINE
  5
2EC3A
330
2C2C5
100
AcDbEntity
  8
1-B_寸法
  6
Continuous
 62
     3
440
 16777216
 48
0.5
370
    -2
100
AcDbLine
 10
2730.651271717962
 20
8702.828275076397
 30
0.0
 11
2730.651271717962
 21
8598.828275076396
 31
0.0
  0
INSERT
  5
2EC3B
330
2C2C5
100
AcDbEntity
  8
1-B_寸法
  6
Continuous
 62
     3
440
 16777216
 48
0.5
370
    -2
100
AcDbBlockReference
  2
_Dot
 10
2730.651271717962
 20
8703.828275076395
 30
0.0
 50
90.0
  0
INSERT
  5
2EC3C
330
2C2C5
100
AcDbEntity
  8
1-B_寸法
  6
Continuous
 62
     3
440
 16777216
 48
0.5
370
    -2
100
AcDbBlockReference
  2
_Dot
 10
2730.651271717962
 20
8597.828275076395
 30
0.0
 50
270.0
  0
MTEXT
  5
2EC3D
330
2C2C5
100
AcDbEntity
  8
1-B_寸法
  6
Continuous
 62
     3
440
 16777216
 48
0.5
370
    18
100
AcDbMText
 10
2728.526271717961
 20
8650.828275076396
 30
0.0
 40
3.0
 41
0.0
 46
0.0
 71
     5
 72
     1
  1
106
  7
明朝
 11
0.0000000000000001
 21
1.0
 31
0.0
 73
     1
 44
1.0
  0
POINT
  5
2EC3E
330
2C2C5
100
AcDbEntity
  8
Defpoints
  6
Continuous
 62
     0
440
 16777216
 48
0.5
370
    35
100
AcDbPoint
 10
2715.651271717959
 20
8703.828275076395
 30
0.0
  0
POINT
  5
2EC3F
330
2C2C5
100
AcDbEntity
  8
Defpoints
  6
Continuous
 62
     0
440
 16777216
 48
0.5
370
    35
100
AcDbPoint
 10
2715.651271717959
 20
8597.828275076395
 30
0.0
  0
POINT
  5
2EC40
330
2C2C5
100
AcDbEntity
  8
Defpoints
  6
Continuous
 62
     0
440
 16777216
 48
0.5
370
    35
100
AcDbPoint
 10
2730.651271717962
 20
8597.828275076395
 30
0.0
  0
ENDBLK
  5
2C2D0
330
2C2C5
100
AcDbEntity
  8
0
 48
0.5
370
    18
100
AcDbBlockEnd
  0
BLOCK
  5
2C2DB
330
2C2D1
100
AcDbEntity
  8
0
 48
0.5
370
    18
100
AcDbBlockBegin
  2
*D20
 70
     1
 10
0.0
 20
0.0
 30
0.0
  3
*D20
  1

  0
LINE
  5
2EC41
330
2C2D1
100
AcDbEntity
  8
1-B_寸法
  6
Continuous
 62
     3
440
 16777216
 48
0.5
370
    -2
100
AcDbLine
 10
2548.651271717959
 20
8706.828275076395
 30
0.0
 11
2548.651271717959
 21
8712.328275076398
 31
0.0
  0
LINE
  5
2EC42
330
2C2D1
100
AcDbEntity
  8
1-B_寸法
  6
Continuous
 62
     3
440
 16777216
 48
0.5
370
    -2
100
AcDbLine
 10
2618.65127171796
 20
8706.828275076397
 30
0.0
 11
2618.65127171796
 21
8712.328275076398
 31
0.0
  0
LINE
  5
2EC43
330
2C2D1
100
AcDbEntity
  8
1-B_寸法
  6
Continuous
 62
     3
440
 16777216
 48
0.5
370
    -2
100
AcDbLine
 10
2549.651271717959
 20
8711.328275076397
 30
0.0
 11
2617.65127171796
 21
8711.328275076397
 31
0.0
  0
INSERT
  5
2EC44
330
2C2D1
100
AcDbEntity
  8
1-B_寸法
  6
Continuous
 62
     3
440
 16777216
 48
0.5
370
    -2
100
AcDbBlockReference
  2
_Dot
 10
2548.651271717959
 20
8711.328275076397
 30
0.0
 50
180.0
  0
INSERT
  5
2EC45
330
2C2D1
100
AcDbEntity
  8
1-B_寸法
  6
Continuous
 62
     3
440
 16777216
 48
0.5
370
    -2
100
AcDbBlockReference
  2
_Dot
 10
2618.65127171796
 20
8711.328275076397
 30
0.0
  0
MTEXT
  5
2EC46
330
2C2D1
100
AcDbEntity
  8
1-B_寸法
  6
Continuous
 62
     3
440
 16777216
 48
0.5
370
    18
100
AcDbMText
 10
2583.651271717959
 20
8713.453275076398
 30
0.0
 40
3.0
 41
0.0
 46
0.0
 71
     5
 72
     1
  1
70
  7
明朝
 73
     1
 44
1.0
  0
POINT
  5
2EC47
330
2C2D1
100
AcDbEntity
  8
Defpoints
  6
Continuous
 62
     0
440
 16777216
 48
0.5
370
    35
100
AcDbPoint
 10
2548.651271717959
 20
8703.828275076395
 30
0.0
  0
POINT
  5
2EC48
330
2C2D1
100
AcDbEntity
  8
Defpoints
  6
Continuous
 62
     0
440
 16777216
 48
0.5
370
    35
100
AcDbPoint
 10
2618.65127171796
 20
8703.828275076396
 30
0.0
  0
POINT
  5
2EC49
330
2C2D1
100
AcDbEntity
  8
Defpoints
  6
Continuous
 62
     0
440
 16777216
 48
0.5
370
    35
100
AcDbPoint
 10
2618.65127171796
 20
8711.328275076397
 30
0.0
  0
ENDBLK
  5
2C2DC
330
2C2D1
100
AcDbEntity
  8
0
 48
0.5
370
    18
100
AcDbBlockEnd
  0
BLOCK
  5
2C2E7
330
2C2DD
100
AcDbEntity
  8
0
 48
0.5
370
    18
100
AcDbBlockBegin
  2
*D21
 70
     1
 10
0.0
 20
0.0
 30
0.0
  3
*D21
  1

  0
LINE
  5
2ECD7
330
2C2DD
100
AcDbEntity
  8
1-B_寸法
  6
Continuous
 62
     3
440
 16777216
 48
0.5
370
    -2
100
AcDbLine
 10
2715.651271717959
 20
8706.828275076395
 30
0.0
 11
2715.651271717959
 21
8719.828275076395
 31
0.0
  0
LINE
  5
2ECD8
330
2C2DD
100
AcDbEntity
  8
1-B_寸法
  6
Continuous
 62
     3
440
 16777216
 48
0.5
370
    -2
100
AcDbLine
 10
2548.651271717959
 20
8709.828275076395
 30
0.0
 11
2548.651271717959
 21
8719.828275076395
 31
0.0
  0
LINE
  5
2ECD9
330
2C2DD
100
AcDbEntity
  8
1-B_寸法
  6
Continuous
 62
     3
440
 16777216
 48
0.5
370
    -2
100
AcDbLine
 10
2714.65127171796
 20
8718.828275076395
 30
0.0
 11
2549.651271717959
 21
8718.828275076395
 31
0.0
  0
INSERT
  5
2ECDA
330
2C2DD
100
AcDbEntity
  8
1-B_寸法
  6
Continuous
 62
     3
440
 16777216
 48
0.5
370
    -2
100
AcDbBlockReference
  2
_Dot
 10
2715.651271717959
 20
8718.828275076395
 30
0.0
  0
INSERT
  5
2ECDB
330
2C2DD
100
AcDbEntity
  8
1-B_寸法
  6
Continuous
 62
     3
440
 16777216
 48
0.5
370
    -2
100
AcDbBlockReference
  2
_Dot
 10
2548.651271717959
 20
8718.828275076395
 30
0.0
 50
180.0
  0
MTEXT
  5
2ECDC
330
2C2DD
100
AcDbEntity
  8
1-B_寸法
  6
Continuous
 62
     3
440
 16777216
 48
0.5
370
    18
100
AcDbMText
 10
2632.151271717959
 20
8720.953275076395
 30
0.0
 40
3.0
 41
0.0
 46
0.0
 71
     5
 72
     1
  1
167
  7
明朝
 73
     1
 44
1.0
  0
POINT
  5
2ECDD
330
2C2DD
100
AcDbEntity
  8
Defpoints
  6
Continuous
 62
     0
440
 16777216
 48
0.5
370
    35
100
AcDbPoint
 10
2715.651271717959
 20
8703.828275076395
 30
0.0
  0
POINT
  5
2ECDE
330
2C2DD
100
AcDbEntity
  8
Defpoints
  6
Continuous
 62
     0
440
 16777216
 48
0.5
370
    35
100
AcDbPoint
 10
2548.651271717959
 20
8706.828275076395
 30
0.0
  0
POINT
  5
2ECDF
330
2C2DD
100
AcDbEntity
  8
Defpoints
  6
Continuous
 62
     0
440
 16777216
 48
0.5
370
    35
100
AcDbPoint
 10
2548.651271717959
 20
8718.828275076395
 30
0.0
  0
ENDBLK
  5
2C2E8
330
2C2DD
100
AcDbEntity
  8
0
 48
0.5
370
    18
100
AcDbBlockEnd
  0
BLOCK
  5
2C2F3
330
2C2E9
100
AcDbEntity
  8
0
 48
0.5
370
    18
100
AcDbBlockBegin
  2
*D22
 70
     1
 10
0.0
 20
0.0
 30
0.0
  3
*D22
  1

  0
LINE
  5
2EC4A
330
2C2E9
100
AcDbEntity
  8
1-B_寸法
  6
Continuous
 62
     3
440
 16777216
 48
0.5
370
    -2
100
AcDbLine
 10
2618.65127171796
 20
8706.828275076397
 30
0.0
 11
2618.65127171796
 21
8712.328275076398
 31
0.0
  0
LINE
  5
2EC4B
330
2C2E9
100
AcDbEntity
  8
1-B_寸法
  6
Continuous
 62
     3
440
 16777216
 48
0.5
370
    -2
100
AcDbLine
 10
2656.15127171796
 20
8706.828275076395
 30
0.0
 11
2656.15127171796
 21
8712.328275076398
 31
0.0
  0
LINE
  5
2EC4C
330
2C2E9
100
AcDbEntity
  8
1-B_寸法
  6
Continuous
 62
     3
440
 16777216
 48
0.5
370
    -2
100
AcDbLine
 10
2619.651271717959
 20
8711.328275076397
 30
0.0
 11
2655.15127171796
 21
8711.328275076397
 31
0.0
  0
INSERT
  5
2EC4D
330
2C2E9
100
AcDbEntity
  8
1-B_寸法
  6
Continuous
 62
     3
440
 16777216
 48
0.5
370
    -2
100
AcDbBlockReference
  2
_Dot
 10
2618.65127171796
 20
8711.328275076397
 30
0.0
 50
180.0
  0
INSERT
  5
2EC4E
330
2C2E9
100
AcDbEntity
  8
1-B_寸法
  6
Continuous
 62
     3
440
 16777216
 48
0.5
370
    -2
100
AcDbBlockReference
  2
_Dot
 10
2656.15127171796
 20
8711.328275076397
 30
0.0
  0
MTEXT
  5
2EC4F
330
2C2E9
100
AcDbEntity
  8
1-B_寸法
  6
Continuous
 62
     3
440
 16777216
 48
0.5
370
    18
100
AcDbMText
 10
2637.40127171796
 20
8713.453275076398
 30
0.0
 40
3.0
 41
0.0
 46
0.0
 71
     5
 72
     1
  1
37.5
  7
明朝
 73
     1
 44
1.0
  0
POINT
  5
2EC50
330
2C2E9
100
AcDbEntity
  8
Defpoints
  6
Continuous
 62
     0
440
 16777216
 48
0.5
370
    35
100
AcDbPoint
 10
2618.65127171796
 20
8703.828275076396
 30
0.0
  0
POINT
  5
2EC51
330
2C2E9
100
AcDbEntity
  8
Defpoints
  6
Continuous
 62
     0
440
 16777216
 48
0.5
370
    35
100
AcDbPoint
 10
2656.15127171796
 20
8703.828275076395
 30
0.0
  0
POINT
  5
2EC52
330
2C2E9
100
AcDbEntity
  8
Defpoints
  6
Continuous
 62
     0
440
 16777216
 48
0.5
370
    35
100
AcDbPoint
 10
2656.15127171796
 20
8711.328275076397
 30
0.0
  0
ENDBLK
  5
2C2F4
330
2C2E9
100
AcDbEntity
  8
0
 48
0.5
370
    18
100
AcDbBlockEnd
  0
BLOCK
  5
2C2FF
330
2C2F5
100
AcDbEntity
  8
0
 48
0.5
370
    18
100
AcDbBlockBegin
  2
*D23
 70
     1
 10
0.0
 20
0.0
 30
0.0
  3
*D23
  1

  0
LINE
  5
2EC53
330
2C2F5
100
AcDbEntity
  8
1-B_寸法
  6
Continuous
 62
     3
440
 16777216
 48
0.5
370
    -2
100
AcDbLine
 10
2656.15127171796
 20
8706.828275076395
 30
0.0
 11
2656.15127171796
 21
8712.328275076396
 31
0.0
  0
LINE
  5
2EC54
330
2C2F5
100
AcDbEntity
  8
1-B_寸法
  6
Continuous
 62
     3
440
 16777216
 48
0.5
370
    -2
100
AcDbLine
 10
2693.65127171796
 20
8706.828275076395
 30
0.0
 11
2693.65127171796
 21
8712.328275076396
 31
0.0
  0
LINE
  5
2EC55
330
2C2F5
100
AcDbEntity
  8
1-B_寸法
  6
Continuous
 62
     3
440
 16777216
 48
0.5
370
    -2
100
AcDbLine
 10
2657.151271717959
 20
8711.328275076395
 30
0.0
 11
2692.65127171796
 21
8711.328275076395
 31
0.0
  0
INSERT
  5
2EC56
330
2C2F5
100
AcDbEntity
  8
1-B_寸法
  6
Continuous
 62
     3
440
 16777216
 48
0.5
370
    -2
100
AcDbBlockReference
  2
_Dot
 10
2656.15127171796
 20
8711.328275076395
 30
0.0
 50
180.0
  0
INSERT
  5
2EC57
330
2C2F5
100
AcDbEntity
  8
1-B_寸法
  6
Continuous
 62
     3
440
 16777216
 48
0.5
370
    -2
100
AcDbBlockReference
  2
_Dot
 10
2693.65127171796
 20
8711.328275076395
 30
0.0
  0
MTEXT
  5
2EC58
330
2C2F5
100
AcDbEntity
  8
1-B_寸法
  6
Continuous
 62
     3
440
 16777216
 48
0.5
370
    18
100
AcDbMText
 10
2674.90127171796
 20
8713.453275076394
 30
0.0
 40
3.0
 41
0.0
 46
0.0
 71
     5
 72
     1
  1
37.5
  7
明朝
 73
     1
 44
1.0
  0
POINT
  5
2EC59
330
2C2F5
100
AcDbEntity
  8
Defpoints
  6
Continuous
 62
     0
440
 16777216
 48
0.5
370
    35
100
AcDbPoint
 10
2656.15127171796
 20
8703.828275076395
 30
0.0
  0
POINT
  5
2EC5A
330
2C2F5
100
AcDbEntity
  8
Defpoints
  6
Continuous
 62
     0
440
 16777216
 48
0.5
370
    35
100
AcDbPoint
 10
2693.65127171796
 20
8703.828275076395
 30
0.0
  0
POINT
  5
2EC5B
330
2C2F5
100
AcDbEntity
  8
Defpoints
  6
Continuous
 62
     0
440
 16777216
 48
0.5
370
    35
100
AcDbPoint
 10
2693.65127171796
 20
8711.328275076395
 30
0.0
  0
ENDBLK
  5
2C300
330
2C2F5
100
AcDbEntity
  8
0
 48
0.5
370
    18
100
AcDbBlockEnd
  0
BLOCK
  5
2C843
330
2C839
100
AcDbEntity
  8
0
 62
     7
 48
0.5
370
    35
100
AcDbBlockBegin
  2
*D24
 70
     1
 10
0.0
 20
0.0
 30
0.0
  3
*D24
  1

  0
LINE
  5
2F911
330
2C839
100
AcDbEntity
  8
1-B_寸法
  6
Continuous
 62
     3
440
 16777216
 48
0.5
370
    -2
100
AcDbLine
 10
2662.37948333642
 20
8527.907191063899
 30
0.0
 11
2649.379483336421
 21
8527.907191063899
 31
0.0
  0
LINE
  5
2F912
330
2C839
100
AcDbEntity
  8
1-B_寸法
  6
Continuous
 62
     3
440
 16777216
 48
0.5
370
    -2
100
AcDbLine
 10
2662.37948333642
 20
8495.907191063897
 30
0.0
 11
2649.379483336421
 21
8495.907191063897
 31
0.0
  0
LINE
  5
2F913
330
2C839
100
AcDbEntity
  8
1-B_寸法
  6
Continuous
 62
     3
440
 16777216
 48
0.5
370
    -2
100
AcDbLine
 10
2650.379483336422
 20
8526.9071910639
 30
0.0
 11
2650.379483336422
 21
8496.907191063897
 31
0.0
  0
INSERT
  5
2F914
330
2C839
100
AcDbEntity
  8
1-B_寸法
  6
Continuous
 62
     3
440
 16777216
 48
0.5
370
    -2
100
AcDbBlockReference
  2
_Dot
 10
2650.379483336422
 20
8527.907191063899
 30
0.0
 50
90.0
  0
INSERT
  5
2F915
330
2C839
100
AcDbEntity
  8
1-B_寸法
  6
Continuous
 62
     3
440
 16777216
 48
0.5
370
    -2
100
AcDbBlockReference
  2
_Dot
 10
2650.379483336422
 20
8495.907191063897
 30
0.0
 50
270.0
  0
MTEXT
  5
2F916
330
2C839
100
AcDbEntity
  8
1-B_寸法
  6
Continuous
 62
     3
440
 16777216
 48
0.5
370
    18
100
AcDbMText
 10
2648.25448333642
 20
8515.540609689544
 30
0.0
 40
3.0
 41
0.0
 46
0.0
 71
     5
 72
     1
  1
32
  7
明朝
 11
0.0000000000000001
 21
1.0
 31
0.0
 73
     1
 44
1.0
  0
POINT
  5
2F917
330
2C839
100
AcDbEntity
  8
Defpoints
  6
Continuous
 62
     0
440
 16777216
 48
0.5
370
    35
100
AcDbPoint
 10
2665.37948333642
 20
8527.907191063899
 30
0.0
  0
POINT
  5
2F918
330
2C839
100
AcDbEntity
  8
Defpoints
  6
Continuous
 62
     0
440
 16777216
 48
0.5
370
    35
100
AcDbPoint
 10
2665.37948333642
 20
8495.907191063897
 30
0.0
  0
POINT
  5
2F919
330
2C839
100
AcDbEntity
  8
Defpoints
  6
Continuous
 62
     0
440
 16777216
 48
0.5
370
    35
100
AcDbPoint
 10
2650.379483336422
 20
8495.907191063897
 30
0.0
  0
ENDBLK
  5
2C844
330
2C839
100
AcDbEntity
  8
0
 62
     7
 48
0.5
370
    35
100
AcDbBlockEnd
  0
BLOCK
  5
2ED2B
330
2ED21
100
AcDbEntity
  8
0
 62
     7
 48
0.5
370
    35
100
AcDbBlockBegin
  2
*D25
 70
     1
 10
0.0
 20
0.0
 30
0.0
  3
*D25
  1

  0
LINE
  5
2FA79
330
2ED21
100
AcDbEntity
  8
1-B_寸法
  6
Continuous
 62
     3
440
 16777216
 48
0.5
370
    -2
100
AcDbLine
 10
2833.918455594372
 20
8638.081648276301
 30
0.0
 11
2833.918455594372
 21
8651.081648276299
 31
0.0
  0
LINE
  5
2FA7A
330
2ED21
100
AcDbEntity
  8
1-B_寸法
  6
Continuous
 62
     3
440
 16777216
 48
0.5
370
    -2
100
AcDbLine
 10
2758.918455594372
 20
8638.081648276298
 30
0.0
 11
2758.918455594372
 21
8651.081648276299
 31
0.0
  0
LINE
  5
2FA7B
330
2ED21
100
AcDbEntity
  8
1-B_寸法
  6
Continuous
 62
     3
440
 16777216
 48
0.5
370
    -2
100
AcDbLine
 10
2832.918455594372
 20
8650.081648276298
 30
0.0
 11
2759.918455594372
 21
8650.081648276298
 31
0.0
  0
INSERT
  5
2FA7C
330
2ED21
100
AcDbEntity
  8
1-B_寸法
  6
Continuous
 62
     3
440
 16777216
 48
0.5
370
    -2
100
AcDbBlockReference
  2
_Dot
 10
2833.918455594372
 20
8650.081648276298
 30
0.0
  0
INSERT
  5
2FA7D
330
2ED21
100
AcDbEntity
  8
1-B_寸法
  6
Continuous
 62
     3
440
 16777216
 48
0.5
370
    -2
100
AcDbBlockReference
  2
_Dot
 10
2758.918455594372
 20
8650.081648276298
 30
0.0
 50
180.0
  0
MTEXT
  5
2FA7E
330
2ED21
100
AcDbEntity
  8
1-B_寸法
  6
Continuous
 62
     3
440
 16777216
 48
0.5
370
    18
100
AcDbMText
 10
2796.418455594372
 20
8652.206648276298
 30
0.0
 40
3.0
 41
0.0
 46
0.0
 71
     5
 72
     1
  1
150
  7
明朝
 73
     1
 44
1.0
  0
POINT
  5
2FA7F
330
2ED21
100
AcDbEntity
  8
Defpoints
  6
Continuous
 62
     0
440
 16777216
 48
0.5
370
    35
100
AcDbPoint
 10
2833.918455594372
 20
8635.081648276301
 30
0.0
  0
POINT
  5
2FA80
330
2ED21
100
AcDbEntity
  8
Defpoints
  6
Continuous
 62
     0
440
 16777216
 48
0.5
370
    35
100
AcDbPoint
 10
2758.918455594372
 20
8635.081648276297
 30
0.0
  0
POINT
  5
2FA81
330
2ED21
100
AcDbEntity
  8
Defpoints
  6
Continuous
 62
     0
440
 16777216
 48
0.5
370
    35
100
AcDbPoint
 10
2758.918455594372
 20
8650.081648276298
 30
0.0
  0
ENDBLK
  5
2ED2C
330
2ED21
100
AcDbEntity
  8
0
 62
     7
 48
0.5
370
    35
100
AcDbBlockEnd
  0
BLOCK
  5
2ED37
330
2ED2D
100
AcDbEntity
  8
0
 62
     7
 48
0.5
370
    35
100
AcDbBlockBegin
  2
*D26
 70
     1
 10
0.0
 20
0.0
 30
0.0
  3
*D26
  1

  0
LINE
  5
2FA70
330
2ED2D
100
AcDbEntity
  8
1-B_寸法
  6
Continuous
 62
     3
440
 16777216
 48
0.5
370
    -2
100
AcDbLine
 10
2821.418455594372
 20
8638.17128063845
 30
0.0
 11
2821.418455594372
 21
8643.581648276301
 31
0.0
  0
LINE
  5
2FA71
330
2ED2D
100
AcDbEntity
  8
1-B_寸法
  6
Continuous
 62
     3
440
 16777216
 48
0.5
370
    -2
100
AcDbLine
 10
2813.918455594372
 20
8638.145477729928
 30
0.0
 11
2813.918455594372
 21
8643.581648276301
 31
0.0
  0
LINE
  5
2FA72
330
2ED2D
100
AcDbEntity
  8
1-B_寸法
  6
Continuous
 62
     3
440
 16777216
 48
0.5
370
    -2
100
AcDbLine
 10
2820.418455594372
 20
8642.581648276301
 30
0.0
 11
2814.918455594371
 21
8642.581648276301
 31
0.0
  0
INSERT
  5
2FA73
330
2ED2D
100
AcDbEntity
  8
1-B_寸法
  6
Continuous
 62
     3
440
 16777216
 48
0.5
370
    -2
100
AcDbBlockReference
  2
_Dot
 10
2821.418455594372
 20
8642.581648276301
 30
0.0
  0
INSERT
  5
2FA74
330
2ED2D
100
AcDbEntity
  8
1-B_寸法
  6
Continuous
 62
     3
440
 16777216
 48
0.5
370
    -2
100
AcDbBlockReference
  2
_Dot
 10
2813.918455594372
 20
8642.581648276301
 30
0.0
 50
180.0
  0
MTEXT
  5
2FA75
330
2ED2D
100
AcDbEntity
  8
1-B_寸法
  6
Continuous
 62
     3
440
 16777216
 48
0.5
370
    18
100
AcDbMText
 10
2817.668455594372
 20
8644.706648276301
 30
0.0
 40
3.0
 41
0.0
 46
0.0
 71
     5
 72
     1
  1
15
  7
明朝
 73
     1
 44
1.0
  0
POINT
  5
2FA76
330
2ED2D
100
AcDbEntity
  8
Defpoints
  6
Continuous
 62
     0
440
 16777216
 48
0.5
370
    35
100
AcDbPoint
 10
2821.418455594372
 20
8635.17128063845
 30
0.0
  0
POINT
  5
2FA77
330
2ED2D
100
AcDbEntity
  8
Defpoints
  6
Continuous
 62
     0
440
 16777216
 48
0.5
370
    35
100
AcDbPoint
 10
2813.918455594372
 20
8635.145477729928
 30
0.0
  0
POINT
  5
2FA78
330
2ED2D
100
AcDbEntity
  8
Defpoints
  6
Continuous
 62
     0
440
 16777216
 48
0.5
370
    35
100
AcDbPoint
 10
2813.918455594372
 20
8642.581648276301
 30
0.0
  0
ENDBLK
  5
2ED38
330
2ED2D
100
AcDbEntity
  8
0
 62
     7
 48
0.5
370
    35
100
AcDbBlockEnd
  0
BLOCK
  5
2ED43
330
2ED39
100
AcDbEntity
  8
0
 62
     7
 48
0.5
370
    35
100
AcDbBlockBegin
  2
*D27
 70
     1
 10
0.0
 20
0.0
 30
0.0
  3
*D27
  1

  0
LINE
  5
2FA67
330
2ED39
100
AcDbEntity
  8
1-B_寸法
  6
Continuous
 62
     3
440
 16777216
 48
0.5
370
    -2
100
AcDbLine
 10
2813.918455594372
 20
8638.145477729928
 30
0.0
 11
2813.918455594372
 21
8643.581648276299
 31
0.0
  0
LINE
  5
2FA68
330
2ED39
100
AcDbEntity
  8
1-B_寸法
  6
Continuous
 62
     3
440
 16777216
 48
0.5
370
    -2
100
AcDbLine
 10
2778.918455594372
 20
8638.081648276301
 30
0.0
 11
2778.918455594372
 21
8643.581648276299
 31
0.0
  0
LINE
  5
2FA69
330
2ED39
100
AcDbEntity
  8
1-B_寸法
  6
Continuous
 62
     3
440
 16777216
 48
0.5
370
    -2
100
AcDbLine
 10
2812.918455594372
 20
8642.581648276298
 30
0.0
 11
2779.918455594372
 21
8642.581648276298
 31
0.0
  0
INSERT
  5
2FA6A
330
2ED39
100
AcDbEntity
  8
1-B_寸法
  6
Continuous
 62
     3
440
 16777216
 48
0.5
370
    -2
100
AcDbBlockReference
  2
_Dot
 10
2813.918455594372
 20
8642.581648276298
 30
0.0
  0
INSERT
  5
2FA6B
330
2ED39
100
AcDbEntity
  8
1-B_寸法
  6
Continuous
 62
     3
440
 16777216
 48
0.5
370
    -2
100
AcDbBlockReference
  2
_Dot
 10
2778.918455594372
 20
8642.581648276298
 30
0.0
 50
180.0
  0
MTEXT
  5
2FA6C
330
2ED39
100
AcDbEntity
  8
1-B_寸法
  6
Continuous
 62
     3
440
 16777216
 48
0.5
370
    18
100
AcDbMText
 10
2796.418455594372
 20
8644.706648276299
 30
0.0
 40
3.0
 41
0.0
 46
0.0
 71
     5
 72
     1
  1
70
  7
明朝
 73
     1
 44
1.0
  0
POINT
  5
2FA6D
330
2ED39
100
AcDbEntity
  8
Defpoints
  6
Continuous
 62
     0
440
 16777216
 48
0.5
370
    35
100
AcDbPoint
 10
2813.918455594372
 20
8635.145477729928
 30
0.0
  0
POINT
  5
2FA6E
330
2ED39
100
AcDbEntity
  8
Defpoints
  6
Continuous
 62
     0
440
 16777216
 48
0.5
370
    35
100
AcDbPoint
 10
2778.918455594372
 20
8635.081648276301
 30
0.0
  0
POINT
  5
2FA6F
330
2ED39
100
AcDbEntity
  8
Defpoints
  6
Continuous
 62
     0
440
 16777216
 48
0.5
370
    35
100
AcDbPoint
 10
2778.918455594372
 20
8642.581648276298
 30
0.0
  0
ENDBLK
  5
2ED44
330
2ED39
100
AcDbEntity
  8
0
 62
     7
 48
0.5
370
    35
100
AcDbBlockEnd
  0
BLOCK
  5
2ED4F
330
2ED45
100
AcDbEntity
  8
0
 62
     7
 48
0.5
370
    35
100
AcDbBlockBegin
  2
*D28
 70
     1
 10
0.0
 20
0.0
 30
0.0
  3
*D28
  1

  0
LINE
  5
2FA5E
330
2ED45
100
AcDbEntity
  8
1-B_寸法
  6
Continuous
 62
     3
440
 16777216
 48
0.5
370
    -2
100
AcDbLine
 10
2821.418455594372
 20
8638.17128063845
 30
0.0
 11
2821.418455594372
 21
8643.581648276301
 31
0.0
  0
LINE
  5
2FA5F
330
2ED45
100
AcDbEntity
  8
1-B_寸法
  6
Continuous
 62
     3
440
 16777216
 48
0.5
370
    -2
100
AcDbLine
 10
2828.918455594372
 20
8638.071637491657
 30
0.0
 11
2828.918455594372
 21
8643.581648276301
 31
0.0
  0
LINE
  5
2FA60
330
2ED45
100
AcDbEntity
  8
1-B_寸法
  6
Continuous
 62
     3
440
 16777216
 48
0.5
370
    -2
100
AcDbLine
 10
2822.418455594372
 20
8642.581648276301
 30
0.0
 11
2827.918455594371
 21
8642.581648276301
 31
0.0
  0
INSERT
  5
2FA61
330
2ED45
100
AcDbEntity
  8
1-B_寸法
  6
Continuous
 62
     3
440
 16777216
 48
0.5
370
    -2
100
AcDbBlockReference
  2
_Dot
 10
2821.418455594372
 20
8642.581648276301
 30
0.0
 50
180.0
  0
INSERT
  5
2FA62
330
2ED45
100
AcDbEntity
  8
1-B_寸法
  6
Continuous
 62
     3
440
 16777216
 48
0.5
370
    -2
100
AcDbBlockReference
  2
_Dot
 10
2828.918455594372
 20
8642.581648276301
 30
0.0
  0
MTEXT
  5
2FA63
330
2ED45
100
AcDbEntity
  8
1-B_寸法
  6
Continuous
 62
     3
440
 16777216
 48
0.5
370
    18
100
AcDbMText
 10
2825.168455594372
 20
8644.706648276301
 30
0.0
 40
3.0
 41
0.0
 46
0.0
 71
     5
 72
     1
  1
15
  7
明朝
 73
     1
 44
1.0
  0
POINT
  5
2FA64
330
2ED45
100
AcDbEntity
  8
Defpoints
  6
Continuous
 62
     0
440
 16777216
 48
0.5
370
    35
100
AcDbPoint
 10
2821.418455594372
 20
8635.17128063845
 30
0.0
  0
POINT
  5
2FA65
330
2ED45
100
AcDbEntity
  8
Defpoints
  6
Continuous
 62
     0
440
 16777216
 48
0.5
370
    35
100
AcDbPoint
 10
2828.918455594372
 20
8635.071637491657
 30
0.0
  0
POINT
  5
2FA66
330
2ED45
100
AcDbEntity
  8
Defpoints
  6
Continuous
 62
     0
440
 16777216
 48
0.5
370
    35
100
AcDbPoint
 10
2828.918455594372
 20
8642.581648276301
 30
0.0
  0
ENDBLK
  5
2ED50
330
2ED45
100
AcDbEntity
  8
0
 62
     7
 48
0.5
370
    35
100
AcDbBlockEnd
  0
BLOCK
  5
2ED5D
330
2ED51
100
AcDbEntity
  8
0
 62
     7
 48
0.5
370
    35
100
AcDbBlockBegin
  2
*D29
 70
     1
 10
0.0
 20
0.0
 30
0.0
  3
*D29
  1

  0
LINE
  5
2FA55
330
2ED51
100
AcDbEntity
  8
1-B_寸法
  6
Continuous
 62
     3
440
 16777216
 48
0.5
370
    -2
100
AcDbLine
 10
2828.918455594372
 20
8638.071637491657
 30
0.0
 11
2828.918455594372
 21
8643.581648276301
 31
0.0
  0
LINE
  5
2FA56
330
2ED51
100
AcDbEntity
  8
1-B_寸法
  6
Continuous
 62
     3
440
 16777216
 48
0.5
370
    -2
100
AcDbLine
 10
2833.918455594372
 20
8638.081648276301
 30
0.0
 11
2833.918455594372
 21
8643.581648276301
 31
0.0
  0
LINE
  5
2FA57
330
2ED51
100
AcDbEntity
  8
1-B_寸法
  6
Continuous
 62
     3
440
 16777216
 48
0.5
370
    -2
100
AcDbLine
 10
2829.918455594372
 20
8642.581648276301
 30
0.0
 11
2832.918455594372
 21
8642.581648276301
 31
0.0
  0
INSERT
  5
2FA58
330
2ED51
100
AcDbEntity
  8
1-B_寸法
  6
Continuous
 62
     3
440
 16777216
 48
0.5
370
    -2
100
AcDbBlockReference
  2
_Dot
 10
2828.918455594372
 20
8642.581648276301
 30
0.0
 50
180.0
  0
INSERT
  5
2FA59
330
2ED51
100
AcDbEntity
  8
1-B_寸法
  6
Continuous
 62
     3
440
 16777216
 48
0.5
370
    -2
100
AcDbBlockReference
  2
_Dot
 10
2833.918455594372
 20
8642.581648276301
 30
0.0
  0
MTEXT
  5
2FA5A
330
2ED51
100
AcDbEntity
  8
1-B_寸法
  6
Continuous
 62
     3
440
 16777216
 48
0.5
370
    18
100
AcDbMText
 10
2831.418455594372
 20
8644.706648276301
 30
0.0
 40
3.0
 41
0.0
 46
0.0
 71
     5
 72
     1
  1
10
  7
明朝
 73
     1
 44
1.0
  0
POINT
  5
2FA5B
330
2ED51
100
AcDbEntity
  8
Defpoints
  6
Continuous
 62
     0
440
 16777216
 48
0.5
370
    35
100
AcDbPoint
 10
2828.918455594372
 20
8635.071637491657
 30
0.0
  0
POINT
  5
2FA5C
330
2ED51
100
AcDbEntity
  8
Defpoints
  6
Continuous
 62
     0
440
 16777216
 48
0.5
370
    35
100
AcDbPoint
 10
2833.918455594372
 20
8635.081648276301
 30
0.0
  0
POINT
  5
2FA5D
330
2ED51
100
AcDbEntity
  8
Defpoints
  6
Continuous
 62
     0
440
 16777216
 48
0.5
370
    35
100
AcDbPoint
 10
2833.918455594372
 20
8642.581648276301
 30
0.0
  0
ENDBLK
  5
2ED5E
330
2ED51
100
AcDbEntity
  8
0
 62
     7
 48
0.5
370
    35
100
AcDbBlockEnd
  0
BLOCK
  5
2ED69
330
2ED5F
100
AcDbEntity
  8
0
 62
     7
 48
0.5
370
    35
100
AcDbBlockBegin
  2
*D30
 70
     1
 10
0.0
 20
0.0
 30
0.0
  3
*D30
  1

  0
LINE
  5
2FA4C
330
2ED5F
100
AcDbEntity
  8
1-B_寸法
  6
Continuous
 62
     3
440
 16777216
 48
0.5
370
    -2
100
AcDbLine
 10
2755.918455594372
 20
8620.0816482763
 30
0.0
 11
2752.918455594373
 21
8620.0816482763
 31
0.0
  0
LINE
  5
2FA4D
330
2ED5F
100
AcDbEntity
  8
1-B_寸法
  6
Continuous
 62
     3
440
 16777216
 48
0.5
370
    -2
100
AcDbLine
 10
2755.918455594372
 20
8630.0816482763
 30
0.0
 11
2752.918455594373
 21
8630.0816482763
 31
0.0
  0
LINE
  5
2FA4E
330
2ED5F
100
AcDbEntity
  8
1-B_寸法
  6
Continuous
 62
     3
440
 16777216
 48
0.5
370
    -2
100
AcDbLine
 10
2753.918455594373
 20
8621.0816482763
 30
0.0
 11
2753.918455594373
 21
8629.081648276301
 31
0.0
  0
INSERT
  5
2FA4F
330
2ED5F
100
AcDbEntity
  8
1-B_寸法
  6
Continuous
 62
     3
440
 16777216
 48
0.5
370
    -2
100
AcDbBlockReference
  2
_Dot
 10
2753.918455594373
 20
8620.0816482763
 30
0.0
 50
270.0
  0
INSERT
  5
2FA50
330
2ED5F
100
AcDbEntity
  8
1-B_寸法
  6
Continuous
 62
     3
440
 16777216
 48
0.5
370
    -2
100
AcDbBlockReference
  2
_Dot
 10
2753.918455594373
 20
8630.0816482763
 30
0.0
 50
90.0
  0
MTEXT
  5
2FA51
330
2ED5F
100
AcDbEntity
  8
1-B_寸法
  6
Continuous
 62
     3
440
 16777216
 48
0.5
370
    18
100
AcDbMText
 10
2751.793455594372
 20
8625.081648276299
 30
0.0
 40
3.0
 41
0.0
 46
0.0
 71
     5
 72
     1
  1
20
  7
明朝
 11
0.0000000000000001
 21
1.0
 31
0.0
 73
     1
 44
1.0
  0
POINT
  5
2FA52
330
2ED5F
100
AcDbEntity
  8
Defpoints
  6
Continuous
 62
     0
440
 16777216
 48
0.5
370
    35
100
AcDbPoint
 10
2758.918455594372
 20
8620.0816482763
 30
0.0
  0
POINT
  5
2FA53
330
2ED5F
100
AcDbEntity
  8
Defpoints
  6
Continuous
 62
     0
440
 16777216
 48
0.5
370
    35
100
AcDbPoint
 10
2758.918455594372
 20
8630.0816482763
 30
0.0
  0
POINT
  5
2FA54
330
2ED5F
100
AcDbEntity
  8
Defpoints
  6
Continuous
 62
     0
440
 16777216
 48
0.5
370
    35
100
AcDbPoint
 10
2753.918455594373
 20
8630.0816482763
 30
0.0
  0
ENDBLK
  5
2ED6A
330
2ED5F
100
AcDbEntity
  8
0
 62
     7
 48
0.5
370
    35
100
AcDbBlockEnd
  0
BLOCK
  5
2ED75
330
2ED6B
100
AcDbEntity
  8
0
 62
     7
 48
0.5
370
    35
100
AcDbBlockBegin
  2
*D31
 70
     1
 10
0.0
 20
0.0
 30
0.0
  3
*D31
  1

  0
LINE
  5
2FA43
330
2ED6B
100
AcDbEntity
  8
1-B_寸法
  6
Continuous
 62
     3
440
 16777216
 48
0.5
370
    -2
100
AcDbLine
 10
2755.918455594372
 20
8615.0816482763
 30
0.0
 11
2747.918455594373
 21
8615.0816482763
 31
0.0
  0
LINE
  5
2FA44
330
2ED6B
100
AcDbEntity
  8
1-B_寸法
  6
Continuous
 62
     3
440
 16777216
 48
0.5
370
    -2
100
AcDbLine
 10
2755.918455594372
 20
8635.081648276297
 30
0.0
 11
2747.918455594373
 21
8635.081648276297
 31
0.0
  0
LINE
  5
2FA45
330
2ED6B
100
AcDbEntity
  8
1-B_寸法
  6
Continuous
 62
     3
440
 16777216
 48
0.5
370
    -2
100
AcDbLine
 10
2748.918455594373
 20
8616.081648276301
 30
0.0
 11
2748.918455594373
 21
8634.081648276298
 31
0.0
  0
INSERT
  5
2FA46
330
2ED6B
100
AcDbEntity
  8
1-B_寸法
  6
Continuous
 62
     3
440
 16777216
 48
0.5
370
    -2
100
AcDbBlockReference
  2
_Dot
 10
2748.918455594373
 20
8615.0816482763
 30
0.0
 50
270.0
  0
INSERT
  5
2FA47
330
2ED6B
100
AcDbEntity
  8
1-B_寸法
  6
Continuous
 62
     3
440
 16777216
 48
0.5
370
    -2
100
AcDbBlockReference
  2
_Dot
 10
2748.918455594373
 20
8635.081648276297
 30
0.0
 50
90.0
  0
MTEXT
  5
2FA48
330
2ED6B
100
AcDbEntity
  8
1-B_寸法
  6
Continuous
 62
     3
440
 16777216
 48
0.5
370
    18
100
AcDbMText
 10
2746.793455594372
 20
8625.081648276299
 30
0.0
 40
3.0
 41
0.0
 46
0.0
 71
     5
 72
     1
  1
40
  7
明朝
 11
0.0000000000000001
 21
1.0
 31
0.0
 73
     1
 44
1.0
  0
POINT
  5
2FA49
330
2ED6B
100
AcDbEntity
  8
Defpoints
  6
Continuous
 62
     0
440
 16777216
 48
0.5
370
    35
100
AcDbPoint
 10
2758.918455594372
 20
8615.0816482763
 30
0.0
  0
POINT
  5
2FA4A
330
2ED6B
100
AcDbEntity
  8
Defpoints
  6
Continuous
 62
     0
440
 16777216
 48
0.5
370
    35
100
AcDbPoint
 10
2758.918455594372
 20
8635.081648276297
 30
0.0
  0
POINT
  5
2FA4B
330
2ED6B
100
AcDbEntity
  8
Defpoints
  6
Continuous
 62
     0
440
 16777216
 48
0.5
370
    35
100
AcDbPoint
 10
2748.918455594373
 20
8635.081648276297
 30
0.0
  0
ENDBLK
  5
2ED76
330
2ED6B
100
AcDbEntity
  8
0
 62
     7
 48
0.5
370
    35
100
AcDbBlockEnd
  0
BLOCK
  5
2ED83
330
2ED77
100
AcDbEntity
  8
0
 62
     7
 48
0.5
370
    35
100
AcDbBlockBegin
  2
*D32
 70
     1
 10
0.0
 20
0.0
 30
0.0
  3
*D32
  1

  0
LINE
  5
2FA3A
330
2ED77
100
AcDbEntity
  8
1-B_寸法
  6
Continuous
 62
     3
440
 16777216
 48
0.5
370
    -2
100
AcDbLine
 10
2763.918455594372
 20
8638.081648276301
 30
0.0
 11
2763.918455594372
 21
8643.581648276297
 31
0.0
  0
LINE
  5
2FA3B
330
2ED77
100
AcDbEntity
  8
1-B_寸法
  6
Continuous
 62
     3
440
 16777216
 48
0.5
370
    -2
100
AcDbLine
 10
2758.918455594372
 20
8638.081648276298
 30
0.0
 11
2758.918455594372
 21
8643.581648276297
 31
0.0
  0
LINE
  5
2FA3C
330
2ED77
100
AcDbEntity
  8
1-B_寸法
  6
Continuous
 62
     3
440
 16777216
 48
0.5
370
    -2
100
AcDbLine
 10
2762.918455594372
 20
8642.581648276296
 30
0.0
 11
2759.918455594372
 21
8642.581648276296
 31
0.0
  0
INSERT
  5
2FA3D
330
2ED77
100
AcDbEntity
  8
1-B_寸法
  6
Continuous
 62
     3
440
 16777216
 48
0.5
370
    -2
100
AcDbBlockReference
  2
_Dot
 10
2763.918455594372
 20
8642.581648276296
 30
0.0
  0
INSERT
  5
2FA3E
330
2ED77
100
AcDbEntity
  8
1-B_寸法
  6
Continuous
 62
     3
440
 16777216
 48
0.5
370
    -2
100
AcDbBlockReference
  2
_Dot
 10
2758.918455594372
 20
8642.581648276296
 30
0.0
 50
180.0
  0
MTEXT
  5
2FA3F
330
2ED77
100
AcDbEntity
  8
1-B_寸法
  6
Continuous
 62
     3
440
 16777216
 48
0.5
370
    18
100
AcDbMText
 10
2761.418455594372
 20
8644.706648276295
 30
0.0
 40
3.0
 41
0.0
 46
0.0
 71
     5
 72
     1
  1
10
  7
明朝
 73
     1
 44
1.0
  0
POINT
  5
2FA40
330
2ED77
100
AcDbEntity
  8
Defpoints
  6
Continuous
 62
     0
440
 16777216
 48
0.5
370
    35
100
AcDbPoint
 10
2763.918455594372
 20
8635.081648276301
 30
0.0
  0
POINT
  5
2FA41
330
2ED77
100
AcDbEntity
  8
Defpoints
  6
Continuous
 62
     0
440
 16777216
 48
0.5
370
    35
100
AcDbPoint
 10
2758.918455594372
 20
8635.081648276297
 30
0.0
  0
POINT
  5
2FA42
330
2ED77
100
AcDbEntity
  8
Defpoints
  6
Continuous
 62
     0
440
 16777216
 48
0.5
370
    35
100
AcDbPoint
 10
2758.918455594372
 20
8642.581648276296
 30
0.0
  0
ENDBLK
  5
2ED84
330
2ED77
100
AcDbEntity
  8
0
 62
     7
 48
0.5
370
    35
100
AcDbBlockEnd
  0
BLOCK
  5
2ED8F
330
2ED85
100
AcDbEntity
  8
0
 62
     7
 48
0.5
370
    35
100
AcDbBlockBegin
  2
*D33
 70
     1
 10
0.0
 20
0.0
 30
0.0
  3
*D33
  1

  0
LINE
  5
2FA31
330
2ED85
100
AcDbEntity
  8
1-B_寸法
  6
Continuous
 62
     3
440
 16777216
 48
0.5
370
    -2
100
AcDbLine
 10
2771.418455594372
 20
8638.081648276301
 30
0.0
 11
2771.418455594372
 21
8643.581648276297
 31
0.0
  0
LINE
  5
2FA32
330
2ED85
100
AcDbEntity
  8
1-B_寸法
  6
Continuous
 62
     3
440
 16777216
 48
0.5
370
    -2
100
AcDbLine
 10
2763.918455594372
 20
8638.081648276301
 30
0.0
 11
2763.918455594372
 21
8643.581648276297
 31
0.0
  0
LINE
  5
2FA33
330
2ED85
100
AcDbEntity
  8
1-B_寸法
  6
Continuous
 62
     3
440
 16777216
 48
0.5
370
    -2
100
AcDbLine
 10
2770.418455594372
 20
8642.581648276296
 30
0.0
 11
2764.918455594372
 21
8642.581648276296
 31
0.0
  0
INSERT
  5
2FA34
330
2ED85
100
AcDbEntity
  8
1-B_寸法
  6
Continuous
 62
     3
440
 16777216
 48
0.5
370
    -2
100
AcDbBlockReference
  2
_Dot
 10
2771.418455594372
 20
8642.581648276296
 30
0.0
  0
INSERT
  5
2FA35
330
2ED85
100
AcDbEntity
  8
1-B_寸法
  6
Continuous
 62
     3
440
 16777216
 48
0.5
370
    -2
100
AcDbBlockReference
  2
_Dot
 10
2763.918455594372
 20
8642.581648276296
 30
0.0
 50
180.0
  0
MTEXT
  5
2FA36
330
2ED85
100
AcDbEntity
  8
1-B_寸法
  6
Continuous
 62
     3
440
 16777216
 48
0.5
370
    18
100
AcDbMText
 10
2767.668455594372
 20
8644.706648276295
 30
0.0
 40
3.0
 41
0.0
 46
0.0
 71
     5
 72
     1
  1
15
  7
明朝
 73
     1
 44
1.0
  0
POINT
  5
2FA37
330
2ED85
100
AcDbEntity
  8
Defpoints
  6
Continuous
 62
     0
440
 16777216
 48
0.5
370
    35
100
AcDbPoint
 10
2771.418455594372
 20
8635.081648276301
 30
0.0
  0
POINT
  5
2FA38
330
2ED85
100
AcDbEntity
  8
Defpoints
  6
Continuous
 62
     0
440
 16777216
 48
0.5
370
    35
100
AcDbPoint
 10
2763.918455594372
 20
8635.081648276301
 30
0.0
  0
POINT
  5
2FA39
330
2ED85
100
AcDbEntity
  8
Defpoints
  6
Continuous
 62
     0
440
 16777216
 48
0.5
370
    35
100
AcDbPoint
 10
2763.918455594372
 20
8642.581648276296
 30
0.0
  0
ENDBLK
  5
2ED90
330
2ED85
100
AcDbEntity
  8
0
 62
     7
 48
0.5
370
    35
100
AcDbBlockEnd
  0
BLOCK
  5
2ED9B
330
2ED91
100
AcDbEntity
  8
0
 62
     7
 48
0.5
370
    35
100
AcDbBlockBegin
  2
*D34
 70
     1
 10
0.0
 20
0.0
 30
0.0
  3
*D34
  1

  0
LINE
  5
2FA28
330
2ED91
100
AcDbEntity
  8
1-B_寸法
  6
Continuous
 62
     3
440
 16777216
 48
0.5
370
    -2
100
AcDbLine
 10
2771.418455594372
 20
8638.081648276301
 30
0.0
 11
2771.418455594372
 21
8643.581648276297
 31
0.0
  0
LINE
  5
2FA29
330
2ED91
100
AcDbEntity
  8
1-B_寸法
  6
Continuous
 62
     3
440
 16777216
 48
0.5
370
    -2
100
AcDbLine
 10
2778.918455594372
 20
8638.081648276301
 30
0.0
 11
2778.918455594372
 21
8643.581648276297
 31
0.0
  0
LINE
  5
2FA2A
330
2ED91
100
AcDbEntity
  8
1-B_寸法
  6
Continuous
 62
     3
440
 16777216
 48
0.5
370
    -2
100
AcDbLine
 10
2772.418455594372
 20
8642.581648276296
 30
0.0
 11
2777.918455594372
 21
8642.581648276296
 31
0.0
  0
INSERT
  5
2FA2B
330
2ED91
100
AcDbEntity
  8
1-B_寸法
  6
Continuous
 62
     3
440
 16777216
 48
0.5
370
    -2
100
AcDbBlockReference
  2
_Dot
 10
2771.418455594372
 20
8642.581648276296
 30
0.0
 50
180.0
  0
INSERT
  5
2FA2C
330
2ED91
100
AcDbEntity
  8
1-B_寸法
  6
Continuous
 62
     3
440
 16777216
 48
0.5
370
    -2
100
AcDbBlockReference
  2
_Dot
 10
2778.918455594372
 20
8642.581648276296
 30
0.0
  0
MTEXT
  5
2FA2D
330
2ED91
100
AcDbEntity
  8
1-B_寸法
  6
Continuous
 62
     3
440
 16777216
 48
0.5
370
    18
100
AcDbMText
 10
2775.168455594372
 20
8644.706648276295
 30
0.0
 40
3.0
 41
0.0
 46
0.0
 71
     5
 72
     1
  1
15
  7
明朝
 73
     1
 44
1.0
  0
POINT
  5
2FA2E
330
2ED91
100
AcDbEntity
  8
Defpoints
  6
Continuous
 62
     0
440
 16777216
 48
0.5
370
    35
100
AcDbPoint
 10
2771.418455594372
 20
8635.081648276301
 30
0.0
  0
POINT
  5
2FA2F
330
2ED91
100
AcDbEntity
  8
Defpoints
  6
Continuous
 62
     0
440
 16777216
 48
0.5
370
    35
100
AcDbPoint
 10
2778.918455594372
 20
8635.081648276301
 30
0.0
  0
POINT
  5
2FA30
330
2ED91
100
AcDbEntity
  8
Defpoints
  6
Continuous
 62
     0
440
 16777216
 48
0.5
370
    35
100
AcDbPoint
 10
2778.918455594372
 20
8642.581648276296
 30
0.0
  0
ENDBLK
  5
2ED9C
330
2ED91
100
AcDbEntity
  8
0
 62
     7
 48
0.5
370
    35
100
AcDbBlockEnd
  0
BLOCK
  5
2FB51
330
2FB50
100
AcDbEntity
  8
0
 62
     7
 48
0.5
370
    35
100
AcDbBlockBegin
  2
*D35
 70
     1
 10
0.0
 20
0.0
 30
0.0
  3
*D35
  1

  0
LINE
  5
2FC12
330
2FB50
100
AcDbEntity
  8
1-0_本体
  6
Continuous
 62
     3
440
 16777216
 48
0.5
370
    -2
100
AcDbLine
 10
2702.879483336424
 20
8476.303950258396
 30
0.0
 11
2702.879483336424
 21
8470.850739166385
 31
0.0
  0
LINE
  5
2FC13
330
2FB50
100
AcDbEntity
  8
1-0_本体
  6
Continuous
 62
     3
440
 16777216
 48
0.5
370
    -2
100
AcDbLine
 10
2672.879483336421
 20
8476.303950258396
 30
0.0
 11
2672.879483336421
 21
8470.850739166385
 31
0.0
  0
LINE
  5
2FC14
330
2FB50
100
AcDbEntity
  8
1-0_本体
  6
Continuous
 62
     3
440
 16777216
 48
0.5
370
    -2
100
AcDbLine
 10
2701.879483336425
 20
8471.850739166384
 30
0.0
 11
2673.879483336421
 21
8471.850739166384
 31
0.0
  0
INSERT
  5
2FC15
330
2FB50
100
AcDbEntity
  8
1-0_本体
  6
Continuous
 62
     3
440
 16777216
 48
0.5
370
    -2
100
AcDbBlockReference
  2
_Dot
 10
2702.879483336424
 20
8471.850739166384
 30
0.0
  0
INSERT
  5
2FC16
330
2FB50
100
AcDbEntity
  8
1-0_本体
  6
Continuous
 62
     3
440
 16777216
 48
0.5
370
    -2
100
AcDbBlockReference
  2
_Dot
 10
2672.879483336421
 20
8471.850739166384
 30
0.0
 50
180.0
  0
MTEXT
  5
2FC17
330
2FB50
100
AcDbEntity
  8
1-0_本体
  6
Continuous
 62
     3
440
 16777216
 48
0.5
370
    18
100
AcDbMText
 10
2687.879483336423
 20
8473.975739166384
 30
0.0
 40
3.0
 41
0.0
 46
0.0
 71
     5
 72
     1
  1
Φ30
  7
明朝
 73
     1
 44
1.0
  0
POINT
  5
2FC18
330
2FB50
100
AcDbEntity
  8
Defpoints
  6
Continuous
 62
     0
440
 16777216
 48
0.5
370
    35
100
AcDbPoint
 10
2702.879483336424
 20
8479.303950258394
 30
0.0
  0
POINT
  5
2FC19
330
2FB50
100
AcDbEntity
  8
Defpoints
  6
Continuous
 62
     0
440
 16777216
 48
0.5
370
    35
100
AcDbPoint
 10
2672.879483336421
 20
8479.303950258394
 30
0.0
  0
POINT
  5
2FC1A
330
2FB50
100
AcDbEntity
  8
Defpoints
  6
Continuous
 62
     0
440
 16777216
 48
0.5
370
    35
100
AcDbPoint
 10
2672.879483336421
 20
8471.850739166384
 30
0.0
  0
ENDBLK
  5
2FB52
330
2FB50
100
AcDbEntity
  8
0
 62
     7
 48
0.5
370
    35
100
AcDbBlockEnd
  0
ENDSEC
  0
SECTION
  2
ENTITIES
  0
DIMENSION
  5
20EF4
330
1E
100
AcDbEntity
  8
1-B_寸法
  6
Continuous
 62
     3
 48
0.5
370
    18
100
AcDbDimension
280
     0
  2
*D1
 10
2859.879483336423
 20
8491.9071910639
 30
0.0
 11
2859.879483336421
 21
8495.907191063899
 31
0.0
 70
   160
 71
     5
 42
8.0
 73
     0
 74
     0
 75
     0
  3
ISO-25
100
AcDbAlignedDimension
 13
2854.879483336421
 23
8499.907191063901
 33
0.0
 14
2854.879483336422
 24
8491.9071910639
 34
0.0
 50
270.0
100
AcDbRotatedDimension
  0
LINE
  5
20EF5
330
1E
100
AcDbEntity
  8
1-A_中心
  6
中心線
 62
     6
 48
0.25
370
    18
100
AcDbLine
 10
2704.879483336422
 20
8495.907191063899
 30
0.0
 11
2670.879483336421
 21
8495.907191063899
 31
0.0
  0
LINE
  5
20EF6
330
1E
100
AcDbEntity
  8
1-A_中心
  6
中心線
 62
     6
 48
0.25
370
    18
100
AcDbLine
 10
2687.879483336422
 20
8512.9071910639
 30
0.0
 11
2687.879483336422
 21
8478.9071910639
 31
0.0
  0
LINE
  5
20FAC
330
1E
100
AcDbEntity
  8
1-0_本体
  6
Continuous
 62
     7
 48
0.5
370
    35
100
AcDbLine
 10
2667.879483336422
 20
8527.907191063899
 30
0.0
 11
2707.879483336422
 21
8527.907191063899
 31
0.0
  0
LINE
  5
2102A
330
1E
100
AcDbEntity
  8
1-A_中心
  6
中心線
 62
     6
 48
0.25
370
    18
100
AcDbLine
 10
2757.879483258207
 20
8517.272191063897
 30
0.0
 11
2757.879482330716
 21
8486.081184063896
 31
0.0
  0
LINE
  5
21061
330
1E
100
AcDbEntity
  8
1-2_扉･枠
  6
想像線
 62
     4
 48
0.25
370
    18
100
AcDbLine
 10
2664.873877848186
 20
8529.407191063899
 30
0.0
 11
2664.873877848186
 21
8552.903081063901
 31
0.0
  0
LINE
  5
21063
330
1E
100
AcDbEntity
  8
1-2_扉･枠
  6
想像線
 62
     4
 48
0.25
370
    18
100
AcDbLine
 10
2735.373877848186
 20
8527.907191063899
 30
0.0
 11
2666.373877848186
 21
8527.907191063899
 31
0.0
  0
ARC
  5
21107
330
1E
100
AcDbEntity
  8
1-0_本体
  6
Continuous
 62
     7
 48
0.5
370
    35
100
AcDbCircle
 10
2853.879483336422
 20
8492.907191063899
 30
0.0
 40
1.0
100
AcDbArc
 50
270.0
 51
0.0
  0
LINE
  5
21108
330
1E
100
AcDbEntity
  8
1-0_本体
  6
Continuous
 62
     7
 48
0.5
370
    35
100
AcDbLine
 10
2854.879483336421
 20
8492.907191063899
 30
0.0
 11
2854.879483336421
 21
8499.907191063901
 31
0.0
  0
LINE
  5
21110
330
1E
100
AcDbEntity
  8
1-0_本体
  6
Continuous
 62
     7
 48
0.5
370
    35
100
AcDbLine
 10
2707.879483336422
 20
8527.907191063899
 30
0.0
 11
2707.879483336422
 21
8517.907191063899
 31
0.0
  0
LINE
  5
21116
330
1E
100
AcDbEntity
  8
1-0_本体
  6
Continuous
 62
     7
 48
0.5
370
    35
100
AcDbLine
 10
2708.591798513629
 20
8499.907191063901
 30
0.0
 11
2854.879483336421
 21
8499.907191063901
 31
0.0
  0
LINE
  5
21117
330
1E
100
AcDbEntity
  8
1-0_本体
  6
Continuous
 62
     7
 48
0.5
370
    35
100
AcDbLine
 10
2667.879483336422
 20
8517.907191063899
 30
0.0
 11
2707.879483336422
 21
8517.907191063899
 31
0.0
  0
LINE
  5
21118
330
1E
100
AcDbEntity
  8
1-0_本体
  6
Continuous
 62
     7
 48
0.5
370
    35
100
AcDbLine
 10
2667.879483336422
 20
8527.907191063899
 30
0.0
 11
2667.879483336422
 21
8517.907191063899
 31
0.0
  0
CIRCLE
  5
2257F
330
1E
100
AcDbEntity
  8
1-0_本体
  6
Continuous
 62
     7
 48
0.5
370
    35
100
AcDbCircle
 10
2687.879483336422
 20
8495.907191063899
 30
0.0
 40
13.0
  0
LINE
  5
22582
330
1E
100
AcDbEntity
  8
1-0_本体
  6
Continuous
 62
     7
 48
0.5
370
    35
100
AcDbLine
 10
2853.879483336422
 20
8491.9071910639
 30
0.0
 11
2708.59179851363
 21
8491.9071910639
 31
0.0
  0
LINE
  5
225EE
330
1E
100
AcDbEntity
  8
1-A_中心
  6
中心線
 62
     6
 48
0.25
370
    18
100
AcDbLine
 10
2795.379483336422
 20
8517.272191063897
 30
0.0
 11
2795.379483336422
 21
8486.081184063896
 31
0.0
  0
ARC
  5
2264B
330
1E
100
AcDbEntity
  8
1-0_本体
  6
Continuous
 62
     7
 48
0.5
370
    35
100
AcDbCircle
 10
2687.879483336422
 20
8495.907191063899
 30
0.0
 40
15.0
100
AcDbArc
 50
34.05579774256658
 51
325.9442022574335
  0
DIMENSION
  5
22694
330
1E
100
AcDbEntity
  8
1-B_寸法
  6
Continuous
 62
     3
 48
0.5
370
    18
100
AcDbDimension
280
     0
  2
*D2
 10
2657.879483336423
 20
8517.907191063899
 30
0.0
 11
2657.879483336421
 21
8522.907191063898
 31
0.0
 70
   160
 71
     5
 42
10.0
 73
     0
 74
     0
 75
     0
  3
ISO-25
100
AcDbAlignedDimension
 13
2665.379483336422
 23
8527.907191063899
 33
0.0
 14
2665.379483336422
 24
8517.907191063899
 34
0.0
 50
270.0
100
AcDbRotatedDimension
  0
LINE
  5
226B4
330
1E
100
AcDbEntity
  8
1-0_本体
  6
Continuous
 62
     7
 48
0.5
370
    35
100
AcDbLine
 10
2672.879483336422
 20
8495.907191063899
 30
0.0
 11
2670.87948333642
 21
8517.907191063899
 31
0.0
  0
LINE
  5
226CC
330
1E
100
AcDbEntity
  8
1-A_中心
  6
中心線
 62
     6
 48
0.25
370
    18
100
AcDbLine
 10
2677.879483336421
 20
8543.907191764906
 30
0.0
 11
2677.879483091051
 21
8515.107191063899
 31
0.0
  0
LINE
  5
226D0
330
1E
100
AcDbEntity
  8
1-A_中心
  6
中心線
 62
     6
 48
0.25
370
    18
100
AcDbLine
 10
2697.879483341651
 20
8543.907191764906
 30
0.0
 11
2697.879483417134
 21
8515.107191063899
 31
0.0
  0
CIRCLE
  5
226E9
330
1E
100
AcDbEntity
  8
1-1_本体2
  6
かくれ線
 62
     7
 48
0.5
370
    18
100
AcDbCircle
 10
2687.879483336422
 20
8495.907191063899
 30
0.0
 40
7.0
  0
CIRCLE
  5
226EA
330
1E
100
AcDbEntity
  8
1-1_本体2
  6
かくれ線
 62
     7
 48
0.5
370
    18
100
AcDbCircle
 10
2687.879483336422
 20
8495.907191063899
 30
0.0
 40
9.0
  0
LINE
  5
226EC
330
1E
100
AcDbEntity
  8
1-1_本体2
  6
かくれ線
 62
     7
 48
0.5
370
    18
100
AcDbLine
 10
2689.57437333642
 20
8502.698901063899
 30
0.0
 11
2689.57437333642
 21
8510.811128392267
 31
0.0
  0
LINE
  5
226ED
330
1E
100
AcDbEntity
  8
1-1_本体2
  6
かくれ線
 62
     7
 48
0.5
370
    18
100
AcDbLine
 10
2690.274373336421
 20
8502.484761063898
 30
0.0
 11
2690.274373336421
 21
8510.714773644723
 31
0.0
  0
LINE
  5
226EE
330
1E
100
AcDbEntity
  8
1-1_本体2
  6
かくれ線
 62
     7
 48
0.5
370
    18
100
AcDbLine
 10
2685.274373336421
 20
8502.404371063901
 30
0.0
 11
2685.274373336421
 21
8510.679239056237
 31
0.0
  0
LINE
  5
226EF
330
1E
100
AcDbEntity
  8
1-1_本体2
  6
かくれ線
 62
     7
 48
0.5
370
    18
100
AcDbLine
 10
2685.974373336422
 20
8502.642951063899
 30
0.0
 11
2685.974373336422
 21
8510.785717734504
 31
0.0
  0
DIMENSION
  5
2273A
330
1E
100
AcDbEntity
  8
1-B_寸法
  6
Continuous
 62
     3
 48
0.5
370
    18
100
AcDbDimension
280
     0
  2
*D3
 10
2697.879483341651
 20
8550.407191764907
 30
0.0
 11
2687.879483339036
 21
8552.532191764907
 31
0.0
 70
    32
 71
     5
 42
20.00000000522959
 73
     0
 74
     0
 75
     0
  3
ISO-25
100
AcDbAlignedDimension
 13
2677.879483336421
 23
8543.907191764906
 33
0.0
 14
2697.879483341651
 24
8543.907191764906
 34
0.0
100
AcDbRotatedDimension
  0
LINE
  5
25222
330
1E
100
AcDbEntity
  8
1-1_本体2
  6
かくれ線
 62
     7
 48
0.5
370
    18
100
AcDbLine
 10
2702.633581697083
 20
8493.202273031146
 30
0.0
 11
2703.37654188514
 21
8501.374835099749
 31
0.0
  0
LINE
  5
25223
330
1E
100
AcDbEntity
  8
1-0_本体
  6
Continuous
 62
     7
 48
0.5
370
    35
100
AcDbLine
 10
2703.376541885138
 20
8501.374835099749
 30
0.0
 11
2704.879483336422
 21
8517.907191063899
 31
0.0
  0
ARC
  5
25224
330
1E
100
AcDbEntity
  8
1-1_本体2
  6
かくれ線
 62
     7
 48
0.5
370
    18
100
AcDbCircle
 10
2687.879483336422
 20
8495.907191063899
 30
0.0
 40
15.0
100
AcDbArc
 50
335.0989376296311
 51
349.6111421846596
  0
DIMENSION
  5
25225
330
1E
100
AcDbEntity
  8
1-B_寸法
  6
Continuous
 62
     3
 48
0.5
370
    18
100
AcDbDimension
280
     0
  2
*D4
 10
2712.128235171789
 20
8499.907191063901
 30
0.0
 11
2712.128235171789
 21
8513.067630303126
 31
0.0
 70
   160
 71
     5
 42
28.0
 73
     0
 74
     0
 75
     0
  3
ISO-25
100
AcDbAlignedDimension
 13
2707.879483336422
 23
8527.907191063899
 33
0.0
 14
2707.879483336422
 24
8499.907191063901
 34
0.0
 50
270.0
100
AcDbRotatedDimension
  0
LINE
  5
25363
330
1E
100
AcDbEntity
  8
1-4_ビス
  6
Continuous
 62
     7
 48
0.5
370
    35
100
AcDbLine
 10
2823.98948333642
 20
8491.272191063897
 30
0.0
 11
2823.98948333642
 21
8491.9071910639
 31
0.0
  0
LINE
  5
25369
330
1E
100
AcDbEntity
  8
1-4_ビス
  6
Continuous
 62
     7
 48
0.5
370
    35
100
AcDbLine
 10
2841.769481566791
 20
8491.272182420839
 30
0.0
 11
2841.769481566791
 21
8491.90718242084
 31
0.0
  0
LINE
  5
2536C
330
1E
100
AcDbEntity
  8
1-5_ビス2
  6
かくれ線
 62
     7
 48
0.5
370
    18
100
AcDbLine
 10
2828.879483336421
 20
8516.272191063897
 30
0.0
 11
2828.879483336422
 21
8491.9071910639
 31
0.0
  0
LINE
  5
2536D
330
1E
100
AcDbEntity
  8
1-5_ビス2
  6
かくれ線
 62
     7
 48
0.5
370
    18
100
AcDbLine
 10
2836.879483336421
 20
8516.272191063897
 30
0.0
 11
2836.879483336421
 21
8491.9071910639
 31
0.0
  0
LINE
  5
25370
330
1E
100
AcDbEntity
  8
1-4_ビス
  6
Continuous
 62
     7
 48
0.5
370
    35
100
AcDbLine
 10
2823.98948333642
 20
8491.272191063897
 30
0.0
 11
2841.76948156679
 21
8491.272182420839
 31
0.0
  0
LINE
  5
25371
330
1E
100
AcDbEntity
  8
1-4_ビス
  6
Continuous
 62
     7
 48
0.5
370
    35
100
AcDbLine
 10
2823.98948333642
 20
8491.9071910639
 30
0.0
 11
2841.769483336421
 21
8491.9071910639
 31
0.0
  0
LINE
  5
25388
330
1E
100
AcDbEntity
  8
1-A_中心
  6
中心線
 62
     6
 48
0.25
370
    18
100
AcDbLine
 10
2832.879483336422
 20
8486.081184063896
 30
0.0
 11
2832.879483336422
 21
8517.272191063897
 31
0.0
  0
ARC
  5
2538B
330
1E
100
AcDbEntity
  8
1-4_ビス
  6
Continuous
 62
     7
 48
0.5
370
    35
100
AcDbCircle
 10
2832.879483336422
 20
8498.605471063896
 30
0.0
 40
11.524287
100
AcDbArc
 50
219.518939999933
 51
320.4810499998322
  0
LINE
  5
25453
330
1E
100
AcDbEntity
  8
1-4_ビス
  6
Continuous
 62
     7
 48
0.5
370
    35
100
AcDbLine
 10
2748.989483336422
 20
8491.9071910639
 30
0.0
 11
2766.769483336423
 21
8491.9071910639
 31
0.0
  0
ARC
  5
25454
330
1E
100
AcDbEntity
  8
1-4_ビス
  6
Continuous
 62
     7
 48
0.5
370
    35
100
AcDbCircle
 10
2757.879483336423
 20
8498.605471063896
 30
0.0
 40
11.524287
100
AcDbArc
 50
219.518939999933
 51
320.4810499998322
  0
LINE
  5
25455
330
1E
100
AcDbEntity
  8
1-4_ビス
  6
Continuous
 62
     7
 48
0.5
370
    35
100
AcDbLine
 10
2748.989483826124
 20
8491.272183972473
 30
0.0
 11
2766.769483336423
 21
8491.272191063897
 31
0.0
  0
LINE
  5
25457
330
1E
100
AcDbEntity
  8
1-4_ビス
  6
Continuous
 62
     7
 48
0.5
370
    35
100
AcDbLine
 10
2766.769483336423
 20
8491.272191063897
 30
0.0
 11
2766.769483336423
 21
8491.9071910639
 31
0.0
  0
LINE
  5
25458
330
1E
100
AcDbEntity
  8
1-4_ビス
  6
Continuous
 62
     7
 48
0.5
370
    35
100
AcDbLine
 10
2748.989483336422
 20
8491.272191063897
 30
0.0
 11
2748.989483336422
 21
8491.9071910639
 31
0.0
  0
LINE
  5
2545C
330
1E
100
AcDbEntity
  8
1-5_ビス2
  6
かくれ線
 62
     7
 48
0.5
370
    18
100
AcDbLine
 10
2753.879483336423
 20
8516.272191063897
 30
0.0
 11
2761.879483336424
 21
8516.272191063897
 31
0.0
  0
LINE
  5
2545F
330
1E
100
AcDbEntity
  8
1-5_ビス2
  6
かくれ線
 62
     7
 48
0.5
370
    18
100
AcDbLine
 10
2761.879483336424
 20
8516.272191063897
 30
0.0
 11
2761.879483336424
 21
8491.9071910639
 31
0.0
  0
LINE
  5
25460
330
1E
100
AcDbEntity
  8
1-5_ビス2
  6
かくれ線
 62
     7
 48
0.5
370
    18
100
AcDbLine
 10
2753.879483336423
 20
8516.272191063897
 30
0.0
 11
2753.879483336423
 21
8491.9071910639
 31
0.0
  0
LINE
  5
25469
330
1E
100
AcDbEntity
  8
1-4_ビス
  6
Continuous
 62
     7
 48
0.5
370
    35
100
AcDbLine
 10
2804.269483336423
 20
8491.272191063897
 30
0.0
 11
2804.269483336423
 21
8491.9071910639
 31
0.0
  0
LINE
  5
2546A
330
1E
100
AcDbEntity
  8
1-4_ビス
  6
Continuous
 62
     7
 48
0.5
370
    35
100
AcDbLine
 10
2786.489483336422
 20
8491.272191063897
 30
0.0
 11
2804.269483336423
 21
8491.272191063897
 31
0.0
  0
ARC
  5
2546C
330
1E
100
AcDbEntity
  8
1-4_ビス
  6
Continuous
 62
     7
 48
0.5
370
    35
100
AcDbCircle
 10
2795.379483336423
 20
8498.605471063896
 30
0.0
 40
11.524287
100
AcDbArc
 50
219.518939999933
 51
320.4810499998322
  0
LINE
  5
2546E
330
1E
100
AcDbEntity
  8
1-4_ビス
  6
Continuous
 62
     7
 48
0.5
370
    35
100
AcDbLine
 10
2786.489483336422
 20
8491.272191063897
 30
0.0
 11
2786.489483336422
 21
8491.9071910639
 31
0.0
  0
LINE
  5
2546F
330
1E
100
AcDbEntity
  8
1-4_ビス
  6
Continuous
 62
     7
 48
0.5
370
    35
100
AcDbLine
 10
2786.489483336422
 20
8491.9071910639
 30
0.0
 11
2804.269483336423
 21
8491.9071910639
 31
0.0
  0
LINE
  5
25471
330
1E
100
AcDbEntity
  8
1-5_ビス2
  6
かくれ線
 62
     7
 48
0.5
370
    18
100
AcDbLine
 10
2791.379483336421
 20
8516.272191063897
 30
0.0
 11
2791.379483336423
 21
8491.9071910639
 31
0.0
  0
LINE
  5
25476
330
1E
100
AcDbEntity
  8
1-5_ビス2
  6
かくれ線
 62
     7
 48
0.5
370
    18
100
AcDbLine
 10
2799.379483336421
 20
8516.272191063897
 30
0.0
 11
2799.379483336423
 21
8491.9071910639
 31
0.0
  0
LINE
  5
2614B
330
1E
100
AcDbEntity
  8
1-5_ビス2
  6
かくれ線
 62
     7
 48
0.5
370
    18
100
AcDbLine
 10
2685.879483336423
 20
8517.907190362892
 30
0.0
 11
2685.879483336421
 21
8518.30718709581
 31
0.0
  0
LINE
  5
2614C
330
1E
100
AcDbEntity
  8
1-5_ビス2
  6
かくれ線
 62
     7
 48
0.5
370
    18
100
AcDbLine
 10
2681.379483336421
 20
8542.907191764907
 30
0.0
 11
2681.379483336421
 21
8522.307190757208
 31
0.0
  0
LINE
  5
2614D
330
1E
100
AcDbEntity
  8
1-5_ビス2
  6
かくれ線
 62
     7
 48
0.5
370
    18
100
AcDbLine
 10
2674.379483336422
 20
8542.907191764907
 30
0.0
 11
2674.379483336422
 21
8522.307191370591
 31
0.0
  0
LINE
  5
2614E
330
1E
100
AcDbEntity
  8
1-5_ビス2
  6
かくれ線
 62
     7
 48
0.5
370
    18
100
AcDbLine
 10
2673.879483336421
 20
8542.907191764907
 30
0.0
 11
2673.879483336421
 21
8522.307191414403
 31
0.0
  0
LINE
  5
2614F
330
1E
100
AcDbEntity
  8
1-5_ビス2
  6
かくれ線
 62
     7
 48
0.5
370
    18
100
AcDbLine
 10
2681.879483336422
 20
8542.907191764907
 30
0.0
 11
2681.879483336424
 21
8522.307190713396
 31
0.0
  0
LINE
  5
26152
330
1E
100
AcDbEntity
  8
1-5_ビス2
  6
かくれ線
 62
     7
 48
0.5
370
    18
100
AcDbLine
 10
2673.879483336421
 20
8542.907191764907
 30
0.0
 11
2681.879483336422
 21
8542.907191764907
 31
0.0
  0
LINE
  5
26154
330
1E
100
AcDbEntity
  8
1-5_ビス2
  6
かくれ線
 62
     7
 48
0.5
370
    18
100
AcDbLine
 10
2669.879483336421
 20
8517.907193166925
 30
0.0
 11
2669.879483336421
 21
8518.307188497827
 31
0.0
  0
LINE
  5
26155
330
1E
100
AcDbEntity
  8
1-5_ビス2
  6
かくれ線
 62
     7
 48
0.5
370
    18
100
AcDbLine
 10
2669.879483336421
 20
8518.307188497827
 30
0.0
 11
2685.879485481892
 21
8518.307188497827
 31
0.0
  0
LINE
  5
26156
330
1E
100
AcDbEntity
  8
1-4_ビス
  6
Continuous
 62
     7
 48
0.5
370
    35
100
AcDbLine
 10
2669.879483336421
 20
8517.907191764907
 30
0.0
 11
2685.879483336421
 21
8517.907190362892
 31
0.0
  0
ARC
  5
26158
330
1E
100
AcDbEntity
  8
1-4_ビス
  6
Continuous
 62
     7
 48
0.5
370
    35
100
AcDbCircle
 10
2677.879484815358
 20
8534.784968841695
 30
0.0
 40
18.67777777779457
100
AcDbArc
 50
244.6392279957097
 51
295.360761962959
  0
LINE
  5
2615B
330
1E
100
AcDbEntity
  8
1-5_ビス2
  6
かくれ線
 62
     7
 48
0.5
370
    18
100
AcDbLine
 10
2673.879483336421
 20
8522.307188497824
 30
0.0
 11
2669.879483336421
 21
8518.307188497827
 31
0.0
  0
LINE
  5
2615C
330
1E
100
AcDbEntity
  8
1-5_ビス2
  6
かくれ線
 62
     7
 48
0.5
370
    18
100
AcDbLine
 10
2681.879483336422
 20
8522.307190643298
 30
0.0
 11
2685.879485481892
 21
8518.307188497827
 31
0.0
  0
LINE
  5
2615D
330
1E
100
AcDbEntity
  8
1-5_ビス2
  6
かくれ線
 62
     7
 48
0.5
370
    18
100
AcDbLine
 10
2673.879486883907
 20
8522.307192045309
 30
0.0
 11
2681.879483336424
 21
8522.307190643294
 31
0.0
  0
LINE
  5
26161
330
1E
100
AcDbEntity
  8
1-5_ビス2
  6
かくれ線
 62
     7
 48
0.5
370
    18
100
AcDbLine
 10
2693.879483336421
 20
8542.907191764907
 30
0.0
 11
2701.879483336421
 21
8542.907191764907
 31
0.0
  0
LINE
  5
26162
330
1E
100
AcDbEntity
  8
1-5_ビス2
  6
かくれ線
 62
     7
 48
0.5
370
    18
100
AcDbLine
 10
2694.379483336422
 20
8542.907191764907
 30
0.0
 11
2694.379483336422
 21
8522.307191370591
 31
0.0
  0
LINE
  5
26163
330
1E
100
AcDbEntity
  8
1-5_ビス2
  6
かくれ線
 62
     7
 48
0.5
370
    18
100
AcDbLine
 10
2693.879483336421
 20
8542.907191764907
 30
0.0
 11
2693.879483336421
 21
8522.307191414403
 31
0.0
  0
LINE
  5
26165
330
1E
100
AcDbEntity
  8
1-5_ビス2
  6
かくれ線
 62
     7
 48
0.5
370
    18
100
AcDbLine
 10
2701.379483336422
 20
8542.907191764907
 30
0.0
 11
2701.379483336422
 21
8522.307190757208
 31
0.0
  0
LINE
  5
26166
330
1E
100
AcDbEntity
  8
1-5_ビス2
  6
かくれ線
 62
     7
 48
0.5
370
    18
100
AcDbLine
 10
2701.879483336421
 20
8542.907191764907
 30
0.0
 11
2701.879483336423
 21
8522.307190713396
 31
0.0
  0
LINE
  5
26167
330
1E
100
AcDbEntity
  8
1-5_ビス2
  6
かくれ線
 62
     7
 48
0.5
370
    18
100
AcDbLine
 10
2705.879483336423
 20
8517.907190362892
 30
0.0
 11
2705.879483336421
 21
8518.30718709581
 31
0.0
  0
LINE
  5
26168
330
1E
100
AcDbEntity
  8
1-5_ビス2
  6
かくれ線
 62
     7
 48
0.5
370
    18
100
AcDbLine
 10
2689.879483336421
 20
8518.307188497827
 30
0.0
 11
2705.879485481892
 21
8518.307188497827
 31
0.0
  0
LINE
  5
26169
330
1E
100
AcDbEntity
  8
1-4_ビス
  6
Continuous
 62
     7
 48
0.5
370
    35
100
AcDbLine
 10
2689.879483336421
 20
8517.907191764907
 30
0.0
 11
2705.879483336421
 21
8517.907190362892
 31
0.0
  0
ARC
  5
2616B
330
1E
100
AcDbEntity
  8
1-4_ビス
  6
Continuous
 62
     7
 48
0.5
370
    35
100
AcDbCircle
 10
2697.879484815358
 20
8534.784968841695
 30
0.0
 40
18.67777777779457
100
AcDbArc
 50
244.6392279957097
 51
295.360761962959
  0
LINE
  5
2616D
330
1E
100
AcDbEntity
  8
1-5_ビス2
  6
かくれ線
 62
     7
 48
0.5
370
    18
100
AcDbLine
 10
2701.879483336421
 20
8522.307190643298
 30
0.0
 11
2705.879485481892
 21
8518.307188497827
 31
0.0
  0
LINE
  5
2616E
330
1E
100
AcDbEntity
  8
1-5_ビス2
  6
かくれ線
 62
     7
 48
0.5
370
    18
100
AcDbLine
 10
2693.879486883907
 20
8522.307192045309
 30
0.0
 11
2701.879483336423
 21
8522.307190643294
 31
0.0
  0
LINE
  5
26171
330
1E
100
AcDbEntity
  8
1-5_ビス2
  6
かくれ線
 62
     7
 48
0.5
370
    18
100
AcDbLine
 10
2693.879483336421
 20
8522.307188497824
 30
0.0
 11
2689.879483336421
 21
8518.307188497827
 31
0.0
  0
LINE
  5
26172
330
1E
100
AcDbEntity
  8
1-5_ビス2
  6
かくれ線
 62
     7
 48
0.5
370
    18
100
AcDbLine
 10
2689.879483336421
 20
8517.907193166925
 30
0.0
 11
2689.879483336421
 21
8518.307188497827
 31
0.0
  0
LINE
  5
269C4
330
1E
100
AcDbEntity
  8
1-2_扉･枠
  6
想像線
 62
     4
 48
0.25
370
    18
100
AcDbLine
 10
2736.873877848186
 20
8529.407191063899
 30
0.0
 11
2736.873877848189
 21
8594.907191063901
 31
0.0
  0
MTEXT
  5
269F9
330
1E
100
AcDbEntity
  8
0-0
  6
Continuous
 62
     3
 48
0.5
370
    13
100
AcDbMText
 10
2595.176446338257
 20
8537.672462670482
 30
0.0
 40
3.0
 41
34.5535
 46
0.0
 71
     1
 72
     1
  1

  7
明朝
 73
     1
 44
1.0
  0
LINE
  5
2A772
330
1E
100
AcDbEntity
  8
1-5_ビス2
  6
かくれ線
 62
     7
 48
0.5
370
    18
100
AcDbLine
 10
2754.379483336423
 20
8516.272191063897
 30
0.0
 11
2754.379483336423
 21
8491.9071910639
 31
0.0
  0
LINE
  5
2A773
330
1E
100
AcDbEntity
  8
1-5_ビス2
  6
かくれ線
 62
     7
 48
0.5
370
    18
100
AcDbLine
 10
2791.879483336423
 20
8516.272191063897
 30
0.0
 11
2791.879483336423
 21
8491.9071910639
 31
0.0
  0
LINE
  5
2A774
330
1E
100
AcDbEntity
  8
1-5_ビス2
  6
かくれ線
 62
     7
 48
0.5
370
    18
100
AcDbLine
 10
2798.879483336423
 20
8516.267504977559
 30
0.0
 11
2798.879483336423
 21
8491.9071910639
 31
0.0
  0
LINE
  5
2A775
330
1E
100
AcDbEntity
  8
1-5_ビス2
  6
かくれ線
 62
     7
 48
0.5
370
    18
100
AcDbLine
 10
2829.379483336421
 20
8516.272191063897
 30
0.0
 11
2829.379483336421
 21
8491.9071910639
 31
0.0
  0
LINE
  5
2A776
330
1E
100
AcDbEntity
  8
1-5_ビス2
  6
かくれ線
 62
     7
 48
0.5
370
    18
100
AcDbLine
 10
2836.379483336422
 20
8516.272191063897
 30
0.0
 11
2836.379483336422
 21
8491.9071910639
 31
0.0
  0
LINE
  5
2A777
330
1E
100
AcDbEntity
  8
1-5_ビス2
  6
かくれ線
 62
     7
 48
0.5
370
    18
100
AcDbLine
 10
2761.379483336423
 20
8516.272191063897
 30
0.0
 11
2761.379483336423
 21
8491.9071910639
 31
0.0
  0
LINE
  5
2BB57
330
1E
100
AcDbEntity
  8
図枠
  6
Continuous
 62
   110
 48
0.5
370
    35
100
AcDbLine
 10
2497.15127171796
 20
8465.826182204525
 30
0.0
 11
2847.15127171796
 21
8465.826182204525
 31
0.0
  0
LINE
  5
2BB58
330
1E
100
AcDbEntity
  8
図枠
  6
Continuous
 62
   110
 48
0.5
370
    35
100
AcDbLine
 10
2497.15127171796
 20
8457.826182204525
 30
0.0
 11
2847.15127171796
 21
8457.826182204525
 31
0.0
  0
MTEXT
  5
2BB59
330
1E
100
AcDbEntity
  8
1-C_文字
  6
Continuous
 62
     3
 48
0.5
370
    18
100
AcDbMText
 10
2801.072297242628
 20
8479.406554454946
 30
0.0
 40
4.0
 41
45.76677447533196
 46
0.0
 71
     1
 72
     1
  1
\P{\H0.75x;図は左勝手(ＬＨ)を示す。}
  7
明朝
 73
     1
 44
1.0
  0
MTEXT
  5
2BB5B
330
1E
100
AcDbEntity
  8
1-C_文字
  6
Continuous
 62
     7
 48
0.5
370
    18
100
AcDbMText
 10
2827.15127171796
 20
8461.826182204523
 30
0.0
 40
3.0
 41
0.0
 46
0.0
 71
     4
 72
     5
  1
１：１
  7
明朝
 73
     1
 44
1.0
  0
MTEXT
  5
2BB5C
330
1E
100
AcDbEntity
  8
1-C_文字
  6
Continuous
 62
     7
 48
0.5
370
    18
100
AcDbMText
 10
2797.151271717961
 20
8461.826182204523
 30
0.0
 40
3.0
 41
0.0
 46
0.0
 71
     4
 72
     5
  1
２.４５ｋｇ
  7
明朝
 73
     1
 44
1.0
  0
MTEXT
  5
2BB5D
330
1E
100
AcDbEntity
  8
1-C_文字
  6
Continuous
 62
     7
 48
0.5
370
    18
100
AcDbMText
 10
2857.15127171796
 20
8461.826182204523
 30
0.0
 40
4.0
 41
0.0
 46
0.0
 71
     4
 72
     5
  1
４２
  7
明朝
 73
     1
 44
1.0
  0
LINE
  5
2BB5F
330
1E
100
AcDbEntity
  8
図枠
  6
Continuous
 62
   110
 48
0.5
370
    35
100
AcDbLine
 10
2847.15127171796
 20
8465.826182204525
 30
0.0
 11
2847.15127171796
 21
8457.826182204525
 31
0.0
  0
MTEXT
  5
2BB60
330
1E
100
AcDbEntity
  8
1-C_文字
  6
Continuous
 62
     7
 48
0.5
370
    18
100
AcDbMText
 10
2792.151271717961
 20
8464.826182204523
 30
0.0
 40
1.5
 41
0.0
 46
0.0
 71
     4
 72
     5
  1
製品重量
  7
明朝
 73
     1
 44
1.0
  0
MTEXT
  5
2BB61
330
1E
100
AcDbEntity
  8
1-C_文字
  6
Continuous
 62
     7
 48
0.5
370
    18
100
AcDbMText
 10
2822.15127171796
 20
8464.826182204523
 30
0.0
 40
1.5
 41
0.0
 46
0.0
 71
     4
 72
     5
  1
縮尺
  7
明朝
 73
     1
 44
1.0
  0
LINE
  5
2BB62
330
1E
100
AcDbEntity
  8
図枠
  6
Continuous
 62
   110
 48
0.5
370
    35
100
AcDbLine
 10
2822.15127171796
 20
8465.826182204525
 30
0.0
 11
2822.15127171796
 21
8457.826182204525
 31
0.0
  0
MTEXT
  5
2BB64
330
1E
100
AcDbEntity
  8
1-C_文字
  6
Continuous
 62
     7
 48
0.5
370
    18
100
AcDbMText
 10
2502.15127171796
 20
8461.826182204523
 30
0.0
 40
3.0
 41
0.0
 46
0.0
 71
     4
 72
     5
  1
いわきエンジニアリング株式会社
  7
明朝
 73
     1
 44
1.0
  0
LINE
  5
2BB66
330
1E
100
AcDbEntity
  8
図枠
  6
Continuous
 62
   110
 48
0.5
370
    35
100
AcDbLine
 10
2497.15127171796
 20
8465.826182204525
 30
0.0
 11
2497.15127171796
 21
8457.826182204525
 31
0.0
  0
MTEXT
  5
2BB69
330
1E
100
AcDbEntity
  8
1-C_文字
  6
Continuous
 62
     7
 48
0.5
370
    18
100
AcDbMText
 10
2647.15127171796
 20
8461.826182204523
 30
0.0
 40
3.0
 41
0.0
 46
0.0
 71
     4
 72
     5
  1
　　　　ソリッドヒンジ
  7
明朝
 73
     1
 44
1.0
  0
MTEXT
  5
2BB6A
330
1E
100
AcDbEntity
  8
1-C_文字
  6
Continuous
 62
     7
 48
0.5
370
    18
100
AcDbMText
 10
2572.15127171796
 20
8461.826182204523
 30
0.0
 40
3.0
 41
0.0
 46
0.0
 71
     4
 72
     5
  1
　　　ＳＯＲ－ＢＦ
  7
明朝
 73
     1
 44
1.0
  0
MTEXT
  5
2BB6B
330
1E
100
AcDbEntity
  8
1-C_文字
  6
Continuous
 62
     7
 48
0.5
370
    18
100
AcDbMText
 10
2642.15127171796
 20
8464.826182204523
 30
0.0
 40
1.5
 41
0.0
 46
0.0
 71
     4
 72
     5
  1
名称
  7
明朝
 73
     1
 44
1.0
  0
LINE
  5
2BB6C
330
1E
100
AcDbEntity
  8
図枠
  6
Continuous
 62
   110
 48
0.5
370
    35
100
AcDbLine
 10
2642.15127171796
 20
8465.826182204525
 30
0.0
 11
2642.15127171796
 21
8457.826182204525
 31
0.0
  0
MTEXT
  5
2BB6D
330
1E
100
AcDbEntity
  8
1-C_文字
  6
Continuous
 62
     7
 48
0.5
370
    18
100
AcDbMText
 10
2567.15127171796
 20
8464.826182204523
 30
0.0
 40
1.5
 41
0.0
 46
0.0
 71
     4
 72
     5
  1
形式
  7
明朝
 73
     1
 44
1.0
  0
LINE
  5
2BB6E
330
1E
100
AcDbEntity
  8
図枠
  6
Continuous
 62
   110
 48
0.5
370
    35
100
AcDbLine
 10
2567.15127171796
 20
8465.826182204525
 30
0.0
 11
2567.15127171796
 21
8457.826182204525
 31
0.0
  0
TEXT
  5
2BB70
330
1E
100
AcDbEntity
  8
1-C_文字
  6
Continuous
 62
     7
 48
0.5
370
    18
100
AcDbText
 10
2668.60117957523
 20
8730.784739902816
 30
0.0
 40
5.0
  1
ＳＯＲ-ＢＦ
  7
明朝
 72
     1
 11
2686.469199879799
 21
8733.284739902817
 31
0.0
100
AcDbText
 73
     2
  0
MTEXT
  5
2BB72
330
1E
100
AcDbEntity
  8
1-C_文字
  6
Continuous
 62
     7
 48
0.5
370
    18
100
AcDbMText
 10
2722.15127171796
 20
8461.826182204523
 30
0.0
 40
3.0
 41
0.0
 46
0.0
 71
     4
 72
     5
  1
　　ステンレス　ヘアライン
  7
明朝
 73
     1
 44
1.0
  0
MTEXT
  5
2BB73
330
1E
100
AcDbEntity
  8
1-C_文字
  6
Continuous
 62
     7
 48
0.5
370
    18
100
AcDbMText
 10
2717.15127171796
 20
8464.826182204523
 30
0.0
 40
1.5
 41
0.0
 46
0.0
 71
     4
 72
     5
  1
材料・仕上
  7
明朝
 73
     1
 44
1.0
  0
LINE
  5
2BB74
330
1E
100
AcDbEntity
  8
図枠
  6
Continuous
 62
   110
 48
0.5
370
    35
100
AcDbLine
 10
2717.15127171796
 20
8465.826182204525
 30
0.0
 11
2717.15127171796
 21
8457.826182204525
 31
0.0
  0
LINE
  5
2BB75
330
1E
100
AcDbEntity
  8
図枠
  6
Continuous
 62
   110
 48
0.5
370
    35
100
AcDbLine
 10
2792.151271717961
 20
8465.826182204525
 30
0.0
 11
2792.151271717961
 21
8457.826182204525
 31
0.0
  0
DIMENSION
  5
2C0CB
330
1E
100
AcDbEntity
  8
1-B_寸法
  6
Continuous
 62
     3
 48
0.5
370
    18
100
AcDbDimension
280
     0
  2
*D7
 10
2506.151271717961
 20
8495.828275076396
 30
0.0
 11
2506.15127171796
 21
8599.828275076395
 31
0.0
 70
   160
 71
     5
 42
208.0
 73
     0
 74
     0
 75
     0
  3
ISO-25
100
AcDbAlignedDimension
 13
2533.651271717961
 23
8703.828275076395
 33
0.0
 14
2528.651271717959
 24
8495.828275076396
 34
0.0
 50
270.0
100
AcDbRotatedDimension
  0
LINE
  5
2C0CC
330
1E
100
AcDbEntity
  8
1-0_本体
  6
Continuous
 62
     7
 48
0.5
370
    35
100
AcDbLine
 10
2529.651271717959
 20
8645.828275076395
 30
0.0
 11
2533.651271717959
 21
8645.828275076395
 31
0.0
  0
LINE
  5
2C0CD
330
1E
100
AcDbEntity
  8
1-0_本体
  6
Continuous
 62
     7
 48
0.5
370
    35
100
AcDbLine
 10
2528.651271717959
 20
8496.828275076396
 30
0.0
 11
2528.651271717959
 21
8644.828275076395
 31
0.0
  0
DIMENSION
  5
2C0CE
330
1E
100
AcDbEntity
  8
1-B_寸法
  6
Continuous
 62
     3
 48
0.5
370
    18
100
AcDbDimension
280
     0
  2
*D13
 10
2521.15127171796
 20
8645.828275076395
 30
0.0
 11
2521.151271717958
 21
8640.828275076396
 31
0.0
 70
   160
 71
     5
 42
10.0
 73
     0
 74
     0
 75
     0
  3
ISO-25
100
AcDbAlignedDimension
 13
2528.651271717959
 23
8635.828275076397
 33
0.0
 14
2528.651271717959
 24
8645.828275076395
 34
0.0
 50
90.0
100
AcDbRotatedDimension
  0
ARC
  5
2C0CF
330
1E
100
AcDbEntity
  8
1-0_本体
  6
Continuous
 62
     7
 48
0.5
370
    35
100
AcDbCircle
 10
2529.651271717959
 20
8644.828275076395
 30
0.0
 40
1.0
100
AcDbArc
 50
90.0
 51
180.0
  0
DIMENSION
  5
2C0D0
330
1E
100
AcDbEntity
  8
1-B_寸法
  6
Continuous
 62
     3
 48
0.5
370
    18
100
AcDbDimension
280
     0
  2
*D14
 10
2513.65127171796
 20
8495.828275076396
 30
0.0
 11
2513.651271717959
 21
8570.828275076395
 31
0.0
 70
   160
 71
     5
 42
150.0
 73
     0
 74
     0
 75
     0
  3
ISO-25
100
AcDbAlignedDimension
 13
2529.651271717959
 23
8645.828275076395
 33
0.0
 14
2528.651271717959
 24
8495.828275076396
 34
0.0
 50
270.0
100
AcDbRotatedDimension
  0
LINE
  5
2C0D1
330
1E
100
AcDbEntity
  8
1-0_本体
  6
Continuous
 62
     7
 48
0.5
370
    35
100
AcDbLine
 10
2713.65127171796
 20
8703.828275076395
 30
0.0
 11
2534.65127171796
 21
8703.828275076395
 31
0.0
  0
LINE
  5
2C0D2
330
1E
100
AcDbEntity
  8
1-1_本体2
  6
かくれ線
 62
     7
 48
0.5
370
    18
100
AcDbLine
 10
2538.651271717959
 20
8663.828275076395
 30
0.0
 11
2558.651271717959
 21
8663.828275076395
 31
0.0
  0
LINE
  5
2C0D3
330
1E
100
AcDbEntity
  8
1-1_本体2
  6
かくれ線
 62
     7
 48
0.5
370
    18
100
AcDbLine
 10
2533.651271717959
 20
8645.828275076395
 30
0.0
 11
2567.651271717958
 21
8645.828275076395
 31
0.0
  0
LINE
  5
2C0D5
330
1E
100
AcDbEntity
  8
1-1_本体2
  6
かくれ線
 62
     7
 48
0.5
370
    18
100
AcDbLine
 10
2557.651271717959
 20
8693.828275076397
 30
0.0
 11
2539.651271717959
 21
8693.828275076397
 31
0.0
  0
LINE
  5
2C0D6
330
1E
100
AcDbEntity
  8
1-0_本体
  6
Continuous
 62
     7
 48
0.5
370
    35
100
AcDbLine
 10
2533.65127171796
 20
8702.828275076397
 30
0.0
 11
2533.651271717959
 21
8598.828275076396
 31
0.0
  0
ARC
  5
2C0D7
330
1E
100
AcDbEntity
  8
1-0_本体
  6
Continuous
 62
     7
 48
0.5
370
    35
100
AcDbCircle
 10
2534.651271717961
 20
8702.828275076397
 30
0.0
 40
1.0
100
AcDbArc
 50
90.0
 51
180.0
  0
LINE
  5
2C0D9
330
1E
100
AcDbEntity
  8
1-1_本体2
  6
かくれ線
 62
     7
 48
0.5
370
    18
100
AcDbLine
 10
2539.651271717959
 20
8704.828275076396
 30
0.0
 11
2539.651271717959
 21
8663.828275076395
 31
0.0
  0
LINE
  5
2C0DA
330
1E
100
AcDbEntity
  8
1-1_本体2
  6
かくれ線
 62
     7
 48
0.5
370
    18
100
AcDbLine
 10
2538.651271717959
 20
8703.828275076395
 30
0.0
 11
2538.651271717959
 21
8663.828275076395
 31
0.0
  0
HATCH
  5
2C0DB
330
1E
100
AcDbEntity
  8
1-1_本体2
  6
かくれ線
 62
     7
 48
0.5
370
    18
100
AcDbHatch
 10
0.0
 20
0.0
 30
0.0
210
0.0
220
0.0
230
1.0
  2
ANSI32
 70
     0
 71
     0
 91
        6
 92
        7
 72
     1
 73
     1
 93
        4
 10
2539.651271717959
 20
8711.291699024272
 42
0.0
 10
2538.651271717959
 20
8711.291699024272
 42
0.0
 10
2538.651271717959
 20
8699.245669024273
 42
-0.0313422145926801
 10
2539.651271717959
 20
8699.182922957467
 42
0.0
 97
        0
 92
        7
 72
     1
 73
     1
 93
        4
 10
2539.651271717959
 20
8699.182922957467
 42
0.0313422145926801
 10
2538.651271717959
 20
8699.245669024273
 42
0.0
 10
2538.651271717959
 20
8695.245669024272
 42
0.0
 10
2539.651271717959
 20
8695.245669024272
 42
0.0
 97
        0
 92
        7
 72
     0
 73
     1
 93
        4
 10
2539.651271717959
 20
8695.245669024272
 10
2538.651271717959
 20
8695.245669024272
 10
2538.651271717959
 20
8691.245669024272
 10
2539.651271717959
 20
8691.245669024272
 97
        0
 92
        7
 72
     0
 73
     1
 93
        5
 10
2539.651271717957
 20
8688.745669024273
 10
2539.651271717958
 20
8691.245669024272
 10
2538.651271717959
 20
8691.24566902427
 10
2538.651271717959
 20
8687.245669024273
 10
2539.651271717957
 20
8687.245669024274
 97
        0
 92
        7
 72
     1
 73
     1
 93
        4
 10
2539.651271717959
 20
8687.245669024273
 42
0.0
 10
2538.651271717959
 20
8687.245669024273
 42
0.0
 10
2538.651271717959
 20
8683.245669024271
 42
0.0313422145926801
 10
2539.651271717959
 20
8683.308415091078
 42
0.0
 97
        0
 92
        7
 72
     1
 73
     1
 93
        5
 10
2539.651271717959
 20
8683.308415091078
 42
-0.0313422145926801
 10
2538.651271717959
 20
8683.245669024271
 42
0.0
 10
2538.651271717959
 20
8681.306281513597
 42
0.0
 10
2538.651271717959
 20
8668.291699024271
 42
0.0
 10
2539.651271717959
 20
8668.291699024271
 42
0.0
 97
        0
 75
     0
 76
     1
 52
0.0
 41
30.0
 77
     0
 78
     2
 53
45.0
 43
-13.70837681451076
 44
56.84390337268178
 45
-7.954951288348659
 46
7.95495128834866
 79
     0
 53
45.0
 43
-8.405075964510615
 44
56.84390337268178
 45
-7.954951288348659
 46
7.95495128834866
 79
     0
 47
0.0494255678530876
 98
        6
 10
2539.129768011668
 20
8704.087516106204
 10
2539.18479311552
 20
8696.803047193453
 10
2539.164550719825
 20
8692.762942540028
 10
2539.164550719825
 20
8688.611161757034
 10
2539.164550719825
 20
8683.76744949076
 10
2539.164835823975
 20
8679.604539471482
  0
MTEXT
  5
2C0DD
330
1E
100
AcDbEntity
  8
1-C_文字
  6
Continuous
 62
     3
 48
0.5
370
    18
100
AcDbMText
 10
2571.978311728271
 20
8687.835942941012
 30
0.0
 40
3.0
 41
16.4028
 46
0.0
 71
     1
 72
     1
  1
固定ネジ
  7
明朝
 73
     1
 44
1.0
  0
LEADER
  5
2C0DE
330
1E
100
AcDbEntity
  8
1-C_文字
  6
Continuous
 62
     3
 48
0.5
370
    18
100
AcDbLeader
  3
ISO-25
 76
     3
 10
2548.651271717959
 20
8698.828275076396
 30
0.0
 10
2570.351276717958
 20
8686.079522138896
 30
0.0
 10
2571.851271717959
 20
8686.079522138896
 30
0.0
211
0.999862615292127
221
0.0165756007791102
231
0.0
213
0.0497268023373306
223
-2.999587845876379
233
0.0
1001
ACAD
1000
DSTYLE
1002
{
1070
    41
1040
3.0
1070
   147
1040
0.625
1070
    77
1070
     0
1002
}
  0
LEADER
  5
2C0DF
330
1E
100
AcDbEntity
  8
1-C_文字
  6
Continuous
 62
     3
 48
0.5
370
    18
100
AcDbLeader
  3
ISO-25
 76
     3
 10
2548.651271717959
 20
8650.828275076396
 30
0.0
 10
2570.351276717958
 20
8686.079522138896
 30
0.0
 10
2571.851271717959
 20
8686.079522138896
 30
0.0
213
0.4887030621313212
223
66.40139146022011
233
0.0
1001
ACAD
1000
DSTYLE
1002
{
1070
    41
1040
3.0
1070
   147
1040
0.625
1070
    77
1070
     0
1002
}
  0
LINE
  5
2C119
330
1E
100
AcDbEntity
  8
1-A_中心
  6
中心線
 62
     6
 48
0.25
370
    18
100
AcDbLine
 10
2558.651271717958
 20
8626.828275076396
 30
0.0
 11
2558.651271717959
 21
8644.828275076397
 31
0.0
  0
DIMENSION
  5
2C11B
330
1E
100
AcDbEntity
  8
1-B_寸法
  6
Continuous
 62
     3
 48
0.5
370
    18
100
AcDbDimension
280
     0
  2
*D18
 10
2723.151271717961
 20
8615.828275076395
 30
0.0
 11
2723.15127171796
 21
8650.828275076396
 31
0.0
 70
   160
 71
     5
 42
70.0
 73
     0
 74
     0
 75
     0
  3
ISO-25
100
AcDbAlignedDimension
 13
2715.651271717959
 23
8685.828275076396
 33
0.0
 14
2715.651271717959
 24
8615.828275076395
 34
0.0
 50
270.0
100
AcDbRotatedDimension
  0
DIMENSION
  5
2C11C
330
1E
100
AcDbEntity
  8
1-B_寸法
  6
Continuous
 62
     3
 48
0.5
370
    18
100
AcDbDimension
280
     0
  2
*D19
 10
2730.651271717962
 20
8597.828275076395
 30
0.0
 11
2730.651271717961
 21
8650.828275076396
 31
0.0
 70
   160
 71
     5
 42
106.0
 73
     0
 74
     0
 75
     0
  3
ISO-25
100
AcDbAlignedDimension
 13
2715.651271717959
 23
8703.828275076395
 33
0.0
 14
2715.651271717959
 24
8597.828275076395
 34
0.0
 50
270.0
100
AcDbRotatedDimension
  0
DIMENSION
  5
2C11D
330
1E
100
AcDbEntity
  8
1-B_寸法
  6
Continuous
 62
     3
 48
0.5
370
    18
100
AcDbDimension
280
     0
  2
*D20
 10
2618.65127171796
 20
8711.328275076397
 30
0.0
 11
2583.651271717959
 21
8711.328275076397
 31
0.0
 70
   160
 71
     5
 42
70.00000000000091
 73
     0
 74
     0
 75
     0
  3
ISO-25
100
AcDbAlignedDimension
 13
2548.651271717959
 23
8703.828275076395
 33
0.0
 14
2618.65127171796
 24
8703.828275076396
 34
0.0
100
AcDbRotatedDimension
  0
DIMENSION
  5
2C11E
330
1E
100
AcDbEntity
  8
1-B_寸法
  6
Continuous
 62
     3
 48
0.5
370
    18
100
AcDbDimension
280
     0
  2
*D21
 10
2548.651271717959
 20
8718.828275076395
 30
0.0
 11
2632.151271717959
 21
8718.828275076395
 31
0.0
 70
   160
 71
     5
 42
167.0000000000009
 73
     0
 74
     0
 75
     0
  3
ISO-25
100
AcDbAlignedDimension
 13
2715.651271717959
 23
8703.828275076395
 33
0.0
 14
2548.651271717959
 24
8706.828275076395
 34
0.0
100
AcDbRotatedDimension
  0
LINE
  5
2C11F
330
1E
100
AcDbEntity
  8
1-5_ビス2
  6
かくれ線
 62
     7
 48
0.5
370
    18
100
AcDbLine
 10
2549.465241788251
 20
8700.078275076394
 30
0.0
 11
2547.837301647668
 21
8700.078275076396
 31
0.0
  0
LINE
  5
2C120
330
1E
100
AcDbEntity
  8
1-5_ビス2
  6
かくれ線
 62
     7
 48
0.5
370
    18
100
AcDbLine
 10
2547.837301647664
 20
8697.578275076395
 30
0.0
 11
2549.465241788249
 21
8697.578275076393
 31
0.0
  0
LINE
  5
2C121
330
1E
100
AcDbEntity
  8
1-1_本体2
  6
かくれ線
 62
     7
 48
0.5
370
    18
100
AcDbLine
 10
2568.651271717959
 20
8597.828275076395
 30
0.0
 11
2568.651271717959
 21
8644.828275076395
 31
0.0
  0
LINE
  5
2C122
330
1E
100
AcDbEntity
  8
1-1_本体2
  6
かくれ線
 62
     7
 48
0.5
370
    18
100
AcDbLine
 10
2553.651271717959
 20
8689.328275076396
 30
0.0
 11
2554.651271717959
 21
8688.328275076395
 31
0.0
  0
LINE
  5
2C123
330
1E
100
AcDbEntity
  8
1-1_本体2
  6
かくれ線
 62
     7
 48
0.5
370
    18
100
AcDbLine
 10
2543.651271717959
 20
8689.328275076396
 30
0.0
 11
2553.651271717959
 21
8689.328275076396
 31
0.0
  0
LINE
  5
2C124
330
1E
100
AcDbEntity
  8
1-1_本体2
  6
かくれ線
 62
     7
 48
0.5
370
    18
100
AcDbLine
 10
2543.651271717959
 20
8689.328275076396
 30
0.0
 11
2543.651271717959
 21
8639.328275076396
 31
0.0
  0
LINE
  5
2C125
330
1E
100
AcDbEntity
  8
1-1_本体2
  6
かくれ線
 62
     7
 48
0.5
370
    18
100
AcDbLine
 10
2553.651271717959
 20
8689.328275076396
 30
0.0
 11
2553.651271717959
 21
8639.328275076396
 31
0.0
  0
ARC
  5
2C126
330
1E
100
AcDbEntity
  8
1-0_本体
  6
Continuous
 62
     7
 48
0.5
370
    35
100
AcDbCircle
 10
2713.65127171796
 20
8701.828275076396
 30
0.0
 40
2.0
100
AcDbArc
 50
0.0
 51
90.0
  0
CIRCLE
  5
2C127
330
1E
100
AcDbEntity
  8
1-5_ビス2
  6
かくれ線
 62
     7
 48
0.5
370
    18
100
AcDbCircle
 10
2548.651271717959
 20
8698.828275076396
 30
0.0
 40
2.5
  0
LINE
  5
2C129
330
1E
100
AcDbEntity
  8
1-A_中心
  6
中心線
 62
     6
 48
0.25
370
    18
100
AcDbLine
 10
2548.651271717959
 20
8708.828275076395
 30
0.0
 11
2548.651271717959
 21
8493.828275076396
 31
0.0
  0
DIMENSION
  5
2C12A
330
1E
100
AcDbEntity
  8
1-B_寸法
  6
Continuous
 62
     3
 48
0.5
370
    18
100
AcDbDimension
280
     0
  2
*D22
 10
2656.15127171796
 20
8711.328275076397
 30
0.0
 11
2637.40127171796
 21
8711.328275076397
 31
0.0
 70
   160
 71
     5
 42
37.5
 73
     0
 74
     0
 75
     0
  3
ISO-25
100
AcDbAlignedDimension
 13
2618.65127171796
 23
8703.828275076396
 33
0.0
 14
2656.15127171796
 24
8703.828275076395
 34
0.0
100
AcDbRotatedDimension
  0
DIMENSION
  5
2C12B
330
1E
100
AcDbEntity
  8
1-B_寸法
  6
Continuous
 62
     3
 48
0.5
370
    18
100
AcDbDimension
280
     0
  2
*D23
 10
2693.65127171796
 20
8711.328275076395
 30
0.0
 11
2674.90127171796
 21
8711.328275076395
 31
0.0
 70
   160
 71
     5
 42
37.5
 73
     0
 74
     0
 75
     0
  3
ISO-25
100
AcDbAlignedDimension
 13
2656.15127171796
 23
8703.828275076395
 33
0.0
 14
2693.65127171796
 24
8703.828275076395
 34
0.0
100
AcDbRotatedDimension
  0
ARC
  5
2C12C
330
1E
100
AcDbEntity
  8
1-1_本体2
  6
かくれ線
 62
     7
 48
0.5
370
    18
100
AcDbCircle
 10
2567.651271717959
 20
8644.828275076395
 30
0.0
 40
1.0
100
AcDbArc
 50
0.0
 51
90.0
  0
LINE
  5
2C12D
330
1E
100
AcDbEntity
  8
1-0_本体
  6
Continuous
 62
     7
 48
0.5
370
    35
100
AcDbLine
 10
2563.651271717957
 20
8703.828275076395
 30
0.0
 11
2563.651271717958
 21
8597.828275076395
 31
0.0
  0
LINE
  5
2C12F
330
1E
100
AcDbEntity
  8
1-1_本体2
  6
かくれ線
 62
     7
 48
0.5
370
    18
100
AcDbLine
 10
2557.651271717959
 20
8704.828275076396
 30
0.0
 11
2557.651271717959
 21
8663.828275076395
 31
0.0
  0
LINE
  5
2C130
330
1E
100
AcDbEntity
  8
1-1_本体2
  6
かくれ線
 62
     7
 48
0.5
370
    18
100
AcDbLine
 10
2558.651271717959
 20
8703.828275076395
 30
0.0
 11
2558.651271717959
 21
8663.828275076395
 31
0.0
  0
LINE
  5
2C131
330
1E
100
AcDbEntity
  8
1-1_本体2
  6
かくれ線
 62
     7
 48
0.5
370
    18
100
AcDbLine
 10
2554.651271717959
 20
8688.328275076395
 30
0.0
 11
2554.651271717959
 21
8640.328275076397
 31
0.0
  0
CIRCLE
  5
2C132
330
1E
100
AcDbEntity
  8
1-5_ビス2
  6
かくれ線
 62
     7
 48
0.5
370
    18
100
AcDbCircle
 10
2548.651271717959
 20
8650.828275076396
 30
0.0
 40
2.5
  0
CIRCLE
  5
2C133
330
1E
100
AcDbEntity
  8
1-5_ビス2
  6
かくれ線
 62
     7
 48
0.5
370
    18
100
AcDbCircle
 10
2558.651271717958
 20
8635.808840165021
 30
0.0
 40
8.0
  0
LINE
  5
2C134
330
1E
100
AcDbEntity
  8
1-0_本体
  6
Continuous
 62
     7
 48
0.5
370
    35
100
AcDbLine
 10
2715.651271717959
 20
8599.828275076395
 30
0.0
 11
2715.651271717959
 21
8701.828275076396
 31
0.0
  0
HATCH
  5
2C135
330
1E
100
AcDbEntity
  8
1-1_本体2
  6
かくれ線
 62
     7
 48
0.5
370
    18
100
AcDbHatch
 10
0.0
 20
0.0
 30
0.0
210
0.0
220
0.0
230
1.0
  2
ANSI32
 70
     0
 71
     0
 91
        6
 92
        7
 72
     1
 73
     1
 93
        4
 10
2558.651271717959
 20
8711.291699024272
 42
0.0
 10
2557.651271717959
 20
8711.291699024272
 42
0.0
 10
2557.651271717959
 20
8699.245669024273
 42
-0.0313422145926801
 10
2558.651271717959
 20
8699.182922957467
 42
0.0
 97
        0
 92
        7
 72
     1
 73
     1
 93
        4
 10
2558.651271717959
 20
8699.182922957467
 42
0.0313422145926801
 10
2557.651271717959
 20
8699.245669024273
 42
0.0
 10
2557.651271717959
 20
8695.245669024272
 42
0.0
 10
2558.651271717959
 20
8695.245669024272
 42
0.0
 97
        0
 92
        7
 72
     0
 73
     1
 93
        4
 10
2558.651271717959
 20
8695.245669024272
 10
2557.651271717959
 20
8695.245669024272
 10
2557.651271717959
 20
8691.245669024272
 10
2558.651271717959
 20
8691.245669024272
 97
        0
 92
        7
 72
     0
 73
     1
 93
        5
 10
2558.651271717957
 20
8688.745669024273
 10
2558.651271717958
 20
8691.245669024272
 10
2557.651271717959
 20
8691.24566902427
 10
2557.651271717959
 20
8687.245669024273
 10
2558.651271717957
 20
8687.245669024274
 97
        0
 92
        7
 72
     1
 73
     1
 93
        4
 10
2558.651271717959
 20
8687.245669024273
 42
0.0
 10
2557.651271717959
 20
8687.245669024273
 42
0.0
 10
2557.651271717959
 20
8683.245669024271
 42
0.0313422145926801
 10
2558.651271717959
 20
8683.308415091078
 42
0.0
 97
        0
 92
        7
 72
     1
 73
     1
 93
        5
 10
2558.651271717959
 20
8683.308415091078
 42
-0.0313422145926801
 10
2557.651271717959
 20
8683.245669024271
 42
0.0
 10
2557.651271717959
 20
8681.306281513597
 42
0.0
 10
2557.651271717959
 20
8668.291699024271
 42
0.0
 10
2558.651271717959
 20
8668.291699024271
 42
0.0
 97
        0
 75
     0
 76
     1
 52
0.0
 41
30.0
 77
     0
 78
     2
 53
45.0
 43
5.291623185489243
 44
56.84390337268178
 45
-7.954951288348659
 46
7.95495128834866
 79
     0
 53
45.0
 43
10.59492403548938
 44
56.84390337268178
 45
-7.954951288348659
 46
7.95495128834866
 79
     0
 47
0.0494255678530876
 98
        6
 10
2558.129768011668
 20
8704.087516106204
 10
2558.18479311552
 20
8696.803047193453
 10
2558.164550719825
 20
8692.762942540028
 10
2558.164550719825
 20
8688.611161757034
 10
2558.164550719825
 20
8683.76744949076
 10
2558.164835823975
 20
8679.604539471482
  0
LINE
  5
2C138
330
1E
100
AcDbEntity
  8
1-5_ビス2
  6
かくれ線
 62
     7
 48
0.5
370
    18
100
AcDbLine
 10
2549.993551788251
 20
8698.828275076392
 30
0.0
 11
2549.465241788251
 21
8700.078275076394
 31
0.0
  0
LINE
  5
2C139
330
1E
100
AcDbEntity
  8
1-5_ビス2
  6
かくれ線
 62
     7
 48
0.5
370
    18
100
AcDbLine
 10
2549.993551788251
 20
8698.828275076394
 30
0.0
 11
2549.465241788249
 21
8697.578275076393
 31
0.0
  0
LINE
  5
2C13A
330
1E
100
AcDbEntity
  8
1-5_ビス2
  6
かくれ線
 62
     7
 48
0.5
370
    18
100
AcDbLine
 10
2547.308991647667
 20
8698.828275076396
 30
0.0
 11
2547.837301647663
 21
8697.578275076395
 31
0.0
  0
LINE
  5
2C13B
330
1E
100
AcDbEntity
  8
1-5_ビス2
  6
かくれ線
 62
     7
 48
0.5
370
    18
100
AcDbLine
 10
2547.308991647665
 20
8698.828275076396
 30
0.0
 11
2547.83730164767
 21
8700.078275076396
 31
0.0
  0
LINE
  5
2C13C
330
1E
100
AcDbEntity
  8
1-5_ビス2
  6
かくれ線
 62
     7
 48
0.5
370
    18
100
AcDbLine
 10
2547.308991647665
 20
8650.828275076396
 30
0.0
 11
2547.83730164767
 21
8652.078275076396
 31
0.0
  0
LINE
  5
2C13D
330
1E
100
AcDbEntity
  8
1-5_ビス2
  6
かくれ線
 62
     7
 48
0.5
370
    18
100
AcDbLine
 10
2549.993551788251
 20
8650.828275076392
 30
0.0
 11
2549.465241788251
 21
8652.078275076394
 31
0.0
  0
LINE
  5
2C13E
330
1E
100
AcDbEntity
  8
1-5_ビス2
  6
かくれ線
 62
     7
 48
0.5
370
    18
100
AcDbLine
 10
2547.308991647667
 20
8650.828275076396
 30
0.0
 11
2547.837301647663
 21
8649.578275076395
 31
0.0
  0
LINE
  5
2C13F
330
1E
100
AcDbEntity
  8
1-5_ビス2
  6
かくれ線
 62
     7
 48
0.5
370
    18
100
AcDbLine
 10
2549.993551788251
 20
8650.828275076394
 30
0.0
 11
2549.465241788249
 21
8649.578275076393
 31
0.0
  0
LINE
  5
2C140
330
1E
100
AcDbEntity
  8
1-5_ビス2
  6
かくれ線
 62
     7
 48
0.5
370
    18
100
AcDbLine
 10
2547.837301647664
 20
8649.578275076395
 30
0.0
 11
2549.465241788249
 21
8649.578275076393
 31
0.0
  0
LINE
  5
2C141
330
1E
100
AcDbEntity
  8
1-5_ビス2
  6
かくれ線
 62
     7
 48
0.5
370
    18
100
AcDbLine
 10
2549.465241788251
 20
8652.078275076394
 30
0.0
 11
2547.837301647668
 21
8652.078275076396
 31
0.0
  0
LINE
  5
2C146
330
1E
100
AcDbEntity
  8
1-1_本体2
  6
かくれ線
 62
     7
 48
0.5
370
    18
100
AcDbLine
 10
2542.651271717959
 20
8688.328275076395
 30
0.0
 11
2542.651271717959
 21
8640.328275076397
 31
0.0
  0
LINE
  5
2C147
330
1E
100
AcDbEntity
  8
1-1_本体2
  6
かくれ線
 62
     7
 48
0.5
370
    18
100
AcDbLine
 10
2543.651271717959
 20
8689.328275076396
 30
0.0
 11
2542.651271717959
 21
8688.328275076395
 31
0.0
  0
LINE
  5
2C148
330
1E
100
AcDbEntity
  8
1-1_本体2
  6
かくれ線
 62
     7
 48
0.5
370
    18
100
AcDbLine
 10
2542.651271717959
 20
8688.328275076395
 30
0.0
 11
2554.651271717959
 21
8688.328275076395
 31
0.0
  0
LINE
  5
2C149
330
1E
100
AcDbEntity
  8
1-0_本体
  6
Continuous
 62
     7
 48
0.5
370
    18
100
AcDbLine
 10
2556.651271717959
 20
8703.828275076395
 30
0.0
 11
2540.651271717959
 21
8703.828275076395
 31
0.0
  0
LINE
  5
2C14A
330
1E
100
AcDbEntity
  8
1-0_本体
  6
Continuous
 62
     7
 48
0.5
370
    18
100
AcDbLine
 10
2541.651271717959
 20
8703.828275076395
 30
0.0
 11
2555.651271717959
 21
8703.828275076395
 31
0.0
  0
LINE
  5
2C14E
330
1E
100
AcDbEntity
  8
1-A_中心
  6
中心線
 62
     6
 48
0.25
370
    18
100
AcDbLine
 10
2529.651271717957
 20
8620.828275076396
 30
0.0
 11
2547.651271717957
 21
8620.828275076396
 31
0.0
  0
DIMENSION
  5
2C14F
330
1E
100
AcDbEntity
  8
1-B_寸法
  6
Continuous
 62
     3
 48
0.5
370
    18
100
AcDbDimension
280
     0
  2
*D11
 10
2521.15127171796
 20
8605.828275076396
 30
0.0
 11
2521.151271717958
 21
8613.328275076396
 31
0.0
 70
   160
 71
     5
 42
15.0
 73
     0
 74
     0
 75
     0
  3
ISO-25
100
AcDbAlignedDimension
 13
2528.651271717959
 23
8620.828275076396
 33
0.0
 14
2528.651271717959
 24
8605.828275076396
 34
0.0
 50
270.0
100
AcDbRotatedDimension
  0
DIMENSION
  5
2C150
330
1E
100
AcDbEntity
  8
1-B_寸法
  6
Continuous
 62
     3
 48
0.5
370
    18
100
AcDbDimension
280
     0
  2
*D12
 10
2521.15127171796
 20
8635.828275076397
 30
0.0
 11
2521.151271717958
 21
8628.328275076396
 31
0.0
 70
   160
 71
     5
 42
15.0
 73
     0
 74
     0
 75
     0
  3
ISO-25
100
AcDbAlignedDimension
 13
2528.651271717959
 23
8620.828275076396
 33
0.0
 14
2528.651271717959
 24
8635.828275076397
 34
0.0
 50
90.0
100
AcDbRotatedDimension
  0
ARC
  5
2C151
330
1E
100
AcDbEntity
  8
1-5_ビス2
  6
かくれ線
 62
     7
 48
0.5
370
    18
100
AcDbCircle
 10
2541.151271717958
 20
8618.328275076395
 30
0.0
 40
1.5
100
AcDbArc
 50
90.0
 51
180.0
  0
ARC
  5
2C152
330
1E
100
AcDbEntity
  8
1-5_ビス2
  6
かくれ線
 62
     7
 48
0.5
370
    18
100
AcDbCircle
 10
2541.151271717958
 20
8623.328275076396
 30
0.0
 40
1.5
100
AcDbArc
 50
180.0
 51
270.0
  0
ARC
  5
2C153
330
1E
100
AcDbEntity
  8
1-5_ビス2
  6
かくれ線
 62
     7
 48
0.5
370
    18
100
AcDbCircle
 10
2538.651271717957
 20
8620.828275076396
 30
0.0
 40
8.0
100
AcDbArc
 50
231.3178125465233
 51
128.6821874534767
  0
LINE
  5
2C154
330
1E
100
AcDbEntity
  8
1-1_本体2
  6
かくれ線
 62
     7
 48
0.5
370
    18
100
AcDbLine
 10
2539.651271717959
 20
8637.828275076397
 30
0.0
 11
2539.651271717959
 21
8596.828275076395
 31
0.0
  0
LINE
  5
2C155
330
1E
100
AcDbEntity
  8
1-1_本体2
  6
かくれ線
 62
     7
 48
0.5
370
    18
100
AcDbLine
 10
2538.651271717959
 20
8637.828275076397
 30
0.0
 11
2538.651271717959
 21
8597.828275076395
 31
0.0
  0
ARC
  5
2C156
330
1E
100
AcDbEntity
  8
1-5_ビス2
  6
かくれ線
 62
     7
 48
0.5
370
    18
100
AcDbCircle
 10
2536.151271717957
 20
8623.328275076396
 30
0.0
 40
1.5
100
AcDbArc
 50
270.0
 51
0.0
  0
LINE
  5
2C157
330
1E
100
AcDbEntity
  8
1-5_ビス2
  6
かくれ線
 62
     7
 48
0.5
370
    18
100
AcDbLine
 10
2536.151271717957
 20
8621.828275076396
 30
0.0
 11
2534.651271717957
 21
8621.828275076396
 31
0.0
  0
LINE
  5
2C158
330
1E
100
AcDbEntity
  8
1-5_ビス2
  6
かくれ線
 62
     7
 48
0.5
370
    18
100
AcDbLine
 10
2534.651271717957
 20
8621.828275076396
 30
0.0
 11
2534.651271717957
 21
8619.828275076395
 31
0.0
  0
ARC
  5
2C159
330
1E
100
AcDbEntity
  8
1-5_ビス2
  6
かくれ線
 62
     7
 48
0.5
370
    18
100
AcDbCircle
 10
2536.151271717957
 20
8618.328275076395
 30
0.0
 40
1.5
100
AcDbArc
 50
0.0
 51
90.0
  0
LINE
  5
2C15A
330
1E
100
AcDbEntity
  8
1-5_ビス2
  6
かくれ線
 62
     7
 48
0.5
370
    18
100
AcDbLine
 10
2536.151271717957
 20
8619.828275076395
 30
0.0
 11
2534.651271717957
 21
8619.828275076395
 31
0.0
  0
LINE
  5
2C15B
330
1E
100
AcDbEntity
  8
1-5_ビス2
  6
かくれ線
 62
     7
 48
0.5
370
    18
100
AcDbLine
 10
2539.651271717957
 20
8618.328275076395
 30
0.0
 11
2539.651271717957
 21
8616.828275076397
 31
0.0
  0
LINE
  5
2C15C
330
1E
100
AcDbEntity
  8
1-5_ビス2
  6
かくれ線
 62
     7
 48
0.5
370
    18
100
AcDbLine
 10
2537.651271717957
 20
8616.828275076397
 30
0.0
 11
2539.651271717957
 21
8616.828275076397
 31
0.0
  0
LINE
  5
2C15D
330
1E
100
AcDbEntity
  8
1-5_ビス2
  6
かくれ線
 62
     7
 48
0.5
370
    18
100
AcDbLine
 10
2539.651271717957
 20
8623.328275076396
 30
0.0
 11
2539.651271717957
 21
8624.828275076396
 31
0.0
  0
LINE
  5
2C15E
330
1E
100
AcDbEntity
  8
1-5_ビス2
  6
かくれ線
 62
     7
 48
0.5
370
    18
100
AcDbLine
 10
2537.651271717957
 20
8624.828275076396
 30
0.0
 11
2539.651271717957
 21
8624.828275076396
 31
0.0
  0
LINE
  5
2C15F
330
1E
100
AcDbEntity
  8
1-5_ビス2
  6
かくれ線
 62
     7
 48
0.5
370
    18
100
AcDbLine
 10
2537.651271717957
 20
8618.328275076395
 30
0.0
 11
2537.651271717957
 21
8616.828275076397
 31
0.0
  0
LINE
  5
2C160
330
1E
100
AcDbEntity
  8
1-5_ビス2
  6
かくれ線
 62
     7
 48
0.5
370
    18
100
AcDbLine
 10
2537.651271717957
 20
8623.328275076396
 30
0.0
 11
2537.651271717957
 21
8624.828275076396
 31
0.0
  0
HATCH
  5
2C161
330
1E
100
AcDbEntity
  8
1-1_本体2
  6
かくれ線
 62
     7
 48
0.5
370
    18
100
AcDbHatch
 10
0.0
 20
0.0
 30
0.0
210
0.0
220
0.0
230
1.0
  2
ANSI32
 70
     0
 71
     0
 91
        6
 92
        7
 72
     1
 73
     1
 93
        4
 10
2539.651271717959
 20
8640.828275076396
 42
0.0
 10
2538.651271717959
 20
8640.828275076396
 42
0.0
 10
2538.651271717959
 20
8628.782245076397
 42
-0.0313422145926801
 10
2539.651271717959
 20
8628.719499009591
 42
0.0
 97
        0
 92
        7
 72
     1
 73
     1
 93
        4
 10
2539.651271717959
 20
8628.719499009591
 42
0.0313422145926801
 10
2538.651271717959
 20
8628.782245076397
 42
0.0
 10
2538.651271717959
 20
8624.782245076396
 42
0.0
 10
2539.651271717959
 20
8624.782245076396
 42
0.0
 97
        0
 92
        7
 72
     0
 73
     1
 93
        4
 10
2539.651271717959
 20
8624.782245076396
 10
2538.651271717959
 20
8624.782245076396
 10
2538.651271717959
 20
8620.782245076396
 10
2539.651271717959
 20
8620.782245076396
 97
        0
 92
        7
 72
     0
 73
     1
 93
        5
 10
2539.651271717957
 20
8618.282245076397
 10
2539.651271717958
 20
8620.782245076396
 10
2538.651271717959
 20
8620.782245076394
 10
2538.651271717959
 20
8616.782245076397
 10
2539.651271717957
 20
8616.782245076398
 97
        0
 92
        7
 72
     1
 73
     1
 93
        4
 10
2539.651271717959
 20
8616.782245076397
 42
0.0
 10
2538.651271717959
 20
8616.782245076397
 42
0.0
 10
2538.651271717959
 20
8612.782245076395
 42
0.0313422145926801
 10
2539.651271717959
 20
8612.844991143202
 42
0.0
 97
        0
 92
        7
 72
     1
 73
     1
 93
        5
 10
2539.651271717959
 20
8612.844991143202
 42
-0.0313422145926801
 10
2538.651271717959
 20
8612.782245076395
 42
0.0
 10
2538.651271717959
 20
8610.842857565719
 42
0.0
 10
2538.651271717959
 20
8597.828275076395
 42
0.0
 10
2539.651271717959
 20
8597.828275076395
 42
0.0
 97
        0
 75
     0
 76
     1
 52
0.0
 41
30.0
 77
     0
 78
     2
 53
45.0
 43
-13.70837681451076
 44
-13.61952057519465
 45
-7.954951288348659
 46
7.95495128834866
 79
     0
 53
45.0
 43
-8.405075964510615
 44
-13.61952057519465
 45
-7.954951288348659
 46
7.95495128834866
 79
     0
 47
0.0494255678530876
 98
        6
 10
2539.129768011668
 20
8633.624092158328
 10
2539.18479311552
 20
8626.339623245575
 10
2539.164550719825
 20
8622.299518592152
 10
2539.164550719825
 20
8618.147737809158
 10
2539.164550719825
 20
8613.304025542884
 10
2539.164835823975
 20
8609.141115523604
  0
LINE
  5
2C162
330
1E
100
AcDbEntity
  8
1-A_中心
  6
中心線
 62
     6
 48
0.25
370
    18
100
AcDbLine
 10
2538.651271717956
 20
8611.828275076396
 30
0.0
 11
2538.651271717957
 21
8629.828275076397
 31
0.0
  0
ARC
  5
2C163
330
1E
100
AcDbEntity
  8
1-4_ビス
  6
Continuous
 62
     7
 48
0.5
370
    35
100
AcDbCircle
 10
2538.651271717957
 20
8620.828275076396
 30
0.0
 40
7.999999999999545
100
AcDbArc
 50
128.6821874534767
 51
231.3178125465233
  0
LINE
  5
2C18B
330
1E
100
AcDbEntity
  8
1-1_本体2
  6
かくれ線
 62
     7
 48
0.5
370
    18
100
AcDbLine
 10
2557.651271717959
 20
8637.828275076397
 30
0.0
 11
2557.651271717959
 21
8596.828275076395
 31
0.0
  0
LINE
  5
2C18C
330
1E
100
AcDbEntity
  8
1-1_本体2
  6
かくれ線
 62
     7
 48
0.5
370
    18
100
AcDbLine
 10
2558.651271717959
 20
8637.828275076397
 30
0.0
 11
2558.651271717959
 21
8597.828275076395
 31
0.0
  0
HATCH
  5
2C18D
330
1E
100
AcDbEntity
  8
1-1_本体2
  6
かくれ線
 62
     7
 48
0.5
370
    18
100
AcDbHatch
 10
0.0
 20
0.0
 30
0.0
210
0.0
220
0.0
230
1.0
  2
ANSI32
 70
     0
 71
     0
 91
        6
 92
        7
 72
     1
 73
     1
 93
        4
 10
2558.651271717959
 20
8640.828275076396
 42
0.0
 10
2557.651271717959
 20
8640.828275076396
 42
0.0
 10
2557.651271717959
 20
8628.782245076397
 42
-0.0313422145926801
 10
2558.651271717959
 20
8628.719499009591
 42
0.0
 97
        0
 92
        7
 72
     1
 73
     1
 93
        4
 10
2558.651271717959
 20
8628.719499009591
 42
0.0313422145926801
 10
2557.651271717959
 20
8628.782245076397
 42
0.0
 10
2557.651271717959
 20
8624.782245076396
 42
0.0
 10
2558.651271717959
 20
8624.782245076396
 42
0.0
 97
        0
 92
        7
 72
     0
 73
     1
 93
        4
 10
2558.651271717959
 20
8624.782245076396
 10
2557.651271717959
 20
8624.782245076396
 10
2557.651271717959
 20
8620.782245076396
 10
2558.651271717959
 20
8620.782245076396
 97
        0
 92
        7
 72
     0
 73
     1
 93
        5
 10
2558.651271717957
 20
8618.282245076397
 10
2558.651271717958
 20
8620.782245076396
 10
2557.651271717959
 20
8620.782245076394
 10
2557.651271717959
 20
8616.782245076397
 10
2558.651271717957
 20
8616.782245076398
 97
        0
 92
        7
 72
     1
 73
     1
 93
        4
 10
2558.651271717959
 20
8616.782245076397
 42
0.0
 10
2557.651271717959
 20
8616.782245076397
 42
0.0
 10
2557.651271717959
 20
8612.782245076395
 42
0.0313422145926801
 10
2558.651271717959
 20
8612.844991143202
 42
0.0
 97
        0
 92
        7
 72
     1
 73
     1
 93
        5
 10
2558.651271717959
 20
8612.844991143202
 42
-0.0313422145926801
 10
2557.651271717959
 20
8612.782245076395
 42
0.0
 10
2557.651271717959
 20
8610.842857565719
 42
0.0
 10
2557.651271717959
 20
8597.828275076395
 42
0.0
 10
2558.651271717959
 20
8597.828275076395
 42
0.0
 97
        0
 75
     0
 76
     1
 52
0.0
 41
30.0
 77
     0
 78
     2
 53
45.0
 43
5.291623185489243
 44
-13.61952057519465
 45
-7.954951288348659
 46
7.95495128834866
 79
     0
 53
45.0
 43
10.59492403548938
 44
-13.61952057519465
 45
-7.954951288348659
 46
7.95495128834866
 79
     0
 47
0.0494255678530876
 98
        6
 10
2558.129768011668
 20
8633.624092158328
 10
2558.18479311552
 20
8626.339623245575
 10
2558.164550719825
 20
8622.299518592152
 10
2558.164550719825
 20
8618.147737809158
 10
2558.164550719825
 20
8613.304025542884
 10
2558.164835823975
 20
8609.141115523604
  0
LINE
  5
2C18E
330
1E
100
AcDbEntity
  8
1-5_ビス2
  6
かくれ線
 62
     7
 48
0.5
370
    18
100
AcDbLine
 10
2541.151271717957
 20
8619.828275076395
 30
0.0
 11
2542.651271717957
 21
8619.828275076395
 31
0.0
  0
LINE
  5
2C18F
330
1E
100
AcDbEntity
  8
1-5_ビス2
  6
かくれ線
 62
     7
 48
0.5
370
    18
100
AcDbLine
 10
2542.651271717957
 20
8621.828275076396
 30
0.0
 11
2542.651271717957
 21
8619.828275076395
 31
0.0
  0
LINE
  5
2C190
330
1E
100
AcDbEntity
  8
1-5_ビス2
  6
かくれ線
 62
     7
 48
0.5
370
    18
100
AcDbLine
 10
2541.151271717957
 20
8621.828275076396
 30
0.0
 11
2542.651271717957
 21
8621.828275076396
 31
0.0
  0
CIRCLE
  5
2C191
330
1E
100
AcDbEntity
  8
1-1_本体2
  6
かくれ線
 62
     7
 48
0.5
370
    18
100
AcDbCircle
 10
2548.651271717959
 20
8632.328275076394
 30
0.0
 40
8.0
  0
LINE
  5
2C192
330
1E
100
AcDbEntity
  8
1-1_本体2
  6
かくれ線
 62
     7
 48
0.5
370
    18
100
AcDbLine
 10
2557.151271717959
 20
8636.828275076394
 30
0.0
 11
2540.151271717959
 21
8636.828275076394
 31
0.0
  0
LINE
  5
2C193
330
1E
100
AcDbEntity
  8
1-1_本体2
  6
かくれ線
 62
     7
 48
0.5
370
    18
100
AcDbLine
 10
2557.651271717959
 20
8636.328275076396
 30
0.0
 11
2539.651271717959
 21
8636.328275076396
 31
0.0
  0
LINE
  5
2C194
330
1E
100
AcDbEntity
  8
1-1_本体2
  6
かくれ線
 62
     7
 48
0.5
370
    18
100
AcDbLine
 10
2558.651271717959
 20
8637.828275076397
 30
0.0
 11
2538.651271717959
 21
8637.828275076397
 31
0.0
  0
LINE
  5
2C195
330
1E
100
AcDbEntity
  8
1-1_本体2
  6
かくれ線
 62
     7
 48
0.5
370
    18
100
AcDbLine
 10
2540.151271717959
 20
8636.828275076394
 30
0.0
 11
2539.651271717959
 21
8636.328275076396
 31
0.0
  0
LINE
  5
2C196
330
1E
100
AcDbEntity
  8
1-1_本体2
  6
かくれ線
 62
     7
 48
0.5
370
    18
100
AcDbLine
 10
2543.651271717959
 20
8639.328275076396
 30
0.0
 11
2553.651271717959
 21
8639.328275076396
 31
0.0
  0
LINE
  5
2C197
330
1E
100
AcDbEntity
  8
1-1_本体2
  6
かくれ線
 62
     7
 48
0.5
370
    18
100
AcDbLine
 10
2553.651271717959
 20
8639.328275076396
 30
0.0
 11
2554.651271717959
 21
8640.328275076397
 31
0.0
  0
ARC
  5
2C198
330
1E
100
AcDbEntity
  8
1-5_ビス2
  6
かくれ線
 62
     7
 48
0.5
370
    18
100
AcDbCircle
 10
2556.151271717957
 20
8638.30884016502
 30
0.0
 40
1.5
100
AcDbArc
 50
270.0
 51
0.0
  0
LINE
  5
2C199
330
1E
100
AcDbEntity
  8
1-5_ビス2
  6
かくれ線
 62
     7
 48
0.5
370
    18
100
AcDbLine
 10
2556.151271717957
 20
8636.80884016502
 30
0.0
 11
2554.651271717957
 21
8636.80884016502
 31
0.0
  0
LINE
  5
2C19A
330
1E
100
AcDbEntity
  8
1-5_ビス2
  6
かくれ線
 62
     7
 48
0.5
370
    18
100
AcDbLine
 10
2554.651271717957
 20
8636.80884016502
 30
0.0
 11
2554.651271717957
 21
8634.808840165019
 31
0.0
  0
LINE
  5
2C19B
330
1E
100
AcDbEntity
  8
1-5_ビス2
  6
かくれ線
 62
     7
 48
0.5
370
    18
100
AcDbLine
 10
2562.651271717957
 20
8636.80884016502
 30
0.0
 11
2562.651271717957
 21
8634.808840165019
 31
0.0
  0
ARC
  5
2C19C
330
1E
100
AcDbEntity
  8
1-5_ビス2
  6
かくれ線
 62
     7
 48
0.5
370
    18
100
AcDbCircle
 10
2561.151271717957
 20
8638.30884016502
 30
0.0
 40
1.5
100
AcDbArc
 50
180.0
 51
270.0
  0
LINE
  5
2C19D
330
1E
100
AcDbEntity
  8
1-5_ビス2
  6
かくれ線
 62
     7
 48
0.5
370
    18
100
AcDbLine
 10
2561.151271717957
 20
8636.80884016502
 30
0.0
 11
2562.651271717957
 21
8636.80884016502
 31
0.0
  0
LINE
  5
2C19E
330
1E
100
AcDbEntity
  8
1-5_ビス2
  6
かくれ線
 62
     7
 48
0.5
370
    18
100
AcDbLine
 10
2559.651271717957
 20
8638.30884016502
 30
0.0
 11
2559.651271717957
 21
8639.80884016502
 31
0.0
  0
LINE
  5
2C19F
330
1E
100
AcDbEntity
  8
1-5_ビス2
  6
かくれ線
 62
     7
 48
0.5
370
    18
100
AcDbLine
 10
2557.651271717957
 20
8639.80884016502
 30
0.0
 11
2559.651271717957
 21
8639.80884016502
 31
0.0
  0
LINE
  5
2C1A0
330
1E
100
AcDbEntity
  8
1-5_ビス2
  6
かくれ線
 62
     7
 48
0.5
370
    18
100
AcDbLine
 10
2557.651271717957
 20
8638.30884016502
 30
0.0
 11
2557.651271717957
 21
8639.80884016502
 31
0.0
  0
LINE
  5
2C1A1
330
1E
100
AcDbEntity
  8
1-A_中心
  6
中心線
 62
     6
 48
0.25
370
    18
100
AcDbLine
 10
2549.651271717959
 20
8635.828275076397
 30
0.0
 11
2567.651271717959
 21
8635.828275076397
 31
0.0
  0
LINE
  5
2C1A2
330
1E
100
AcDbEntity
  8
1-1_本体2
  6
かくれ線
 62
     7
 48
0.5
370
    18
100
AcDbLine
 10
2557.151271717959
 20
8636.828275076394
 30
0.0
 11
2557.651271717959
 21
8636.328275076396
 31
0.0
  0
LINE
  5
2C1A3
330
1E
100
AcDbEntity
  8
1-1_本体2
  6
かくれ線
 62
     7
 48
0.5
370
    18
100
AcDbLine
 10
2542.651271717959
 20
8640.328275076397
 30
0.0
 11
2554.651271717959
 21
8640.328275076397
 31
0.0
  0
LINE
  5
2C1A4
330
1E
100
AcDbEntity
  8
1-1_本体2
  6
かくれ線
 62
     7
 48
0.5
370
    18
100
AcDbLine
 10
2543.651271717959
 20
8639.328275076396
 30
0.0
 11
2542.651271717959
 21
8640.328275076397
 31
0.0
  0
DIMENSION
  5
2C1A5
330
1E
100
AcDbEntity
  8
1-B_寸法
  6
Continuous
 62
     3
 48
0.5
370
    18
100
AcDbDimension
280
     0
  2
*D15
 10
2521.15127171796
 20
8535.828275076395
 30
0.0
 11
2521.151271717958
 21
8570.828275076395
 31
0.0
 70
   160
 71
     5
 42
70.0
 73
     0
 74
     0
 75
     0
  3
ISO-25
100
AcDbAlignedDimension
 13
2528.651271717959
 23
8605.828275076396
 33
0.0
 14
2528.651271717959
 24
8535.828275076395
 34
0.0
 50
270.0
100
AcDbRotatedDimension
  0
LINE
  5
2C1A6
330
1E
100
AcDbEntity
  8
1-0_本体
  6
Continuous
 62
     7
 48
0.5
370
    35
100
AcDbLine
 10
2713.65127171796
 20
8597.828275076395
 30
0.0
 11
2534.651271717959
 21
8597.828275076395
 31
0.0
  0
LINE
  5
2C1A7
330
1E
100
AcDbEntity
  8
1-0_本体
  6
Continuous
 62
     7
 48
0.5
370
    35
100
AcDbLine
 10
2531.651271717958
 20
8595.828275076396
 30
0.0
 11
2565.651271717959
 21
8595.828275076396
 31
0.0
  0
LINE
  5
2C1A8
330
1E
100
AcDbEntity
  8
1-0_本体
  6
Continuous
 62
     7
 48
0.5
370
    35
100
AcDbLine
 10
2539.651271717959
 20
8596.828275076395
 30
0.0
 11
2539.651271717959
 21
8595.828275076396
 31
0.0
  0
ARC
  5
2C1A9
330
1E
100
AcDbEntity
  8
1-0_本体
  6
Continuous
 62
     7
 48
0.5
370
    35
100
AcDbCircle
 10
2534.651271717959
 20
8598.828275076396
 30
0.0
 40
1.0
100
AcDbArc
 50
180.0
 51
270.0
  0
LINE
  5
2C1AA
330
1E
100
AcDbEntity
  8
1-0_本体
  6
Continuous
 62
     7
 48
0.5
370
    35
100
AcDbLine
 10
2531.651271717958
 20
8545.828275076395
 30
0.0
 11
2531.651271717958
 21
8595.828275076396
 31
0.0
  0
DIMENSION
  5
2C1B4
330
1E
100
AcDbEntity
  8
1-B_寸法
  6
Continuous
 62
     3
 48
0.5
370
    18
100
AcDbDimension
280
     0
  2
*D16
 10
2618.651271717962
 20
8595.828275076396
 30
0.0
 11
2618.65127171796
 21
8592.426625330203
 31
0.0
 70
   160
 71
     5
 42
2.0
 73
     0
 74
     0
 75
     0
  3
ISO-25
100
AcDbAlignedDimension
 13
2568.651271717959
 23
8597.828275076395
 33
0.0
 14
2568.651271717959
 24
8595.828275076396
 34
0.0
 50
270.0
100
AcDbRotatedDimension
  0
DIMENSION
  5
2C1B5
330
1E
100
AcDbEntity
  8
1-B_寸法
  6
Continuous
 62
     3
 48
0.5
370
    18
100
AcDbDimension
280
     0
  2
*D17
 10
2618.65127171796
 20
8495.828275076396
 30
0.0
 11
2618.651271717959
 21
8545.828275076395
 31
0.0
 70
   160
 71
     5
 42
100.0
 73
     0
 74
     0
 75
     0
  3
ISO-25
100
AcDbAlignedDimension
 13
2568.651271717959
 23
8595.828275076396
 33
0.0
 14
2568.651271717959
 24
8495.828275076396
 34
0.0
 50
270.0
100
AcDbRotatedDimension
  0
LINE
  5
2C1B6
330
1E
100
AcDbEntity
  8
1-0_本体
  6
Continuous
 62
     7
 48
0.5
370
    35
100
AcDbLine
 10
2568.651271717959
 20
8496.828275076396
 30
0.0
 11
2568.651271717959
 21
8597.828275076395
 31
0.0
  0
LINE
  5
2C1B7
330
1E
100
AcDbEntity
  8
1-0_本体
  6
Continuous
 62
     7
 48
0.5
370
    35
100
AcDbLine
 10
2557.651271717959
 20
8596.828275076395
 30
0.0
 11
2557.651271717959
 21
8595.828275076396
 31
0.0
  0
LINE
  5
2C1B8
330
1E
100
AcDbEntity
  8
1-0_本体
  6
Continuous
 62
     7
 48
0.5
370
    35
100
AcDbLine
 10
2565.651271717959
 20
8545.828275076395
 30
0.0
 11
2565.651271717959
 21
8595.828275076396
 31
0.0
  0
CIRCLE
  5
2C1B9
330
1E
100
AcDbEntity
  8
1-5_ビス2
  6
かくれ線
 62
     7
 48
0.5
370
    18
100
AcDbCircle
 10
2548.651271717959
 20
8602.828275076396
 30
0.0
 40
2.5
  0
CIRCLE
  5
2C1BA
330
1E
100
AcDbEntity
  8
1-5_ビス2
  6
かくれ線
 62
     7
 48
0.5
370
    18
100
AcDbCircle
 10
2558.651271717958
 20
8605.828275076394
 30
0.0
 40
8.0
  0
LINE
  5
2C1BB
330
1E
100
AcDbEntity
  8
1-5_ビス2
  6
かくれ線
 62
     7
 48
0.5
370
    18
100
AcDbLine
 10
2562.651271717957
 20
8606.828275076395
 30
0.0
 11
2562.651271717957
 21
8604.828275076396
 31
0.0
  0
LINE
  5
2C1BC
330
1E
100
AcDbEntity
  8
1-5_ビス2
  6
かくれ線
 62
     7
 48
0.5
370
    18
100
AcDbLine
 10
2557.651271717957
 20
8601.828275076396
 30
0.0
 11
2559.651271717957
 21
8601.828275076396
 31
0.0
  0
LINE
  5
2C1BD
330
1E
100
AcDbEntity
  8
1-5_ビス2
  6
かくれ線
 62
     7
 48
0.5
370
    18
100
AcDbLine
 10
2557.651271717957
 20
8609.828275076395
 30
0.0
 11
2559.651271717957
 21
8609.828275076395
 31
0.0
  0
LINE
  5
2C1BE
330
1E
100
AcDbEntity
  8
1-5_ビス2
  6
かくれ線
 62
     7
 48
0.5
370
    18
100
AcDbLine
 10
2554.651271717957
 20
8606.828275076395
 30
0.0
 11
2554.651271717957
 21
8604.828275076396
 31
0.0
  0
LINE
  5
2C1BF
330
1E
100
AcDbEntity
  8
1-5_ビス2
  6
かくれ線
 62
     7
 48
0.5
370
    18
100
AcDbLine
 10
2559.651271717957
 20
8608.328275076395
 30
0.0
 11
2559.651271717957
 21
8609.828275076395
 31
0.0
  0
LINE
  5
2C1C0
330
1E
100
AcDbEntity
  8
1-5_ビス2
  6
かくれ線
 62
     7
 48
0.5
370
    18
100
AcDbLine
 10
2561.151271717957
 20
8606.828275076395
 30
0.0
 11
2562.651271717957
 21
8606.828275076395
 31
0.0
  0
ARC
  5
2C1C1
330
1E
100
AcDbEntity
  8
1-5_ビス2
  6
かくれ線
 62
     7
 48
0.5
370
    18
100
AcDbCircle
 10
2561.151271717958
 20
8608.328275076393
 30
0.0
 40
1.5
100
AcDbArc
 50
180.0
 51
270.0
  0
LINE
  5
2C1C2
330
1E
100
AcDbEntity
  8
1-5_ビス2
  6
かくれ線
 62
     7
 48
0.5
370
    18
100
AcDbLine
 10
2561.151271717957
 20
8604.828275076396
 30
0.0
 11
2562.651271717957
 21
8604.828275076396
 31
0.0
  0
LINE
  5
2C1C3
330
1E
100
AcDbEntity
  8
1-5_ビス2
  6
かくれ線
 62
     7
 48
0.5
370
    18
100
AcDbLine
 10
2559.651271717957
 20
8603.328275076396
 30
0.0
 11
2559.651271717957
 21
8601.828275076396
 31
0.0
  0
ARC
  5
2C1C4
330
1E
100
AcDbEntity
  8
1-5_ビス2
  6
かくれ線
 62
     7
 48
0.5
370
    18
100
AcDbCircle
 10
2561.151271717958
 20
8603.328275076394
 30
0.0
 40
1.5
100
AcDbArc
 50
90.0
 51
180.0
  0
LINE
  5
2C1C5
330
1E
100
AcDbEntity
  8
1-5_ビス2
  6
かくれ線
 62
     7
 48
0.5
370
    18
100
AcDbLine
 10
2557.651271717957
 20
8603.328275076396
 30
0.0
 11
2557.651271717957
 21
8601.828275076396
 31
0.0
  0
LINE
  5
2C1C6
330
1E
100
AcDbEntity
  8
1-5_ビス2
  6
かくれ線
 62
     7
 48
0.5
370
    18
100
AcDbLine
 10
2556.151271717957
 20
8604.828275076396
 30
0.0
 11
2554.651271717957
 21
8604.828275076396
 31
0.0
  0
ARC
  5
2C1C7
330
1E
100
AcDbEntity
  8
1-5_ビス2
  6
かくれ線
 62
     7
 48
0.5
370
    18
100
AcDbCircle
 10
2556.151271717958
 20
8603.328275076394
 30
0.0
 40
1.5
100
AcDbArc
 50
0.0
 51
90.0
  0
LINE
  5
2C1C8
330
1E
100
AcDbEntity
  8
1-5_ビス2
  6
かくれ線
 62
     7
 48
0.5
370
    18
100
AcDbLine
 10
2556.151271717957
 20
8606.828275076395
 30
0.0
 11
2554.651271717957
 21
8606.828275076395
 31
0.0
  0
LINE
  5
2C1C9
330
1E
100
AcDbEntity
  8
1-5_ビス2
  6
かくれ線
 62
     7
 48
0.5
370
    18
100
AcDbLine
 10
2557.651271717957
 20
8608.328275076395
 30
0.0
 11
2557.651271717957
 21
8609.828275076395
 31
0.0
  0
ARC
  5
2C1CA
330
1E
100
AcDbEntity
  8
1-5_ビス2
  6
かくれ線
 62
     7
 48
0.5
370
    18
100
AcDbCircle
 10
2556.151271717958
 20
8608.328275076393
 30
0.0
 40
1.5
100
AcDbArc
 50
270.0
 51
0.0
  0
LINE
  5
2C1CB
330
1E
100
AcDbEntity
  8
1-A_中心
  6
中心線
 62
     6
 48
0.25
370
    18
100
AcDbLine
 10
2549.65127171796
 20
8605.828275076397
 30
0.0
 11
2567.65127171796
 21
8605.828275076397
 31
0.0
  0
LINE
  5
2C1CC
330
1E
100
AcDbEntity
  8
1-A_中心
  6
中心線
 62
     6
 48
0.25
370
    18
100
AcDbLine
 10
2558.651271717959
 20
8596.828275076395
 30
0.0
 11
2558.651271717959
 21
8614.828275076398
 31
0.0
  0
DIMENSION
  5
2C1CD
330
1E
100
AcDbEntity
  8
1-B_寸法
  6
Continuous
 62
     3
 48
0.5
370
    18
100
AcDbDimension
280
     0
  2
*D6
 10
2528.651271717959
 20
8480.828275076396
 30
0.0
 11
2548.651271717959
 21
8480.828275076396
 31
0.0
 70
   160
 71
     5
 42
40.0
 73
     0
 74
     0
 75
     0
  3
ISO-25
100
AcDbAlignedDimension
 13
2568.651271717959
 23
8495.828275076396
 33
0.0
 14
2528.651271717959
 24
8495.828275076396
 34
0.0
100
AcDbRotatedDimension
  0
LINE
  5
2C1CE
330
1E
100
AcDbEntity
  8
1-0_本体
  6
Continuous
 62
     7
 48
0.5
370
    35
100
AcDbLine
 10
2529.651271717959
 20
8495.828275076396
 30
0.0
 11
2567.651271717958
 21
8495.828275076396
 31
0.0
  0
LINE
  5
2C1CF
330
1E
100
AcDbEntity
  8
1-A_中心
  6
中心線
 62
     6
 48
0.25
370
    18
100
AcDbLine
 10
2529.651271717957
 20
8505.828275076398
 30
0.0
 11
2547.651271717957
 21
8505.828275076398
 31
0.0
  0
LINE
  5
2C1D0
330
1E
100
AcDbEntity
  8
1-A_中心
  6
中心線
 62
     6
 48
0.25
370
    18
100
AcDbLine
 10
2529.601271717957
 20
8535.828275076395
 30
0.0
 11
2547.601271717957
 21
8535.828275076395
 31
0.0
  0
DIMENSION
  5
2C1D1
330
1E
100
AcDbEntity
  8
1-B_寸法
  6
Continuous
 62
     3
 48
0.5
370
    18
100
AcDbDimension
280
     0
  2
*D8
 10
2521.15127171796
 20
8495.828275076396
 30
0.0
 11
2521.151271717958
 21
8500.828275076395
 31
0.0
 70
   160
 71
     5
 42
10.0
 73
     0
 74
     0
 75
     0
  3
ISO-25
100
AcDbAlignedDimension
 13
2528.651271717959
 23
8505.828275076394
 33
0.0
 14
2528.651271717959
 24
8495.828275076396
 34
0.0
 50
270.0
100
AcDbRotatedDimension
  0
DIMENSION
  5
2C1D2
330
1E
100
AcDbEntity
  8
1-B_寸法
  6
Continuous
 62
     3
 48
0.5
370
    18
100
AcDbDimension
280
     0
  2
*D9
 10
2521.15127171796
 20
8505.828275076394
 30
0.0
 11
2521.151271717958
 21
8513.328275076395
 31
0.0
 70
   160
 71
     5
 42
15.0
 73
     0
 74
     0
 75
     0
  3
ISO-25
100
AcDbAlignedDimension
 13
2528.651271717959
 23
8520.828275076395
 33
0.0
 14
2528.651271717959
 24
8505.828275076394
 34
0.0
 50
270.0
100
AcDbRotatedDimension
  0
ARC
  5
2C1D3
330
1E
100
AcDbEntity
  8
1-0_本体
  6
Continuous
 62
     7
 48
0.5
370
    35
100
AcDbCircle
 10
2529.651271717959
 20
8496.828275076396
 30
0.0
 40
1.0
100
AcDbArc
 50
180.0
 51
270.0
  0
DIMENSION
  5
2C1D4
330
1E
100
AcDbEntity
  8
1-B_寸法
  6
Continuous
 62
     3
 48
0.5
370
    18
100
AcDbDimension
280
     0
  2
*D10
 10
2521.15127171796
 20
8535.828275076395
 30
0.0
 11
2521.151271717958
 21
8528.328275076395
 31
0.0
 70
   160
 71
     5
 42
15.0
 73
     0
 74
     0
 75
     0
  3
ISO-25
100
AcDbAlignedDimension
 13
2528.651271717959
 23
8520.828275076395
 33
0.0
 14
2528.651271717959
 24
8535.828275076395
 34
0.0
 50
90.0
100
AcDbRotatedDimension
  0
ARC
  5
2C1D5
330
1E
100
AcDbEntity
  8
1-4_ビス
  6
Continuous
 62
     7
 48
0.5
370
    35
100
AcDbCircle
 10
2541.101271717957
 20
8533.328275076392
 30
0.0
 40
1.5
100
AcDbArc
 50
90.0
 51
180.0
  0
ARC
  5
2C1D6
330
1E
100
AcDbEntity
  8
1-4_ビス
  6
Continuous
 62
     7
 48
0.5
370
    35
100
AcDbCircle
 10
2541.101271717957
 20
8538.328275076393
 30
0.0
 40
1.5
100
AcDbArc
 50
180.0
 51
270.0
  0
ARC
  5
2C1D7
330
1E
100
AcDbEntity
  8
1-4_ビス
  6
Continuous
 62
     7
 48
0.5
370
    35
100
AcDbCircle
 10
2541.151271717958
 20
8503.328275076395
 30
0.0
 40
1.5
100
AcDbArc
 50
90.0
 51
180.0
  0
ARC
  5
2C1D8
330
1E
100
AcDbEntity
  8
1-4_ビス
  6
Continuous
 62
     7
 48
0.5
370
    35
100
AcDbCircle
 10
2541.151271717958
 20
8508.328275076394
 30
0.0
 40
1.5
100
AcDbArc
 50
180.0
 51
270.0
  0
DIMENSION
  5
2C1D9
330
1E
100
AcDbEntity
  8
1-B_寸法
  6
Continuous
 62
     3
 48
0.5
370
    18
100
AcDbDimension
280
     0
  2
*D5
 10
2538.651271717959
 20
8488.328275076396
 30
0.0
 11
2548.651271717959
 21
8488.328275076396
 31
0.0
 70
   160
 71
     5
 42
20.0
 73
     0
 74
     0
 75
     0
  3
ISO-25
100
AcDbAlignedDimension
 13
2558.651271717959
 23
8495.828275076396
 33
0.0
 14
2538.651271717959
 24
8495.828275076396
 34
0.0
100
AcDbRotatedDimension
  0
LINE
  5
2C1DA
330
1E
100
AcDbEntity
  8
1-0_本体
  6
Continuous
 62
     7
 48
0.5
370
    35
100
AcDbLine
 10
2531.651271717958
 20
8545.828275076395
 30
0.0
 11
2565.651271717959
 21
8545.828275076395
 31
0.0
  0
CIRCLE
  5
2C1DB
330
1E
100
AcDbEntity
  8
1-4_ビス
  6
Continuous
 62
     7
 48
0.5
370
    35
100
AcDbCircle
 10
2538.601271717957
 20
8535.828275076392
 30
0.0
 40
8.0
  0
CIRCLE
  5
2C1DC
330
1E
100
AcDbEntity
  8
1-4_ビス
  6
Continuous
 62
     7
 48
0.5
370
    35
100
AcDbCircle
 10
2538.651271717957
 20
8505.828275076394
 30
0.0
 40
8.0
  0
ARC
  5
2C1DD
330
1E
100
AcDbEntity
  8
1-4_ビス
  6
Continuous
 62
     7
 48
0.5
370
    35
100
AcDbCircle
 10
2536.101271717957
 20
8538.328275076393
 30
0.0
 40
1.5
100
AcDbArc
 50
270.0
 51
0.0
  0
LINE
  5
2C1DE
330
1E
100
AcDbEntity
  8
1-4_ビス
  6
Continuous
 62
     7
 48
0.5
370
    35
100
AcDbLine
 10
2537.601271717957
 20
8538.328275076393
 30
0.0
 11
2537.601271717957
 21
8539.828275076393
 31
0.0
  0
LINE
  5
2C1DF
330
1E
100
AcDbEntity
  8
1-4_ビス
  6
Continuous
 62
     7
 48
0.5
370
    35
100
AcDbLine
 10
2536.101271717957
 20
8536.828275076393
 30
0.0
 11
2534.601271717957
 21
8536.828275076393
 31
0.0
  0
ARC
  5
2C1E0
330
1E
100
AcDbEntity
  8
1-4_ビス
  6
Continuous
 62
     7
 48
0.5
370
    35
100
AcDbCircle
 10
2536.101271717957
 20
8533.328275076392
 30
0.0
 40
1.5
100
AcDbArc
 50
0.0
 51
90.0
  0
LINE
  5
2C1E1
330
1E
100
AcDbEntity
  8
1-4_ビス
  6
Continuous
 62
     7
 48
0.5
370
    35
100
AcDbLine
 10
2536.101271717957
 20
8534.828275076394
 30
0.0
 11
2534.601271717957
 21
8534.828275076394
 31
0.0
  0
LINE
  5
2C1E2
330
1E
100
AcDbEntity
  8
1-4_ビス
  6
Continuous
 62
     7
 48
0.5
370
    35
100
AcDbLine
 10
2537.601271717957
 20
8533.328275076394
 30
0.0
 11
2537.601271717957
 21
8531.828275076394
 31
0.0
  0
LINE
  5
2C1E3
330
1E
100
AcDbEntity
  8
1-4_ビス
  6
Continuous
 62
     7
 48
0.5
370
    35
100
AcDbLine
 10
2539.601271717957
 20
8533.328275076394
 30
0.0
 11
2539.601271717957
 21
8531.828275076394
 31
0.0
  0
LINE
  5
2C1E4
330
1E
100
AcDbEntity
  8
1-4_ビス
  6
Continuous
 62
     7
 48
0.5
370
    35
100
AcDbLine
 10
2539.601271717957
 20
8538.328275076393
 30
0.0
 11
2539.601271717957
 21
8539.828275076393
 31
0.0
  0
LINE
  5
2C1E5
330
1E
100
AcDbEntity
  8
1-4_ビス
  6
Continuous
 62
     7
 48
0.5
370
    35
100
AcDbLine
 10
2534.601271717957
 20
8536.828275076393
 30
0.0
 11
2534.601271717957
 21
8534.828275076394
 31
0.0
  0
LINE
  5
2C1E6
330
1E
100
AcDbEntity
  8
1-4_ビス
  6
Continuous
 62
     7
 48
0.5
370
    35
100
AcDbLine
 10
2537.601271717957
 20
8539.828275076393
 30
0.0
 11
2539.601271717957
 21
8539.828275076393
 31
0.0
  0
LINE
  5
2C1E7
330
1E
100
AcDbEntity
  8
1-4_ビス
  6
Continuous
 62
     7
 48
0.5
370
    35
100
AcDbLine
 10
2537.601271717957
 20
8531.828275076394
 30
0.0
 11
2539.601271717957
 21
8531.828275076394
 31
0.0
  0
ARC
  5
2C1E8
330
1E
100
AcDbEntity
  8
1-4_ビス
  6
Continuous
 62
     7
 48
0.5
370
    35
100
AcDbCircle
 10
2536.151271717957
 20
8508.328275076394
 30
0.0
 40
1.5
100
AcDbArc
 50
270.0
 51
0.0
  0
LINE
  5
2C1E9
330
1E
100
AcDbEntity
  8
1-4_ビス
  6
Continuous
 62
     7
 48
0.5
370
    35
100
AcDbLine
 10
2537.651271717957
 20
8508.328275076397
 30
0.0
 11
2537.651271717957
 21
8509.828275076397
 31
0.0
  0
LINE
  5
2C1EA
330
1E
100
AcDbEntity
  8
1-4_ビス
  6
Continuous
 62
     7
 48
0.5
370
    35
100
AcDbLine
 10
2536.151271717957
 20
8506.828275076397
 30
0.0
 11
2534.651271717957
 21
8506.828275076397
 31
0.0
  0
ARC
  5
2C1EB
330
1E
100
AcDbEntity
  8
1-4_ビス
  6
Continuous
 62
     7
 48
0.5
370
    35
100
AcDbCircle
 10
2536.151271717957
 20
8503.328275076395
 30
0.0
 40
1.5
100
AcDbArc
 50
0.0
 51
90.0
  0
LINE
  5
2C1EC
330
1E
100
AcDbEntity
  8
1-4_ビス
  6
Continuous
 62
     7
 48
0.5
370
    35
100
AcDbLine
 10
2536.151271717957
 20
8504.828275076397
 30
0.0
 11
2534.651271717957
 21
8504.828275076397
 31
0.0
  0
LINE
  5
2C1ED
330
1E
100
AcDbEntity
  8
1-4_ビス
  6
Continuous
 62
     7
 48
0.5
370
    35
100
AcDbLine
 10
2537.651271717957
 20
8503.328275076396
 30
0.0
 11
2537.651271717957
 21
8501.828275076396
 31
0.0
  0
LINE
  5
2C1EE
330
1E
100
AcDbEntity
  8
1-4_ビス
  6
Continuous
 62
     7
 48
0.5
370
    35
100
AcDbLine
 10
2539.651271717957
 20
8503.328275076396
 30
0.0
 11
2539.651271717957
 21
8501.828275076396
 31
0.0
  0
LINE
  5
2C1EF
330
1E
100
AcDbEntity
  8
1-4_ビス
  6
Continuous
 62
     7
 48
0.5
370
    35
100
AcDbLine
 10
2539.651271717957
 20
8508.328275076397
 30
0.0
 11
2539.651271717957
 21
8509.828275076397
 31
0.0
  0
LINE
  5
2C1F0
330
1E
100
AcDbEntity
  8
1-4_ビス
  6
Continuous
 62
     7
 48
0.5
370
    35
100
AcDbLine
 10
2534.651271717957
 20
8506.828275076397
 30
0.0
 11
2534.651271717957
 21
8504.828275076397
 31
0.0
  0
LINE
  5
2C1F1
330
1E
100
AcDbEntity
  8
1-4_ビス
  6
Continuous
 62
     7
 48
0.5
370
    35
100
AcDbLine
 10
2537.651271717957
 20
8509.828275076397
 30
0.0
 11
2539.651271717957
 21
8509.828275076397
 31
0.0
  0
LINE
  5
2C1F2
330
1E
100
AcDbEntity
  8
1-4_ビス
  6
Continuous
 62
     7
 48
0.5
370
    35
100
AcDbLine
 10
2537.651271717957
 20
8501.828275076396
 30
0.0
 11
2539.651271717957
 21
8501.828275076396
 31
0.0
  0
LINE
  5
2C1F3
330
1E
100
AcDbEntity
  8
1-A_中心
  6
中心線
 62
     6
 48
0.25
370
    18
100
AcDbLine
 10
2538.651271717956
 20
8496.828275076394
 30
0.0
 11
2538.651271717957
 21
8514.828275076398
 31
0.0
  0
LINE
  5
2C1F4
330
1E
100
AcDbEntity
  8
1-A_中心
  6
中心線
 62
     6
 48
0.25
370
    18
100
AcDbLine
 10
2538.601271717956
 20
8526.828275076395
 30
0.0
 11
2538.601271717956
 21
8544.828275076396
 31
0.0
  0
ARC
  5
2C1F7
330
1E
100
AcDbEntity
  8
1-0_本体
  6
Continuous
 62
     7
 48
0.5
370
    35
100
AcDbCircle
 10
2567.651271717959
 20
8496.828275076396
 30
0.0
 40
1.0
100
AcDbArc
 50
270.0
 51
0.0
  0
ARC
  5
2C1F8
330
1E
100
AcDbEntity
  8
1-4_ビス
  6
Continuous
 62
     7
 48
0.5
370
    35
100
AcDbCircle
 10
2556.151271717957
 20
8523.328275076393
 30
0.0
 40
1.5
100
AcDbArc
 50
270.0
 51
0.0
  0
LINE
  5
2C1F9
330
1E
100
AcDbEntity
  8
1-4_ビス
  6
Continuous
 62
     7
 48
0.5
370
    35
100
AcDbLine
 10
2557.651271717956
 20
8523.328275076393
 30
0.0
 11
2557.651271717956
 21
8524.828275076393
 31
0.0
  0
LINE
  5
2C1FA
330
1E
100
AcDbEntity
  8
1-4_ビス
  6
Continuous
 62
     7
 48
0.5
370
    35
100
AcDbLine
 10
2556.151271717956
 20
8521.828275076392
 30
0.0
 11
2554.651271717956
 21
8521.828275076392
 31
0.0
  0
ARC
  5
2C1FB
330
1E
100
AcDbEntity
  8
1-4_ビス
  6
Continuous
 62
     7
 48
0.5
370
    35
100
AcDbCircle
 10
2556.151271717957
 20
8518.328275076392
 30
0.0
 40
1.5
100
AcDbArc
 50
0.0
 51
90.0
  0
LINE
  5
2C1FC
330
1E
100
AcDbEntity
  8
1-4_ビス
  6
Continuous
 62
     7
 48
0.5
370
    35
100
AcDbLine
 10
2556.151271717956
 20
8519.828275076394
 30
0.0
 11
2554.651271717956
 21
8519.828275076394
 31
0.0
  0
LINE
  5
2C1FD
330
1E
100
AcDbEntity
  8
1-4_ビス
  6
Continuous
 62
     7
 48
0.5
370
    35
100
AcDbLine
 10
2557.651271717956
 20
8518.328275076394
 30
0.0
 11
2557.651271717956
 21
8516.828275076393
 31
0.0
  0
ARC
  5
2C1FE
330
1E
100
AcDbEntity
  8
1-4_ビス
  6
Continuous
 62
     7
 48
0.5
370
    35
100
AcDbCircle
 10
2561.151271717957
 20
8518.328275076392
 30
0.0
 40
1.5
100
AcDbArc
 50
90.0
 51
180.0
  0
LINE
  5
2C1FF
330
1E
100
AcDbEntity
  8
1-4_ビス
  6
Continuous
 62
     7
 48
0.5
370
    35
100
AcDbLine
 10
2559.651271717957
 20
8518.328275076394
 30
0.0
 11
2559.651271717957
 21
8516.828275076393
 31
0.0
  0
LINE
  5
2C200
330
1E
100
AcDbEntity
  8
1-4_ビス
  6
Continuous
 62
     7
 48
0.5
370
    35
100
AcDbLine
 10
2561.151271717956
 20
8519.828275076394
 30
0.0
 11
2562.651271717956
 21
8519.828275076394
 31
0.0
  0
ARC
  5
2C201
330
1E
100
AcDbEntity
  8
1-4_ビス
  6
Continuous
 62
     7
 48
0.5
370
    35
100
AcDbCircle
 10
2561.151271717957
 20
8523.328275076393
 30
0.0
 40
1.5
100
AcDbArc
 50
180.0
 51
270.0
  0
LINE
  5
2C202
330
1E
100
AcDbEntity
  8
1-4_ビス
  6
Continuous
 62
     7
 48
0.5
370
    35
100
AcDbLine
 10
2561.151271717956
 20
8521.828275076392
 30
0.0
 11
2562.651271717956
 21
8521.828275076392
 31
0.0
  0
LINE
  5
2C203
330
1E
100
AcDbEntity
  8
1-4_ビス
  6
Continuous
 62
     7
 48
0.5
370
    35
100
AcDbLine
 10
2559.651271717957
 20
8523.328275076393
 30
0.0
 11
2559.651271717957
 21
8524.828275076393
 31
0.0
  0
LINE
  5
2C204
330
1E
100
AcDbEntity
  8
1-4_ビス
  6
Continuous
 62
     7
 48
0.5
370
    35
100
AcDbLine
 10
2554.651271717956
 20
8521.828275076392
 30
0.0
 11
2554.651271717956
 21
8519.828275076394
 31
0.0
  0
LINE
  5
2C205
330
1E
100
AcDbEntity
  8
1-4_ビス
  6
Continuous
 62
     7
 48
0.5
370
    35
100
AcDbLine
 10
2557.651271717956
 20
8524.828275076393
 30
0.0
 11
2559.651271717957
 21
8524.828275076393
 31
0.0
  0
LINE
  5
2C206
330
1E
100
AcDbEntity
  8
1-4_ビス
  6
Continuous
 62
     7
 48
0.5
370
    35
100
AcDbLine
 10
2557.651271717956
 20
8516.828275076393
 30
0.0
 11
2559.651271717957
 21
8516.828275076393
 31
0.0
  0
LINE
  5
2C207
330
1E
100
AcDbEntity
  8
1-4_ビス
  6
Continuous
 62
     7
 48
0.5
370
    35
100
AcDbLine
 10
2562.651271717956
 20
8521.828275076392
 30
0.0
 11
2562.651271717956
 21
8519.828275076394
 31
0.0
  0
CIRCLE
  5
2C208
330
1E
100
AcDbEntity
  8
1-4_ビス
  6
Continuous
 62
     7
 48
0.5
370
    35
100
AcDbCircle
 10
2558.651271717957
 20
8520.828275076393
 30
0.0
 40
8.0
  0
LINE
  5
2C209
330
1E
100
AcDbEntity
  8
1-A_中心
  6
中心線
 62
     6
 48
0.25
370
    18
100
AcDbLine
 10
2549.651271717957
 20
8520.828275076395
 30
0.0
 11
2567.651271717957
 21
8520.828275076395
 31
0.0
  0
LINE
  5
2C20A
330
1E
100
AcDbEntity
  8
1-A_中心
  6
中心線
 62
     6
 48
0.25
370
    18
100
AcDbLine
 10
2558.651271717956
 20
8511.828275076394
 30
0.0
 11
2558.651271717956
 21
8529.828275076395
 31
0.0
  0
LINE
  5
2C20B
330
1E
100
AcDbEntity
  8
1-4_ビス
  6
Continuous
 62
     7
 48
0.5
370
    35
100
AcDbLine
 10
2541.101271717957
 20
8534.828275076394
 30
0.0
 11
2542.601271717956
 21
8534.828275076394
 31
0.0
  0
LINE
  5
2C20C
330
1E
100
AcDbEntity
  8
1-4_ビス
  6
Continuous
 62
     7
 48
0.5
370
    35
100
AcDbLine
 10
2541.101271717957
 20
8536.828275076393
 30
0.0
 11
2542.601271717956
 21
8536.828275076393
 31
0.0
  0
LINE
  5
2C20D
330
1E
100
AcDbEntity
  8
1-4_ビス
  6
Continuous
 62
     7
 48
0.5
370
    35
100
AcDbLine
 10
2542.601271717956
 20
8536.828275076393
 30
0.0
 11
2542.601271717956
 21
8534.828275076394
 31
0.0
  0
LINE
  5
2C20E
330
1E
100
AcDbEntity
  8
1-4_ビス
  6
Continuous
 62
     7
 48
0.5
370
    35
100
AcDbLine
 10
2541.151271717957
 20
8504.828275076397
 30
0.0
 11
2542.651271717957
 21
8504.828275076397
 31
0.0
  0
LINE
  5
2C20F
330
1E
100
AcDbEntity
  8
1-4_ビス
  6
Continuous
 62
     7
 48
0.5
370
    35
100
AcDbLine
 10
2541.151271717957
 20
8506.828275076397
 30
0.0
 11
2542.651271717957
 21
8506.828275076397
 31
0.0
  0
LINE
  5
2C210
330
1E
100
AcDbEntity
  8
1-4_ビス
  6
Continuous
 62
     7
 48
0.5
370
    35
100
AcDbLine
 10
2542.651271717957
 20
8506.828275076397
 30
0.0
 11
2542.651271717957
 21
8504.828275076397
 31
0.0
  0
ARC
  5
2C219
330
1E
100
AcDbEntity
  8
1-0_本体
  6
Continuous
 62
     7
 48
0.5
370
    35
100
AcDbCircle
 10
2713.651271717959
 20
8599.828275076395
 30
0.0
 40
2.0
100
AcDbArc
 50
270.0
 51
0.0
  0
ARC
  5
2C21A
330
1E
100
AcDbEntity
  8
1-0_本体
  6
Continuous
 62
     7
 48
0.5
370
    35
100
AcDbCircle
 10
2713.651271717959
 20
8599.828275076395
 30
0.0
 40
2.0
100
AcDbArc
 50
270.0
 51
0.0
  0
LINE
  5
2C63E
330
1E
100
AcDbEntity
  8
1-A_中心
  6
中心線
 62
     6
 48
0.25
370
    18
100
AcDbLine
 10
2608.751271717958
 20
8615.828275076403
 30
0.0
 11
2628.551271717958
 21
8615.828275076403
 31
0.0
  0
LINE
  5
2C63F
330
1E
100
AcDbEntity
  8
1-A_中心
  6
中心線
 62
     6
 48
0.25
370
    18
100
AcDbLine
 10
2618.651271717958
 20
8605.928275076401
 30
0.0
 11
2618.651271717959
 21
8625.728275076401
 31
0.0
  0
LINE
  5
2C640
330
1E
100
AcDbEntity
  8
1-A_中心
  6
中心線
 62
     6
 48
0.25
370
    18
100
AcDbLine
 10
2646.251271717958
 20
8615.828275076401
 30
0.0
 11
2666.051271717958
 21
8615.828275076401
 31
0.0
  0
LINE
  5
2C641
330
1E
100
AcDbEntity
  8
1-A_中心
  6
中心線
 62
     6
 48
0.25
370
    18
100
AcDbLine
 10
2656.151271717958
 20
8605.928275076399
 30
0.0
 11
2656.151271717959
 21
8625.728275076399
 31
0.0
  0
LINE
  5
2C642
330
1E
100
AcDbEntity
  8
1-A_中心
  6
中心線
 62
     6
 48
0.25
370
    18
100
AcDbLine
 10
2683.751271717958
 20
8615.828275076401
 30
0.0
 11
2703.551271717958
 21
8615.828275076401
 31
0.0
  0
LINE
  5
2C643
330
1E
100
AcDbEntity
  8
1-A_中心
  6
中心線
 62
     6
 48
0.25
370
    18
100
AcDbLine
 10
2693.651271717958
 20
8605.928275076399
 30
0.0
 11
2693.651271717959
 21
8625.728275076399
 31
0.0
  0
LINE
  5
2C644
330
1E
100
AcDbEntity
  8
1-A_中心
  6
中心線
 62
     6
 48
0.25
370
    18
100
AcDbLine
 10
2683.751271717956
 20
8685.828275076401
 30
0.0
 11
2703.551271717957
 21
8685.828275076401
 31
0.0
  0
LINE
  5
2C645
330
1E
100
AcDbEntity
  8
1-A_中心
  6
中心線
 62
     6
 48
0.25
370
    18
100
AcDbLine
 10
2693.651271717957
 20
8675.928275076399
 30
0.0
 11
2693.651271717957
 21
8695.728275076399
 31
0.0
  0
LINE
  5
2C646
330
1E
100
AcDbEntity
  8
1-A_中心
  6
中心線
 62
     6
 48
0.25
370
    18
100
AcDbLine
 10
2646.251271717958
 20
8685.828275076401
 30
0.0
 11
2666.051271717958
 21
8685.828275076401
 31
0.0
  0
LINE
  5
2C647
330
1E
100
AcDbEntity
  8
1-A_中心
  6
中心線
 62
     6
 48
0.25
370
    18
100
AcDbLine
 10
2656.151271717958
 20
8675.928275076399
 30
0.0
 11
2656.151271717959
 21
8695.728275076399
 31
0.0
  0
LINE
  5
2C648
330
1E
100
AcDbEntity
  8
1-A_中心
  6
中心線
 62
     6
 48
0.25
370
    18
100
AcDbLine
 10
2608.751271717958
 20
8685.828275076401
 30
0.0
 11
2628.551271717958
 21
8685.828275076401
 31
0.0
  0
LINE
  5
2C649
330
1E
100
AcDbEntity
  8
1-A_中心
  6
中心線
 62
     6
 48
0.25
370
    18
100
AcDbLine
 10
2618.651271717958
 20
8675.928275076399
 30
0.0
 11
2618.651271717959
 21
8695.728275076399
 31
0.0
  0
LINE
  5
2C64A
330
1E
100
AcDbEntity
  8
1-4_ビス
  6
Continuous
 62
     7
 48
0.5
370
    35
100
AcDbLine
 10
2618.651271717958
 20
8624.728275076401
 30
0.0
 11
2618.651271717958
 21
8624.728275076401
 31
0.0
  0
LINE
  5
2C64B
330
1E
100
AcDbEntity
  8
1-4_ビス
  6
Continuous
 62
     7
 48
0.5
370
    35
100
AcDbLine
 10
2618.651271717958
 20
8624.728275076401
 30
0.0
 11
2618.651271717958
 21
8624.728275076401
 31
0.0
  0
LINE
  5
2C64C
330
1E
100
AcDbEntity
  8
1-4_ビス
  6
Continuous
 62
     7
 48
0.5
370
    35
100
AcDbLine
 10
2618.651271717958
 20
8624.728275076401
 30
0.0
 11
2618.651271717958
 21
8624.728275076401
 31
0.0
  0
LINE
  5
2C64D
330
1E
100
AcDbEntity
  8
1-4_ビス
  6
Continuous
 62
     7
 48
0.5
370
    35
100
AcDbLine
 10
2622.46127171796
 20
8615.207885076404
 30
0.0
 11
2622.46127171796
 21
8616.477885076402
 31
0.0
  0
LINE
  5
2C64E
330
1E
100
AcDbEntity
  8
1-4_ビス
  6
Continuous
 62
     7
 48
0.5
370
    35
100
AcDbLine
 10
2618.016271717959
 20
8611.974425076402
 30
0.0
 11
2619.286271717959
 21
8611.974425076402
 31
0.0
  0
LINE
  5
2C64F
330
1E
100
AcDbEntity
  8
1-4_ビス
  6
Continuous
 62
     7
 48
0.5
370
    35
100
AcDbLine
 10
2614.841271717959
 20
8616.477885076402
 30
0.0
 11
2614.841271717959
 21
8615.207885076404
 31
0.0
  0
LINE
  5
2C650
330
1E
100
AcDbEntity
  8
1-4_ビス
  6
Continuous
 62
     7
 48
0.5
370
    35
100
AcDbLine
 10
2621.19127171796
 20
8616.477885076402
 30
0.0
 11
2622.46127171796
 21
8616.477885076402
 31
0.0
  0
LINE
  5
2C651
330
1E
100
AcDbEntity
  8
1-4_ビス
  6
Continuous
 62
     7
 48
0.5
370
    35
100
AcDbLine
 10
2621.19127171796
 20
8615.207885076404
 30
0.0
 11
2622.46127171796
 21
8615.207885076404
 31
0.0
  0
LINE
  5
2C652
330
1E
100
AcDbEntity
  8
1-4_ビス
  6
Continuous
 62
     7
 48
0.5
370
    35
100
AcDbLine
 10
2619.286271717959
 20
8613.302885076405
 30
0.0
 11
2619.286271717959
 21
8611.974425076402
 31
0.0
  0
ARC
  5
2C653
330
1E
100
AcDbEntity
  8
1-4_ビス
  6
Continuous
 62
     7
 48
0.5
370
    35
100
AcDbCircle
 10
2621.191271717959
 20
8613.302885076405
 30
0.0
 40
1.905
100
AcDbArc
 50
89.99999999999998
 51
180.0
  0
LINE
  5
2C654
330
1E
100
AcDbEntity
  8
1-4_ビス
  6
Continuous
 62
     7
 48
0.5
370
    35
100
AcDbLine
 10
2618.016271717959
 20
8613.302885076405
 30
0.0
 11
2618.016271717959
 21
8611.974425076402
 31
0.0
  0
LINE
  5
2C655
330
1E
100
AcDbEntity
  8
1-4_ビス
  6
Continuous
 62
     7
 48
0.5
370
    35
100
AcDbLine
 10
2616.11127171796
 20
8615.207885076404
 30
0.0
 11
2614.841271717959
 21
8615.207885076404
 31
0.0
  0
ARC
  5
2C656
330
1E
100
AcDbEntity
  8
1-4_ビス
  6
Continuous
 62
     7
 48
0.5
370
    35
100
AcDbCircle
 10
2616.111271717959
 20
8613.302885076405
 30
0.0
 40
1.905
100
AcDbArc
 50
0.0
 51
89.99999999999998
  0
LINE
  5
2C657
330
1E
100
AcDbEntity
  8
1-4_ビス
  6
Continuous
 62
     7
 48
0.5
370
    35
100
AcDbLine
 10
2616.11127171796
 20
8616.477885076402
 30
0.0
 11
2614.841271717959
 21
8616.477885076402
 31
0.0
  0
LINE
  5
2C658
330
1E
100
AcDbEntity
  8
1-4_ビス
  6
Continuous
 62
     7
 48
0.5
370
    35
100
AcDbLine
 10
2618.016271717959
 20
8619.594425076405
 30
0.0
 11
2619.286271717959
 21
8619.594425076405
 31
0.0
  0
LINE
  5
2C659
330
1E
100
AcDbEntity
  8
1-4_ビス
  6
Continuous
 62
     7
 48
0.5
370
    35
100
AcDbLine
 10
2619.286271717959
 20
8618.382885076407
 30
0.0
 11
2619.286271717959
 21
8619.594425076405
 31
0.0
  0
LINE
  5
2C65A
330
1E
100
AcDbEntity
  8
1-4_ビス
  6
Continuous
 62
     7
 48
0.5
370
    35
100
AcDbLine
 10
2618.016271717959
 20
8618.382885076407
 30
0.0
 11
2618.016271717959
 21
8619.594425076405
 31
0.0
  0
ARC
  5
2C65B
330
1E
100
AcDbEntity
  8
1-4_ビス
  6
Continuous
 62
     7
 48
0.5
370
    35
100
AcDbCircle
 10
2621.191271717959
 20
8618.382885076407
 30
0.0
 40
1.905
100
AcDbArc
 50
180.0
 51
270.0
  0
ARC
  5
2C65C
330
1E
100
AcDbEntity
  8
1-4_ビス
  6
Continuous
 62
     7
 48
0.5
370
    35
100
AcDbCircle
 10
2616.111271717959
 20
8618.382885076407
 30
0.0
 40
1.905
100
AcDbArc
 50
270.0
 51
0.0
  0
CIRCLE
  5
2C65D
330
1E
100
AcDbEntity
  8
1-4_ビス
  6
Continuous
 62
     7
 48
0.5
370
    35
100
AcDbCircle
 10
2618.651271717958
 20
8615.828275076401
 30
0.0
 40
8.9
  0
CIRCLE
  5
2C65E
330
1E
100
AcDbEntity
  8
1-4_ビス
  6
Continuous
 62
     7
 48
0.5
370
    35
100
AcDbCircle
 10
2656.151271717958
 20
8615.828275076401
 30
0.0
 40
8.9
  0
LINE
  5
2C65F
330
1E
100
AcDbEntity
  8
1-4_ビス
  6
Continuous
 62
     7
 48
0.5
370
    35
100
AcDbLine
 10
2659.96127171796
 20
8615.207885076404
 30
0.0
 11
2659.96127171796
 21
8616.477885076402
 31
0.0
  0
LINE
  5
2C660
330
1E
100
AcDbEntity
  8
1-4_ビス
  6
Continuous
 62
     7
 48
0.5
370
    35
100
AcDbLine
 10
2655.516271717959
 20
8611.974425076402
 30
0.0
 11
2656.786271717959
 21
8611.974425076402
 31
0.0
  0
LINE
  5
2C661
330
1E
100
AcDbEntity
  8
1-4_ビス
  6
Continuous
 62
     7
 48
0.5
370
    35
100
AcDbLine
 10
2658.691271717959
 20
8615.207885076404
 30
0.0
 11
2659.96127171796
 21
8615.207885076404
 31
0.0
  0
LINE
  5
2C662
330
1E
100
AcDbEntity
  8
1-4_ビス
  6
Continuous
 62
     7
 48
0.5
370
    35
100
AcDbLine
 10
2656.786271717959
 20
8613.302885076405
 30
0.0
 11
2656.786271717959
 21
8611.974425076402
 31
0.0
  0
ARC
  5
2C663
330
1E
100
AcDbEntity
  8
1-4_ビス
  6
Continuous
 62
     7
 48
0.5
370
    35
100
AcDbCircle
 10
2658.691271717959
 20
8613.302885076405
 30
0.0
 40
1.905
100
AcDbArc
 50
89.99999999999998
 51
180.0
  0
LINE
  5
2C664
330
1E
100
AcDbEntity
  8
1-4_ビス
  6
Continuous
 62
     7
 48
0.5
370
    35
100
AcDbLine
 10
2652.341271717959
 20
8616.477885076402
 30
0.0
 11
2652.341271717959
 21
8615.207885076404
 31
0.0
  0
LINE
  5
2C665
330
1E
100
AcDbEntity
  8
1-4_ビス
  6
Continuous
 62
     7
 48
0.5
370
    35
100
AcDbLine
 10
2653.61127171796
 20
8616.477885076402
 30
0.0
 11
2652.341271717959
 21
8616.477885076402
 31
0.0
  0
LINE
  5
2C666
330
1E
100
AcDbEntity
  8
1-4_ビス
  6
Continuous
 62
     7
 48
0.5
370
    35
100
AcDbLine
 10
2655.516271717959
 20
8619.594425076405
 30
0.0
 11
2656.786271717959
 21
8619.594425076405
 31
0.0
  0
LINE
  5
2C667
330
1E
100
AcDbEntity
  8
1-4_ビス
  6
Continuous
 62
     7
 48
0.5
370
    35
100
AcDbLine
 10
2655.516271717959
 20
8618.382885076407
 30
0.0
 11
2655.516271717959
 21
8619.594425076405
 31
0.0
  0
ARC
  5
2C668
330
1E
100
AcDbEntity
  8
1-4_ビス
  6
Continuous
 62
     7
 48
0.5
370
    35
100
AcDbCircle
 10
2653.611271717959
 20
8618.382885076407
 30
0.0
 40
1.905
100
AcDbArc
 50
270.0
 51
0.0
  0
LINE
  5
2C669
330
1E
100
AcDbEntity
  8
1-4_ビス
  6
Continuous
 62
     7
 48
0.5
370
    35
100
AcDbLine
 10
2658.691271717959
 20
8616.477885076402
 30
0.0
 11
2659.96127171796
 21
8616.477885076402
 31
0.0
  0
LINE
  5
2C66A
330
1E
100
AcDbEntity
  8
1-4_ビス
  6
Continuous
 62
     7
 48
0.5
370
    35
100
AcDbLine
 10
2656.786271717959
 20
8618.382885076407
 30
0.0
 11
2656.786271717959
 21
8619.594425076405
 31
0.0
  0
ARC
  5
2C66B
330
1E
100
AcDbEntity
  8
1-4_ビス
  6
Continuous
 62
     7
 48
0.5
370
    35
100
AcDbCircle
 10
2658.691271717959
 20
8618.382885076407
 30
0.0
 40
1.905
100
AcDbArc
 50
180.0
 51
270.0
  0
LINE
  5
2C66C
330
1E
100
AcDbEntity
  8
1-4_ビス
  6
Continuous
 62
     7
 48
0.5
370
    35
100
AcDbLine
 10
2655.516271717959
 20
8613.302885076405
 30
0.0
 11
2655.516271717959
 21
8611.974425076402
 31
0.0
  0
LINE
  5
2C66D
330
1E
100
AcDbEntity
  8
1-4_ビス
  6
Continuous
 62
     7
 48
0.5
370
    35
100
AcDbLine
 10
2653.61127171796
 20
8615.207885076404
 30
0.0
 11
2652.341271717959
 21
8615.207885076404
 31
0.0
  0
ARC
  5
2C66E
330
1E
100
AcDbEntity
  8
1-4_ビス
  6
Continuous
 62
     7
 48
0.5
370
    35
100
AcDbCircle
 10
2653.611271717959
 20
8613.302885076405
 30
0.0
 40
1.905
100
AcDbArc
 50
0.0
 51
89.99999999999998
  0
ARC
  5
2C66F
330
1E
100
AcDbEntity
  8
1-4_ビス
  6
Continuous
 62
     7
 48
0.5
370
    35
100
AcDbCircle
 10
2653.611271717959
 20
8688.382885076407
 30
0.0
 40
1.905
100
AcDbArc
 50
270.0
 51
0.0
  0
LINE
  5
2C670
330
1E
100
AcDbEntity
  8
1-4_ビス
  6
Continuous
 62
     7
 48
0.5
370
    35
100
AcDbLine
 10
2655.516271717959
 20
8688.382885076407
 30
0.0
 11
2655.516271717959
 21
8689.594425076405
 31
0.0
  0
LINE
  5
2C671
330
1E
100
AcDbEntity
  8
1-4_ビス
  6
Continuous
 62
     7
 48
0.5
370
    35
100
AcDbLine
 10
2655.516271717959
 20
8689.594425076405
 30
0.0
 11
2656.786271717959
 21
8689.594425076405
 31
0.0
  0
LINE
  5
2C672
330
1E
100
AcDbEntity
  8
1-4_ビス
  6
Continuous
 62
     7
 48
0.5
370
    35
100
AcDbLine
 10
2653.61127171796
 20
8686.477885076401
 30
0.0
 11
2652.341271717959
 21
8686.477885076401
 31
0.0
  0
LINE
  5
2C673
330
1E
100
AcDbEntity
  8
1-4_ビス
  6
Continuous
 62
     7
 48
0.5
370
    35
100
AcDbLine
 10
2652.341271717959
 20
8686.477885076401
 30
0.0
 11
2652.341271717959
 21
8685.207885076405
 31
0.0
  0
CIRCLE
  5
2C674
330
1E
100
AcDbEntity
  8
1-4_ビス
  6
Continuous
 62
     7
 48
0.5
370
    35
100
AcDbCircle
 10
2656.151271717958
 20
8685.828275076401
 30
0.0
 40
8.9
  0
ARC
  5
2C675
330
1E
100
AcDbEntity
  8
1-4_ビス
  6
Continuous
 62
     7
 48
0.5
370
    35
100
AcDbCircle
 10
2658.691271717959
 20
8683.302885076406
 30
0.0
 40
1.905
100
AcDbArc
 50
89.99999999999998
 51
180.0
  0
LINE
  5
2C676
330
1E
100
AcDbEntity
  8
1-4_ビス
  6
Continuous
 62
     7
 48
0.5
370
    35
100
AcDbLine
 10
2656.786271717959
 20
8683.302885076406
 30
0.0
 11
2656.786271717959
 21
8681.974425076402
 31
0.0
  0
LINE
  5
2C677
330
1E
100
AcDbEntity
  8
1-4_ビス
  6
Continuous
 62
     7
 48
0.5
370
    35
100
AcDbLine
 10
2658.691271717959
 20
8685.207885076405
 30
0.0
 11
2659.96127171796
 21
8685.207885076405
 31
0.0
  0
LINE
  5
2C678
330
1E
100
AcDbEntity
  8
1-4_ビス
  6
Continuous
 62
     7
 48
0.5
370
    35
100
AcDbLine
 10
2655.516271717959
 20
8681.974425076402
 30
0.0
 11
2656.786271717959
 21
8681.974425076402
 31
0.0
  0
LINE
  5
2C679
330
1E
100
AcDbEntity
  8
1-4_ビス
  6
Continuous
 62
     7
 48
0.5
370
    35
100
AcDbLine
 10
2659.96127171796
 20
8685.207885076405
 30
0.0
 11
2659.96127171796
 21
8686.477885076401
 31
0.0
  0
ARC
  5
2C67A
330
1E
100
AcDbEntity
  8
1-4_ビス
  6
Continuous
 62
     7
 48
0.5
370
    35
100
AcDbCircle
 10
2653.611271717959
 20
8683.302885076406
 30
0.0
 40
1.905
100
AcDbArc
 50
0.0
 51
89.99999999999998
  0
LINE
  5
2C67B
330
1E
100
AcDbEntity
  8
1-4_ビス
  6
Continuous
 62
     7
 48
0.5
370
    35
100
AcDbLine
 10
2653.61127171796
 20
8685.207885076405
 30
0.0
 11
2652.341271717959
 21
8685.207885076405
 31
0.0
  0
LINE
  5
2C67C
330
1E
100
AcDbEntity
  8
1-4_ビス
  6
Continuous
 62
     7
 48
0.5
370
    35
100
AcDbLine
 10
2655.516271717959
 20
8683.302885076406
 30
0.0
 11
2655.516271717959
 21
8681.974425076402
 31
0.0
  0
ARC
  5
2C67D
330
1E
100
AcDbEntity
  8
1-4_ビス
  6
Continuous
 62
     7
 48
0.5
370
    35
100
AcDbCircle
 10
2658.691271717959
 20
8688.382885076407
 30
0.0
 40
1.905
100
AcDbArc
 50
180.0
 51
270.0
  0
LINE
  5
2C67E
330
1E
100
AcDbEntity
  8
1-4_ビス
  6
Continuous
 62
     7
 48
0.5
370
    35
100
AcDbLine
 10
2656.786271717959
 20
8688.382885076407
 30
0.0
 11
2656.786271717959
 21
8689.594425076405
 31
0.0
  0
LINE
  5
2C67F
330
1E
100
AcDbEntity
  8
1-4_ビス
  6
Continuous
 62
     7
 48
0.5
370
    35
100
AcDbLine
 10
2658.691271717959
 20
8686.477885076401
 30
0.0
 11
2659.96127171796
 21
8686.477885076401
 31
0.0
  0
LINE
  5
2C680
330
1E
100
AcDbEntity
  8
1-4_ビス
  6
Continuous
 62
     7
 48
0.5
370
    35
100
AcDbLine
 10
2622.46127171796
 20
8685.207885076405
 30
0.0
 11
2622.46127171796
 21
8686.477885076401
 31
0.0
  0
LINE
  5
2C681
330
1E
100
AcDbEntity
  8
1-4_ビス
  6
Continuous
 62
     7
 48
0.5
370
    35
100
AcDbLine
 10
2618.016271717959
 20
8681.974425076402
 30
0.0
 11
2619.286271717959
 21
8681.974425076402
 31
0.0
  0
LINE
  5
2C682
330
1E
100
AcDbEntity
  8
1-4_ビス
  6
Continuous
 62
     7
 48
0.5
370
    35
100
AcDbLine
 10
2621.19127171796
 20
8685.207885076405
 30
0.0
 11
2622.46127171796
 21
8685.207885076405
 31
0.0
  0
LINE
  5
2C683
330
1E
100
AcDbEntity
  8
1-4_ビス
  6
Continuous
 62
     7
 48
0.5
370
    35
100
AcDbLine
 10
2619.286271717959
 20
8683.302885076406
 30
0.0
 11
2619.286271717959
 21
8681.974425076402
 31
0.0
  0
ARC
  5
2C684
330
1E
100
AcDbEntity
  8
1-4_ビス
  6
Continuous
 62
     7
 48
0.5
370
    35
100
AcDbCircle
 10
2621.191271717959
 20
8683.302885076406
 30
0.0
 40
1.905
100
AcDbArc
 50
89.99999999999998
 51
180.0
  0
LINE
  5
2C685
330
1E
100
AcDbEntity
  8
1-4_ビス
  6
Continuous
 62
     7
 48
0.5
370
    35
100
AcDbLine
 10
2614.841271717959
 20
8686.477885076401
 30
0.0
 11
2614.841271717959
 21
8685.207885076405
 31
0.0
  0
LINE
  5
2C686
330
1E
100
AcDbEntity
  8
1-4_ビス
  6
Continuous
 62
     7
 48
0.5
370
    35
100
AcDbLine
 10
2616.11127171796
 20
8686.477885076401
 30
0.0
 11
2614.841271717959
 21
8686.477885076401
 31
0.0
  0
LINE
  5
2C687
330
1E
100
AcDbEntity
  8
1-4_ビス
  6
Continuous
 62
     7
 48
0.5
370
    35
100
AcDbLine
 10
2618.016271717959
 20
8689.594425076405
 30
0.0
 11
2619.286271717959
 21
8689.594425076405
 31
0.0
  0
LINE
  5
2C688
330
1E
100
AcDbEntity
  8
1-4_ビス
  6
Continuous
 62
     7
 48
0.5
370
    35
100
AcDbLine
 10
2618.016271717959
 20
8688.382885076407
 30
0.0
 11
2618.016271717959
 21
8689.594425076405
 31
0.0
  0
ARC
  5
2C689
330
1E
100
AcDbEntity
  8
1-4_ビス
  6
Continuous
 62
     7
 48
0.5
370
    35
100
AcDbCircle
 10
2616.111271717959
 20
8688.382885076407
 30
0.0
 40
1.905
100
AcDbArc
 50
270.0
 51
0.0
  0
LINE
  5
2C68A
330
1E
100
AcDbEntity
  8
1-4_ビス
  6
Continuous
 62
     7
 48
0.5
370
    35
100
AcDbLine
 10
2621.19127171796
 20
8686.477885076401
 30
0.0
 11
2622.46127171796
 21
8686.477885076401
 31
0.0
  0
LINE
  5
2C68B
330
1E
100
AcDbEntity
  8
1-4_ビス
  6
Continuous
 62
     7
 48
0.5
370
    35
100
AcDbLine
 10
2619.286271717959
 20
8688.382885076407
 30
0.0
 11
2619.286271717959
 21
8689.594425076405
 31
0.0
  0
ARC
  5
2C68C
330
1E
100
AcDbEntity
  8
1-4_ビス
  6
Continuous
 62
     7
 48
0.5
370
    35
100
AcDbCircle
 10
2621.191271717959
 20
8688.382885076407
 30
0.0
 40
1.905
100
AcDbArc
 50
180.0
 51
270.0
  0
LINE
  5
2C68D
330
1E
100
AcDbEntity
  8
1-4_ビス
  6
Continuous
 62
     7
 48
0.5
370
    35
100
AcDbLine
 10
2618.016271717959
 20
8683.302885076406
 30
0.0
 11
2618.016271717959
 21
8681.974425076402
 31
0.0
  0
LINE
  5
2C68E
330
1E
100
AcDbEntity
  8
1-4_ビス
  6
Continuous
 62
     7
 48
0.5
370
    35
100
AcDbLine
 10
2616.11127171796
 20
8685.207885076405
 30
0.0
 11
2614.841271717959
 21
8685.207885076405
 31
0.0
  0
ARC
  5
2C68F
330
1E
100
AcDbEntity
  8
1-4_ビス
  6
Continuous
 62
     7
 48
0.5
370
    35
100
AcDbCircle
 10
2616.111271717959
 20
8683.302885076406
 30
0.0
 40
1.905
100
AcDbArc
 50
0.0
 51
89.99999999999998
  0
CIRCLE
  5
2C690
330
1E
100
AcDbEntity
  8
1-4_ビス
  6
Continuous
 62
     7
 48
0.5
370
    35
100
AcDbCircle
 10
2618.651271717958
 20
8685.828275076401
 30
0.0
 40
8.9
  0
CIRCLE
  5
2C691
330
1E
100
AcDbEntity
  8
1-4_ビス
  6
Continuous
 62
     7
 48
0.5
370
    35
100
AcDbCircle
 10
2693.651271717957
 20
8685.828275076401
 30
0.0
 40
8.9
  0
LINE
  5
2C692
330
1E
100
AcDbEntity
  8
1-4_ビス
  6
Continuous
 62
     7
 48
0.5
370
    35
100
AcDbLine
 10
2689.841271717957
 20
8686.477885076401
 30
0.0
 11
2689.841271717957
 21
8685.207885076405
 31
0.0
  0
LINE
  5
2C693
330
1E
100
AcDbEntity
  8
1-4_ビス
  6
Continuous
 62
     7
 48
0.5
370
    35
100
AcDbLine
 10
2691.111271717958
 20
8686.477885076401
 30
0.0
 11
2689.841271717957
 21
8686.477885076401
 31
0.0
  0
LINE
  5
2C694
330
1E
100
AcDbEntity
  8
1-4_ビス
  6
Continuous
 62
     7
 48
0.5
370
    35
100
AcDbLine
 10
2693.016271717957
 20
8689.594425076405
 30
0.0
 11
2694.286271717957
 21
8689.594425076405
 31
0.0
  0
LINE
  5
2C695
330
1E
100
AcDbEntity
  8
1-4_ビス
  6
Continuous
 62
     7
 48
0.5
370
    35
100
AcDbLine
 10
2693.016271717957
 20
8688.382885076407
 30
0.0
 11
2693.016271717957
 21
8689.594425076405
 31
0.0
  0
ARC
  5
2C696
330
1E
100
AcDbEntity
  8
1-4_ビス
  6
Continuous
 62
     7
 48
0.5
370
    35
100
AcDbCircle
 10
2691.111271717958
 20
8688.382885076407
 30
0.0
 40
1.905
100
AcDbArc
 50
270.0
 51
0.0
  0
LINE
  5
2C697
330
1E
100
AcDbEntity
  8
1-4_ビス
  6
Continuous
 62
     7
 48
0.5
370
    35
100
AcDbLine
 10
2697.461271717958
 20
8685.20788507641
 30
0.0
 11
2697.461271717958
 21
8686.477885076406
 31
0.0
  0
LINE
  5
2C698
330
1E
100
AcDbEntity
  8
1-4_ビス
  6
Continuous
 62
     7
 48
0.5
370
    35
100
AcDbLine
 10
2693.016271717957
 20
8681.974425076402
 30
0.0
 11
2694.286271717957
 21
8681.974425076402
 31
0.0
  0
LINE
  5
2C699
330
1E
100
AcDbEntity
  8
1-4_ビス
  6
Continuous
 62
     7
 48
0.5
370
    35
100
AcDbLine
 10
2696.191271717957
 20
8685.20788507641
 30
0.0
 11
2697.461271717958
 21
8685.20788507641
 31
0.0
  0
LINE
  5
2C69A
330
1E
100
AcDbEntity
  8
1-4_ビス
  6
Continuous
 62
     7
 48
0.5
370
    35
100
AcDbLine
 10
2694.286271717957
 20
8683.302885076406
 30
0.0
 11
2694.286271717957
 21
8681.974425076402
 31
0.0
  0
ARC
  5
2C69B
330
1E
100
AcDbEntity
  8
1-4_ビス
  6
Continuous
 62
     7
 48
0.5
370
    35
100
AcDbCircle
 10
2696.191271717957
 20
8683.302885076406
 30
0.0
 40
1.905
100
AcDbArc
 50
89.99999999999998
 51
180.0
  0
LINE
  5
2C69C
330
1E
100
AcDbEntity
  8
1-4_ビス
  6
Continuous
 62
     7
 48
0.5
370
    35
100
AcDbLine
 10
2696.191271717957
 20
8686.477885076406
 30
0.0
 11
2697.461271717958
 21
8686.477885076406
 31
0.0
  0
LINE
  5
2C69D
330
1E
100
AcDbEntity
  8
1-4_ビス
  6
Continuous
 62
     7
 48
0.5
370
    35
100
AcDbLine
 10
2694.286271717957
 20
8688.382885076407
 30
0.0
 11
2694.286271717957
 21
8689.594425076405
 31
0.0
  0
ARC
  5
2C69E
330
1E
100
AcDbEntity
  8
1-4_ビス
  6
Continuous
 62
     7
 48
0.5
370
    35
100
AcDbCircle
 10
2696.191271717957
 20
8688.382885076407
 30
0.0
 40
1.905
100
AcDbArc
 50
180.0
 51
270.0
  0
LINE
  5
2C69F
330
1E
100
AcDbEntity
  8
1-4_ビス
  6
Continuous
 62
     7
 48
0.5
370
    35
100
AcDbLine
 10
2693.016271717957
 20
8683.302885076406
 30
0.0
 11
2693.016271717957
 21
8681.974425076402
 31
0.0
  0
LINE
  5
2C6A0
330
1E
100
AcDbEntity
  8
1-4_ビス
  6
Continuous
 62
     7
 48
0.5
370
    35
100
AcDbLine
 10
2691.111271717958
 20
8685.207885076405
 30
0.0
 11
2689.841271717957
 21
8685.207885076405
 31
0.0
  0
ARC
  5
2C6A1
330
1E
100
AcDbEntity
  8
1-4_ビス
  6
Continuous
 62
     7
 48
0.5
370
    35
100
AcDbCircle
 10
2691.111271717958
 20
8683.302885076406
 30
0.0
 40
1.905
100
AcDbArc
 50
0.0
 51
89.99999999999998
  0
ARC
  5
2C6A2
330
1E
100
AcDbEntity
  8
1-4_ビス
  6
Continuous
 62
     7
 48
0.5
370
    35
100
AcDbCircle
 10
2691.111271717959
 20
8618.382885076407
 30
0.0
 40
1.905
100
AcDbArc
 50
270.0
 51
0.0
  0
LINE
  5
2C6A3
330
1E
100
AcDbEntity
  8
1-4_ビス
  6
Continuous
 62
     7
 48
0.5
370
    35
100
AcDbLine
 10
2693.016271717958
 20
8618.382885076407
 30
0.0
 11
2693.016271717958
 21
8619.594425076405
 31
0.0
  0
LINE
  5
2C6A4
330
1E
100
AcDbEntity
  8
1-4_ビス
  6
Continuous
 62
     7
 48
0.5
370
    35
100
AcDbLine
 10
2693.016271717958
 20
8619.594425076405
 30
0.0
 11
2694.286271717959
 21
8619.594425076405
 31
0.0
  0
LINE
  5
2C6A5
330
1E
100
AcDbEntity
  8
1-4_ビス
  6
Continuous
 62
     7
 48
0.5
370
    35
100
AcDbLine
 10
2691.111271717959
 20
8616.477885076402
 30
0.0
 11
2689.841271717959
 21
8616.477885076402
 31
0.0
  0
LINE
  5
2C6A6
330
1E
100
AcDbEntity
  8
1-4_ビス
  6
Continuous
 62
     7
 48
0.5
370
    35
100
AcDbLine
 10
2689.841271717959
 20
8616.477885076402
 30
0.0
 11
2689.841271717959
 21
8615.207885076404
 31
0.0
  0
CIRCLE
  5
2C6A7
330
1E
100
AcDbEntity
  8
1-4_ビス
  6
Continuous
 62
     7
 48
0.5
370
    35
100
AcDbCircle
 10
2693.651271717958
 20
8615.828275076401
 30
0.0
 40
8.9
  0
ARC
  5
2C6A8
330
1E
100
AcDbEntity
  8
1-4_ビス
  6
Continuous
 62
     7
 48
0.5
370
    35
100
AcDbCircle
 10
2696.191271717959
 20
8613.302885076405
 30
0.0
 40
1.905
100
AcDbArc
 50
89.99999999999998
 51
180.0
  0
LINE
  5
2C6A9
330
1E
100
AcDbEntity
  8
1-4_ビス
  6
Continuous
 62
     7
 48
0.5
370
    35
100
AcDbLine
 10
2694.286271717959
 20
8613.302885076405
 30
0.0
 11
2694.286271717959
 21
8611.974425076402
 31
0.0
  0
LINE
  5
2C6AA
330
1E
100
AcDbEntity
  8
1-4_ビス
  6
Continuous
 62
     7
 48
0.5
370
    35
100
AcDbLine
 10
2696.191271717959
 20
8615.207885076404
 30
0.0
 11
2697.46127171796
 21
8615.207885076404
 31
0.0
  0
LINE
  5
2C6AB
330
1E
100
AcDbEntity
  8
1-4_ビス
  6
Continuous
 62
     7
 48
0.5
370
    35
100
AcDbLine
 10
2693.016271717958
 20
8611.974425076402
 30
0.0
 11
2694.286271717959
 21
8611.974425076402
 31
0.0
  0
LINE
  5
2C6AC
330
1E
100
AcDbEntity
  8
1-4_ビス
  6
Continuous
 62
     7
 48
0.5
370
    35
100
AcDbLine
 10
2697.46127171796
 20
8615.207885076404
 30
0.0
 11
2697.46127171796
 21
8616.477885076402
 31
0.0
  0
ARC
  5
2C6AD
330
1E
100
AcDbEntity
  8
1-4_ビス
  6
Continuous
 62
     7
 48
0.5
370
    35
100
AcDbCircle
 10
2691.111271717959
 20
8613.302885076405
 30
0.0
 40
1.905
100
AcDbArc
 50
0.0
 51
89.99999999999998
  0
LINE
  5
2C6AE
330
1E
100
AcDbEntity
  8
1-4_ビス
  6
Continuous
 62
     7
 48
0.5
370
    35
100
AcDbLine
 10
2691.111271717959
 20
8615.207885076404
 30
0.0
 11
2689.841271717959
 21
8615.207885076404
 31
0.0
  0
LINE
  5
2C6AF
330
1E
100
AcDbEntity
  8
1-4_ビス
  6
Continuous
 62
     7
 48
0.5
370
    35
100
AcDbLine
 10
2693.016271717958
 20
8613.302885076405
 30
0.0
 11
2693.016271717958
 21
8611.974425076402
 31
0.0
  0
ARC
  5
2C6B0
330
1E
100
AcDbEntity
  8
1-4_ビス
  6
Continuous
 62
     7
 48
0.5
370
    35
100
AcDbCircle
 10
2696.191271717959
 20
8618.382885076407
 30
0.0
 40
1.905
100
AcDbArc
 50
180.0
 51
270.0
  0
LINE
  5
2C6B1
330
1E
100
AcDbEntity
  8
1-4_ビス
  6
Continuous
 62
     7
 48
0.5
370
    35
100
AcDbLine
 10
2694.286271717959
 20
8618.382885076407
 30
0.0
 11
2694.286271717959
 21
8619.594425076405
 31
0.0
  0
LINE
  5
2C6B2
330
1E
100
AcDbEntity
  8
1-4_ビス
  6
Continuous
 62
     7
 48
0.5
370
    35
100
AcDbLine
 10
2696.191271717959
 20
8616.477885076402
 30
0.0
 11
2697.46127171796
 21
8616.477885076402
 31
0.0
  0
LINE
  5
2C831
330
1E
100
AcDbEntity
  8
1-5_ビス2
  6
かくれ線
 62
     7
 48
0.5
370
    18
100
AcDbLine
 10
2828.879483336421
 20
8516.272191063897
 30
0.0
 11
2836.879483336421
 21
8516.272191063897
 31
0.0
  0
LINE
  5
2C832
330
1E
100
AcDbEntity
  8
1-5_ビス2
  6
かくれ線
 62
     7
 48
0.5
370
    18
100
AcDbLine
 10
2791.379483336421
 20
8516.272191063897
 30
0.0
 11
2799.379483336421
 21
8516.272191063897
 31
0.0
  0
DIMENSION
  5
2C838
330
1E
100
AcDbEntity
  8
1-B_寸法
  6
Continuous
 62
     3
 48
0.5
370
    18
100
AcDbDimension
280
     0
  2
*D24
 10
2650.379483336422
 20
8495.907191063897
 30
0.0
 11
2650.37948333642
 21
8515.540609689544
 31
0.0
 70
   160
 71
     5
 42
32.00000000000182
 73
     0
 74
     0
 75
     0
  3
ISO-25
100
AcDbAlignedDimension
 13
2665.37948333642
 23
8527.907191063899
 33
0.0
 14
2665.37948333642
 24
8495.907191063897
 34
0.0
 50
270.0
100
AcDbRotatedDimension
  0
ARC
  5
2C8C6
330
1E
100
AcDbEntity
  8
1-2_扉･枠
  6
想像線
 62
     4
 48
0.25
370
    18
100
AcDbCircle
 10
2666.373877848186
 20
8529.407191063899
 30
0.0
 40
1.5
100
AcDbArc
 50
180.0
 51
270.0
  0
ARC
  5
2C8C7
330
1E
100
AcDbEntity
  8
1-2_扉･枠
  6
想像線
 62
     4
 48
0.25
370
    18
100
AcDbCircle
 10
2735.373877848186
 20
8529.407191063899
 30
0.0
 40
1.5
100
AcDbArc
 50
270.0
 51
359.9999999999965
  0
HATCH
  5
2C8D6
330
1E
100
AcDbEntity
  8
1-2_扉･枠
  6
かくれ線
 62
     4
 48
0.25
370
    18
100
AcDbHatch
 10
0.0
 20
0.0
 30
0.0
210
0.0
220
0.0
230
1.0
  2
ANSI37
 70
     0
 71
     1
 91
        1
 92
        7
 72
     1
 73
     1
 93
        6
 10
2742.878235171789
 20
8525.907191063899
 42
0.4142135623730951
 10
2740.878235171789
 20
8527.907191063899
 42
0.0
 10
2719.878235171788
 20
8527.907191063899
 42
0.4252272857059315
 10
2717.879637978591
 20
8525.832296075122
 42
0.0
 10
2717.879484983957
 20
8503.151431942098
 42
0.0
 10
2742.878235171788
 20
8503.151431942098
 42
0.0
 97
        6
330
2C8E6
330
2C8E7
330
2C8E8
330
2C8DC
330
2C8E0
330
2C8E5
 75
     0
 76
     1
 52
0.0
 41
45.0
 77
     0
 78
     2
 53
45.0
 43
2955.426217894591
 44
-44.22368376751182
 45
-3.977475644174329
 46
3.977475644174329
 79
     0
 53
135.0
 43
2955.426217894591
 44
-44.22368376751182
 45
-3.977475644174329
 46
-3.977475644174329
 79
     0
 47
0.1722190457041295
 98
        1
 10
2731.825470041059
 20
8514.871714508387
  0
LINE
  5
2C8D8
330
1E
100
AcDbEntity
  8
1-2_扉･枠
  6
想像線
 62
     4
 48
0.25
370
    18
100
AcDbLine
 10
2717.878235171788
 20
8502.907191063899
 30
0.0
 11
2717.878235171788
 21
8501.507191063899
 31
0.0
  0
LINE
  5
2C8D9
330
1E
100
AcDbEntity
  8
1-2_扉･枠
  6
想像線
 62
     4
 48
0.25
370
    18
100
AcDbLine
 10
2742.879483336421
 20
8503.151431942098
 30
0.0
 11
2717.878235171788
 21
8503.151431942098
 31
0.0
  0
LINE
  5
2C8DA
330
1E
100
AcDbEntity
  8
1-2_扉･枠
  6
想像線
 62
     4
 48
0.25
370
    18
100
AcDbLine
 10
2742.879638989187
 20
8525.982113015905
 30
0.0
 11
2742.878235171788
 21
8503.151431942098
 31
0.0
  0
LINE
  5
2C8DC
102
{ACAD_REACTORS
330
2C8D6
102
}
330
1E
100
AcDbEntity
  8
1-2_扉･枠
  6
想像線
 62
     4
 48
0.25
370
    18
100
AcDbLine
 10
2717.879483336421
 20
8502.907191063899
 30
0.0
 11
2717.879638989187
 21
8525.982113015905
 31
0.0
  0
LINE
  5
2C8DF
330
1E
100
AcDbEntity
  8
1-2_扉･枠
  6
想像線
 62
     4
 48
0.25
370
    18
100
AcDbLine
 10
2716.278235171789
 20
8519.907191063898
 30
0.0
 11
2717.878235171788
 21
8519.907191063898
 31
0.0
  0
LINE
  5
2C8E0
102
{ACAD_REACTORS
330
2C8D6
102
}
330
1E
100
AcDbEntity
  8
1-2_扉･枠
  6
想像線
 62
     4
 48
0.25
370
    18
100
AcDbLine
 10
2717.878235171788
 20
8503.151431942098
 30
0.0
 11
2742.878235171788
 21
8503.151431942098
 31
0.0
  0
LINE
  5
2C8E1
330
1E
100
AcDbEntity
  8
1-2_扉･枠
  6
想像線
 62
     4
 48
0.25
370
    18
100
AcDbLine
 10
2717.878235171788
 20
8501.507191063899
 30
0.0
 11
2717.878235171788
 21
8519.907191063898
 31
0.0
  0
LINE
  5
2C8E3
330
1E
100
AcDbEntity
  8
1-2_扉･枠
  6
想像線
 62
     4
 48
0.25
370
    18
100
AcDbLine
 10
2744.478235171789
 20
8568.307191063901
 30
0.0
 11
2744.478235171789
 21
8503.807191063899
 31
0.0
  0
LINE
  5
2C8E5
102
{ACAD_REACTORS
330
2C8D6
102
}
330
1E
100
AcDbEntity
  8
1-2_扉･枠
  6
想像線
 62
     4
 48
0.25
370
    18
100
AcDbLine
 10
2742.878235171788
 20
8503.151431942098
 30
0.0
 11
2742.878235171788
 21
8568.307191063901
 31
0.0
  0
ARC
  5
2C8E6
102
{ACAD_REACTORS
330
2C8D6
102
}
330
1E
100
AcDbEntity
  8
1-2_扉･枠
  6
想像線
 62
     4
 48
0.25
370
    18
100
AcDbCircle
 10
2740.878235171789
 20
8525.907191063899
 30
0.0
 40
2.0
100
AcDbArc
 50
0.0
 51
90.0
  0
LINE
  5
2C8E7
102
{ACAD_REACTORS
330
2C8D6
102
}
330
1E
100
AcDbEntity
  8
1-2_扉･枠
  6
想像線
 62
     4
 48
0.25
370
    18
100
AcDbLine
 10
2740.878235171789
 20
8527.907191063899
 30
0.0
 11
2719.878235171788
 21
8527.907191063899
 31
0.0
  0
ARC
  5
2C8E8
102
{ACAD_REACTORS
330
2C8D6
102
}
330
1E
100
AcDbEntity
  8
1-2_扉･枠
  6
想像線
 62
     4
 48
0.25
370
    18
100
AcDbCircle
 10
2719.878235171788
 20
8525.907191063899
 30
0.0
 40
2.0
100
AcDbArc
 50
90.0
 51
180.0
  0
LINE
  5
2C8EF
330
1E
100
AcDbEntity
  8
1-2_扉･枠
  6
想像線
 62
     4
 48
0.25
370
    18
100
AcDbLine
 10
2744.478235171789
 20
8569.907191063903
 30
0.0
 11
2860.929862665831
 21
8569.907191063903
 31
0.0
  0
LINE
  5
2C8F1
330
1E
100
AcDbEntity
  8
1-2_扉･枠
  6
想像線
 62
     4
 48
0.25
370
    18
100
AcDbLine
 10
2717.878235171788
 20
8499.907191063901
 30
0.0
 11
2860.879483336423
 21
8499.907191063901
 31
0.0
  0
HATCH
  5
2C901
330
1E
100
AcDbEntity
  8
1-2_扉･枠
  6
かくれ線
 62
     4
 48
0.25
370
    18
100
AcDbHatch
 10
0.0
 20
0.0
 30
0.0
210
0.0
220
0.0
230
1.0
  2
ANSI37
 70
     0
 71
     0
 91
        1
 92
        7
 72
     1
 73
     1
 93
        6
 10
2736.878235171789
 20
8571.907191063901
 42
0.4142135623730951
 10
2738.878235171788
 20
8569.907191063903
 42
0.0
 10
2759.878235171788
 20
8569.907191063903
 42
0.4142135623730951
 10
2761.878235171788
 20
8571.907191063901
 42
0.0
 10
2761.878235171789
 20
8594.907191063901
 42
0.0
 10
2736.878235171789
 20
8594.907191063901
 42
0.0
 97
        0
 75
     0
 76
     1
 52
0.0
 41
45.0
 77
     0
 78
     2
 53
45.0
 43
2960.426217894591
 44
-14.22368376751183
 45
-3.977475644174329
 46
3.977475644174329
 79
     0
 53
135.0
 43
2960.426217894591
 44
-14.22368376751183
 45
-3.977475644174329
 46
-3.977475644174329
 79
     0
 47
0.1031169370475368
 98
        1
 10
2747.066515532065
 20
8583.769330720055
  0
LINE
  5
2C902
330
1E
100
AcDbEntity
  8
1-2_扉･枠
  6
想像線
 62
     4
 48
0.25
370
    18
100
AcDbLine
 10
2756.814408379465
 20
8602.578280750025
 30
0.0
 11
2760.014408379465
 21
8602.578280750025
 31
0.0
  0
LINE
  5
2C903
330
1E
100
AcDbEntity
  8
1-2_扉･枠
  6
想像線
 62
     4
 48
0.25
370
    18
100
AcDbLine
 10
2761.878235171789
 20
8596.507191063903
 30
0.0
 11
2761.878235171789
 21
8601.407191063902
 31
0.0
  0
ARC
  5
2C907
330
1E
100
AcDbEntity
  8
1-2_扉･枠
  6
想像線
 62
     4
 48
0.25
370
    18
100
AcDbCircle
 10
2763.47823517179
 20
8579.407191063904
 30
0.0
 40
1.600000000001273
100
AcDbArc
 50
180.0000000000651
 51
359.9999999999349
  0
LINE
  5
2C909
330
1E
100
AcDbEntity
  8
1-2_扉･枠
  6
想像線
 62
     4
 48
0.25
370
    18
100
AcDbLine
 10
2763.478235171789
 20
8601.407191063902
 30
0.0
 11
2763.478235171789
 21
8579.407191063902
 31
0.0
  0
LINE
  5
2C90A
330
1E
100
AcDbEntity
  8
1-2_扉･枠
  6
想像線
 62
     4
 48
0.25
370
    18
100
AcDbLine
 10
2765.078235171789
 20
8601.407191063902
 30
0.0
 11
2765.078235171789
 21
8579.407191063902
 31
0.0
  0
LINE
  5
2C90B
330
1E
100
AcDbEntity
  8
1-2_扉･枠
  6
想像線
 62
     4
 48
0.25
370
    18
100
AcDbLine
 10
2761.878235171788
 20
8601.407191063902
 30
0.0
 11
2761.878235171788
 21
8571.907191063901
 31
0.0
  0
LINE
  5
2C90C
330
1E
100
AcDbEntity
  8
1-2_扉･枠
  6
想像線
 62
     4
 48
0.25
370
    18
100
AcDbLine
 10
2736.873877848189
 20
8594.907191063901
 30
0.0
 11
2761.878235171788
 21
8594.907191063901
 31
0.0
  0
LINE
  5
2C90D
330
1E
100
AcDbEntity
  8
1-2_扉･枠
  6
想像線
 62
     4
 48
0.25
370
    18
100
AcDbLine
 10
2759.878235171788
 20
8569.907191063903
 30
0.0
 11
2738.878235171788
 21
8569.907191063903
 31
0.0
  0
ARC
  5
2C90E
330
1E
100
AcDbEntity
  8
1-2_扉･枠
  6
想像線
 62
     4
 48
0.25
370
    18
100
AcDbCircle
 10
2738.878235171788
 20
8571.907191063901
 30
0.0
 40
2.0
100
AcDbArc
 50
180.0
 51
270.0
  0
ARC
  5
2C90F
330
1E
100
AcDbEntity
  8
1-2_扉･枠
  6
想像線
 62
     4
 48
0.25
370
    18
100
AcDbCircle
 10
2759.878235171788
 20
8571.907191063901
 30
0.0
 40
2.0
100
AcDbArc
 50
270.0
 51
0.0
  0
LINE
  5
2C927
330
1E
100
AcDbEntity
  8
1-2_扉･枠
  6
想像線
 62
     4
 48
0.25
370
    18
100
AcDbLine
 10
2732.273877848186
 20
8532.507191063899
 30
0.0
 11
2732.273877848186
 21
8552.903081063901
 31
0.0
  0
ARC
  5
2C928
330
1E
100
AcDbEntity
  8
1-2_扉･枠
  6
想像線
 62
     4
 48
0.25
370
    18
100
AcDbCircle
 10
2732.273877848186
 20
8532.507191063899
 30
0.0
 40
3.0
100
AcDbArc
 50
270.0
 51
0.0
  0
LEADER
  5
2C92A
330
1E
100
AcDbEntity
  8
1-C_文字
  6
Continuous
 62
     3
 48
0.5
370
    18
100
AcDbLeader
  3
ISO-25
 76
     3
 10
2665.91401030311
 20
8537.568745241564
 30
0.0
 10
2661.044460168744
 20
8546.090457976708
 30
0.0
 10
2659.656632464129
 20
8546.090457976708
 30
0.0
211
-0.999862615292127
221
-0.0165756007791102
231
0.0
213
-0.0497268023373306
223
2.999587845876379
233
0.0
1001
ACAD
1000
DSTYLE
1002
{
1070
    41
1040
3.0
1070
   147
1040
0.625
1070
    77
1070
     0
1002
}
  0
MTEXT
  5
2C92B
330
1E
100
AcDbEntity
  8
1-C_文字
  6
Continuous
 62
     3
 48
0.5
370
    18
100
AcDbMText
 10
2655.645328303287
 20
8547.946705522178
 30
0.0
 40
3.0
 41
3.809703147808026
 46
0.0
 71
     1
 72
     1
  1
枠
  7
明朝
 73
     1
 44
1.0
  0
ARC
  5
2C995
330
1E
100
AcDbEntity
  8
1-5_ビス2
  6
かくれ線
 62
     7
 48
0.5
370
    18
100
AcDbCircle
 10
2561.151271717957
 20
8633.308840165019
 30
0.0
 40
1.5
100
AcDbArc
 50
90.0
 51
180.0
  0
LINE
  5
2C996
330
1E
100
AcDbEntity
  8
1-5_ビス2
  6
かくれ線
 62
     7
 48
0.5
370
    18
100
AcDbLine
 10
2561.151271717957
 20
8634.808840165019
 30
0.0
 11
2562.651271717957
 21
8634.808840165019
 31
0.0
  0
LINE
  5
2C997
330
1E
100
AcDbEntity
  8
1-5_ビス2
  6
かくれ線
 62
     7
 48
0.5
370
    18
100
AcDbLine
 10
2559.651271717957
 20
8633.308840165019
 30
0.0
 11
2559.651271717957
 21
8631.808840165019
 31
0.0
  0
LINE
  5
2C998
330
1E
100
AcDbEntity
  8
1-5_ビス2
  6
かくれ線
 62
     7
 48
0.5
370
    18
100
AcDbLine
 10
2557.651271717957
 20
8631.808840165019
 30
0.0
 11
2559.651271717957
 21
8631.808840165019
 31
0.0
  0
ARC
  5
2C999
330
1E
100
AcDbEntity
  8
1-5_ビス2
  6
かくれ線
 62
     7
 48
0.5
370
    18
100
AcDbCircle
 10
2556.151271717957
 20
8633.308840165019
 30
0.0
 40
1.5
100
AcDbArc
 50
0.0
 51
90.0
  0
LINE
  5
2C99A
330
1E
100
AcDbEntity
  8
1-5_ビス2
  6
かくれ線
 62
     7
 48
0.5
370
    18
100
AcDbLine
 10
2556.151271717957
 20
8634.808840165019
 30
0.0
 11
2554.651271717957
 21
8634.808840165019
 31
0.0
  0
LINE
  5
2C99B
330
1E
100
AcDbEntity
  8
1-5_ビス2
  6
かくれ線
 62
     7
 48
0.5
370
    18
100
AcDbLine
 10
2557.651271717957
 20
8633.308840165019
 30
0.0
 11
2557.651271717957
 21
8631.808840165019
 31
0.0
  0
LEADER
  5
2D316
330
1E
100
AcDbEntity
  8
1-C_文字
  6
Continuous
 62
     3
 48
0.5
370
    18
100
AcDbLeader
  3
ISO-25
 76
     3
 10
2656.151271717962
 20
8615.828275076394
 30
0.0
 10
2669.294128860817
 20
8592.828275076396
 30
0.0
 10
2670.794128860817
 20
8592.828275076396
 30
0.0
211
0.999862615292127
221
0.0165756007791102
231
0.0
213
0.0497268023373306
223
-2.999587845876379
233
0.0
1001
ACAD
1000
DSTYLE
1002
{
1070
    41
1040
3.0
1070
   147
1040
0.625
1070
    77
1070
     0
1002
}
  0
MTEXT
  5
2D317
330
1E
100
AcDbEntity
  8
1-C_文字
  6
Continuous
 62
     3
 48
0.5
370
    18
100
AcDbMText
 10
2670.594133860816
 20
8596.639065372555
 30
0.0
 40
3.0
 41
33.9428
 46
0.0
 71
     1
 72
     1
  1
６-Ｍ８×２５\P(ＳＵＳトラスビス)
  7
明朝
 73
     1
 44
1.0
  0
LINE
  5
2DEF8
330
1E
100
AcDbEntity
  8
印刷されない線
  6
Continuous
 62
   110
 48
0.5
370
    18
100
AcDbLine
 10
2463.151271759822
 20
8455.826176538941
 30
0.0
 11
2872.151271752586
 21
8455.826182212572
 31
0.0
  0
LINE
  5
2DEF9
330
1E
100
AcDbEntity
  8
印刷されない線
  6
Continuous
 62
   110
 48
0.5
370
    18
100
AcDbLine
 10
2463.151271731479
 20
8736.826176538942
 30
0.0
 11
2463.151271759822
 21
8455.826176538941
 31
0.0
  0
LINE
  5
2DEFA
330
1E
100
AcDbEntity
  8
印刷されない線
  6
Continuous
 62
   110
 48
0.5
370
    18
100
AcDbLine
 10
2872.15127171796
 20
8736.826182204522
 30
0.0
 11
2872.151271752586
 21
8455.826182212572
 31
0.0
  0
LINE
  5
2DEFC
330
1E
100
AcDbEntity
  8
印刷されない線
  6
Continuous
 62
   110
 48
0.5
370
    18
100
AcDbLine
 10
2463.151271731479
 20
8736.826176538942
 30
0.0
 11
2872.15127171796
 21
8736.826182204522
 31
0.0
  0
HATCH
  5
2DEFD
330
1E
100
AcDbEntity
  8
図枠
  6
Continuous
 62
   110
 48
0.5
370
    35
100
AcDbHatch
 10
0.0
 20
0.0
 30
0.0
210
0.0
220
0.0
230
1.0
  2
SOLID
 70
     1
 71
     0
 91
        7
 92
        7
 72
     1
 73
     1
 93
        4
 10
2844.074154436232
 20
8736.826182204522
 42
0.791100322966419
 10
2844.074154436232
 20
8730.014068821825
 42
0.0
 10
2864.956739169392
 20
8730.014068821825
 42
0.7911003229657766
 10
2864.956739169397
 20
8736.826182204522
 42
0.0
 97
        0
 92
       22
 72
     0
 73
     1
 93
       13
 10
2852.86755123235
 20
8735.713778423145
 10
2851.376778983462
 20
8730.883966295037
 10
2850.2694454467
 20
8730.883966295037
 10
2849.589406354431
 20
8734.00230592969
 10
2848.913746121294
 20
8730.883966295037
 10
2847.822066694591
 20
8730.883966295037
 10
2846.320783612153
 20
8735.714334354581
 10
2847.42032827288
 20
8735.714334354581
 10
2848.283934318636
 20
8732.935687803346
 10
2848.885992207311
 20
8735.714334354581
 10
2850.290729616025
 20
8735.714334354586
 10
2850.902690632842
 20
8732.908168774846
 10
2851.768671522775
 20
8735.713778423145
 97
        0
 92
       22
 72
     0
 73
     1
 93
        8
 10
2854.148668713376
 20
8735.710487910038
 10
2855.587941597422
 20
8735.710487910038
 10
2857.485167917079
 20
8730.881802669982
 10
2856.33475524471
 20
8730.881802669982
 10
2855.819569989039
 20
8732.274726449718
 10
2853.93305310774
 20
8732.274726449718
 10
2853.407272374272
 20
8730.88168246859
 10
2852.275353910149
 20
8730.88168246859
 97
        0
 92
        6
 72
     0
 73
     1
 93
        3
 10
2854.869947455194
 20
8734.66661394722
 10
2855.534717261469
 20
8732.97468920512
 10
2854.213572352957
 20
8732.97468920512
 97
        0
 92
       22
 72
     0
 73
     1
 93
       12
 10
2858.080228700616
 20
8735.718766780907
 10
2859.23706429387
 20
8735.718766780907
 10
2859.23706429387
 20
8734.246589947955
 10
2860.898246004844
 20
8735.718796831259
 10
2862.481345144002
 20
8735.718796831259
 10
2860.398346811427
 20
8733.872758879565
 10
2862.719369036073
 20
8730.886911229138
 10
2861.388212833159
 20
8730.888497356993
 10
2859.596551510508
 20
8733.193355834346
 10
2859.205958512148
 20
8732.849799958936
 10
2859.205958512148
 20
8730.887782689229
 10
2858.080228700613
 20
8730.887782689229
 97
        0
 92
       22
 72
     0
 73
     1
 93
        4
 10
2845.635841078228
 20
8730.882193324507
 10
2844.500241817346
 20
8730.882193324507
 10
2844.500241817346
 20
8735.709916953425
 10
2845.635841078228
 20
8735.709916953425
 97
        0
 92
       22
 72
     0
 73
     1
 93
        4
 10
2863.061203653353
 20
8735.700841748339
 10
2864.215895193817
 20
8735.700841748339
 10
2864.215895193817
 20
8730.903063291178
 10
2863.061203653352
 20
8730.903063291178
 97
        0
 75
     0
 76
     1
 47
0.0525430863328008
 98
        7
 10
2853.204447686567
 20
8736.399749804403
 10
2853.204447686567
 20
8736.399749804403
 10
2853.204447686567
 20
8736.399749804403
 10
2853.204447686567
 20
8736.399749804403
 10
2853.204447686567
 20
8736.399749804403
 10
2853.204447686567
 20
8736.399749804403
 10
2853.204447686567
 20
8736.399749804403
450
        0
451
        0
460
0.0
461
0.0
452
        0
462
0.0
453
        0
470

  0
MTEXT
  5
2DEFE
330
1E
100
AcDbEntity
  8
1-C_文字
  6
Continuous
 62
     3
 48
0.5
370
    18
100
AcDbMText
 10
2517.15127171796
 20
8475.3591202891
 30
0.0
 40
3.0
 41
264.2747
 46
0.0
 71
     1
 72
     1
  1
＊ 高さ調整・左右勝手交換式\P＊ 軸受にはドライメタルを使用しており扉の開閉がスムーズです。
  7
明朝
 73
     1
 44
1.0
  0
MTEXT
  5
2EA18
330
1E
100
AcDbEntity
  8
1-C_文字
  6
Continuous
 62
     3
 48
0.5
370
    18
100
AcDbMText
 10
2574.150672673597
 20
8507.644774378061
 30
0.0
 40
3.0
 41
35.4059
 46
0.0
 71
     1
 72
     1
  1
６-Ｍ８×２５\P(ＳＵＳ丸皿ビス)
  7
明朝
 73
     1
 44
1.0
  0
LEADER
  5
2EA19
330
1E
100
AcDbEntity
  8
1-C_文字
  6
Continuous
 62
     3
 48
0.5
370
    18
100
AcDbLeader
  3
ISO-25
 76
     3
 10
2562.651271717957
 20
8520.828275076393
 30
0.0
 10
2572.730461181793
 20
8503.189693514682
 30
0.0
 10
2574.118288886407
 20
8503.189693514682
 30
0.0
211
0.999862615292127
221
0.0165756007791102
231
0.0
213
0.0497268023373306
223
-2.999587845876379
233
0.0
1001
ACAD
1000
DSTYLE
1002
{
1070
    41
1040
3.0
1070
   147
1040
0.625
1070
    77
1070
     0
1002
}
  0
LEADER
  5
2EA1A
330
1E
100
AcDbEntity
  8
1-C_文字
  6
Continuous
 62
     3
 48
0.5
370
    18
100
AcDbLeader
  3
ISO-25
 76
     3
 10
2562.657152510423
 20
8566.383282480762
 30
0.0
 10
2572.736341974258
 20
8548.744700919051
 30
0.0
 10
2574.124169678872
 20
8548.744700919051
 30
0.0
211
0.999862615292127
221
0.0165756007791102
231
0.0
213
0.0497268023373306
223
-2.999587845876379
233
0.0
1001
ACAD
1000
DSTYLE
1002
{
1070
    41
1040
3.0
1070
   147
1040
0.625
1070
    77
1070
     0
1002
}
  0
MTEXT
  5
2EA1B
330
1E
100
AcDbEntity
  8
1-C_文字
  6
Continuous
 62
     3
 48
0.5
370
    18
100
AcDbMText
 10
2574.330998347445
 20
8550.498395155562
 30
0.0
 40
3.0
 41
23.52927908476396
 46
0.0
 71
     1
 72
     1
  1
枠側左右共通
  7
明朝
 73
     1
 44
1.0
  0
LEADER
  5
2EA1C
330
1E
100
AcDbEntity
  8
1-C_文字
  6
Continuous
 62
     3
 48
0.5
370
    18
100
AcDbLeader
  3
ISO-25
 76
     3
 10
2558.651271717959
 20
8615.470575027696
 30
0.0
 10
2572.753354142708
 20
8590.791930784389
 30
0.0
 10
2574.141181847322
 20
8590.791930784389
 30
0.0
211
0.999862615292127
221
0.0165756007791102
231
0.0
213
0.0497268023373306
223
-2.999587845876379
233
0.0
1001
ACAD
1000
DSTYLE
1002
{
1070
    41
1040
3.0
1070
   147
1040
0.625
1070
    77
1070
     0
1002
}
  0
MTEXT
  5
2EA1D
330
1E
100
AcDbEntity
  8
1-C_文字
  6
Continuous
 62
     3
 48
0.5
370
    18
100
AcDbMText
 10
2574.330998347445
 20
8592.5456250209
 30
0.0
 40
3.0
 41
23.82721503942285
 46
0.0
 71
     1
 72
     1
  1
ドライメタル
  7
明朝
 73
     1
 44
1.0
  0
LINE
  5
2EA1E
330
1E
100
AcDbEntity
  8
1-2_扉･枠
  6
想像線
 62
     4
 48
0.25
370
    18
100
AcDbLine
 10
2666.473877848186
 20
8529.507191063899
 30
0.0
 11
2666.473877848186
 21
8552.903081063901
 31
0.0
  0
LINE
  5
2EA1F
330
1E
100
AcDbEntity
  8
1-2_扉･枠
  6
想像線
 62
     4
 48
0.25
370
    18
100
AcDbLine
 10
2735.273877848186
 20
8529.507191063899
 30
0.0
 11
2666.473877848186
 21
8529.507191063899
 31
0.0
  0
LINE
  5
2EA22
330
1E
100
AcDbEntity
  8
1-2_扉･枠
  6
想像線
 62
     4
 48
0.25
370
    18
100
AcDbLine
 10
2732.273877848186
 20
8532.507191063899
 30
0.0
 11
2666.473877848186
 21
8532.507191063899
 31
0.0
  0
LINE
  5
2EA23
330
1E
100
AcDbEntity
  8
1-2_扉･枠
  6
想像線
 62
     4
 48
0.25
370
    18
100
AcDbLine
 10
2735.273877848186
 20
8529.507191063899
 30
0.0
 11
2735.273877848189
 21
8594.907191063901
 31
0.0
  0
LINE
  5
2EA25
330
1E
100
AcDbEntity
  8
1-2_扉･枠
  6
想像線
 62
     4
 48
0.25
370
    18
100
AcDbLine
 10
2736.873877848189
 20
8596.507191063903
 30
0.0
 11
2760.278235171789
 21
8596.507191063903
 31
0.0
  0
ARC
  5
2EA26
330
1E
100
AcDbEntity
  8
1-2_扉･枠
  6
想像線
 62
     4
 48
0.25
370
    18
100
AcDbCircle
 10
2736.873877848189
 20
8594.907191063901
 30
0.0
 40
1.6
100
AcDbArc
 50
90.0
 51
179.9999999999972
  0
LINE
  5
2EA27
330
1E
100
AcDbEntity
  8
1-2_扉･枠
  6
想像線
 62
     4
 48
0.25
370
    18
100
AcDbLine
 10
2760.278235171789
 20
8596.507191063903
 30
0.0
 11
2760.278235171789
 21
8601.407191063902
 31
0.0
  0
ARC
  5
2EA2A
330
1E
100
AcDbEntity
  8
1-2_扉･枠
  6
想像線
 62
     4
 48
0.25
370
    18
100
AcDbCircle
 10
2760.278235171789
 20
8596.507191063903
 30
0.0
 40
1.6
100
AcDbArc
 50
270.0
 51
0.0
  0
LINE
  5
2EA2D
330
1E
100
AcDbEntity
  8
1-2_扉･枠
  6
想像線
 62
     4
 48
0.25
370
    18
100
AcDbLine
 10
2717.878235171788
 20
8501.507191063899
 30
0.0
 11
2860.929862665832
 21
8501.507191063899
 31
0.0
  0
LINE
  5
2EA2E
330
1E
100
AcDbEntity
  8
1-2_扉･枠
  6
想像線
 62
     4
 48
0.25
370
    18
100
AcDbLine
 10
2716.278235171789
 20
8501.507191063899
 30
0.0
 11
2716.278235171789
 21
8519.907191063898
 31
0.0
  0
ARC
  5
2EA2F
330
1E
100
AcDbEntity
  8
1-2_扉･枠
  6
想像線
 62
     4
 48
0.25
370
    18
100
AcDbCircle
 10
2717.878235171788
 20
8501.507191063899
 30
0.0
 40
1.6
100
AcDbArc
 50
180.0
 51
270.0
  0
ARC
  5
2EA48
330
1E
100
AcDbEntity
  8
1-2_扉･枠
  6
想像線
 62
     4
 48
0.25
370
    18
100
AcDbCircle
 10
2742.878235171788
 20
8503.107191063898
 30
0.0
 40
1.6
100
AcDbArc
 50
270.0
 51
0.0
  0
LINE
  5
2EA4A
330
1E
100
AcDbEntity
  8
1-2_扉･枠
  6
想像線
 62
     4
 48
0.25
370
    18
100
AcDbLine
 10
2746.778235171788
 20
8503.807191063899
 30
0.0
 11
2860.929862665832
 21
8503.807191063897
 31
0.0
  0
LINE
  5
2EA4B
330
1E
100
AcDbEntity
  8
1-2_扉･枠
  6
想像線
 62
     4
 48
0.25
370
    18
100
AcDbLine
 10
2746.778235171789
 20
8566.007191063901
 30
0.0
 11
2746.778235171788
 21
8503.807191063899
 31
0.0
  0
ARC
  5
2EA4C
330
1E
100
AcDbEntity
  8
1-2_扉･枠
  6
想像線
 62
     4
 48
0.25
370
    18
100
AcDbCircle
 10
2746.778235171789
 20
8503.807191063899
 30
0.0
 40
2.299999999999999
100
AcDbArc
 50
179.9999999999996
 51
269.9999999999993
  0
LINE
  5
2EA4E
330
1E
100
AcDbEntity
  8
1-2_扉･枠
  6
想像線
 62
     4
 48
0.25
370
    18
100
AcDbLine
 10
2744.478235171789
 20
8568.307191063901
 30
0.0
 11
2860.929862665831
 21
8568.307191063901
 31
0.0
  0
ARC
  5
2EA4F
330
1E
100
AcDbEntity
  8
1-2_扉･枠
  6
想像線
 62
     4
 48
0.25
370
    18
100
AcDbCircle
 10
2744.478235171789
 20
8568.307191063901
 30
0.0
 40
1.6
100
AcDbArc
 50
90.0
 51
180.0
  0
ARC
  5
2EA50
330
1E
100
AcDbEntity
  8
1-2_扉･枠
  6
想像線
 62
     4
 48
0.25
370
    18
100
AcDbCircle
 10
2746.778235171789
 20
8566.007191063901
 30
0.0
 40
2.299999999999999
100
AcDbArc
 50
90.0
 51
180.0
  0
LINE
  5
2EA51
330
1E
100
AcDbEntity
  8
1-2_扉･枠
  6
想像線
 62
     4
 48
0.25
370
    18
100
AcDbLine
 10
2746.778235171789
 20
8566.007191063901
 30
0.0
 11
2764.478235171788
 21
8566.007191063901
 31
0.0
  0
LINE
  5
2EA52
330
1E
100
AcDbEntity
  8
1-2_扉･枠
  6
想像線
 62
     4
 48
0.25
370
    18
100
AcDbLine
 10
2742.878235171788
 20
8536.0571910639
 30
0.0
 11
2744.478235171789
 21
8536.0571910639
 31
0.0
  0
MTEXT
  5
2EA53
330
1E
100
AcDbEntity
  8
1-C_文字
  6
Continuous
 62
     3
 48
0.5
370
    18
100
AcDbMText
 10
2785.565410361218
 20
8578.354435381184
 30
0.0
 40
3.0
 41
4.4194
 46
0.0
 71
     1
 72
     1
  1
扉
  7
明朝
 73
     1
 44
1.0
  0
LEADER
  5
2EA54
330
1E
100
AcDbEntity
  8
1-C_文字
  6
Continuous
 62
     3
 48
0.5
370
    18
100
AcDbLeader
  3
ISO-25
 76
     3
 10
2777.771386201295
 20
8565.80717076142
 30
0.0
 10
2783.990407467173
 20
8576.690457976706
 30
0.0
 10
2785.378235171787
 20
8576.690457976706
 30
0.0
211
0.999862615292127
221
-0.0165756007791102
231
0.0
210
0.0
220
0.0
230
-1.0
213
0.0497268023373306
223
2.999587845876379
233
0.0
1001
ACAD
1000
DSTYLE
1002
{
1070
    41
1040
3.0
1070
   147
1040
0.625
1070
    77
1070
     0
1002
}
  0
LINE
  5
2EA55
330
1E
100
AcDbEntity
  8
1-2_扉･枠
  6
想像線
 62
     4
 48
0.25
370
    18
100
AcDbLine
 10
2764.478235171788
 20
8566.007191063901
 30
0.0
 11
2764.478235171788
 21
8568.307191063901
 31
0.0
  0
LINE
  5
2EA56
330
1E
100
AcDbEntity
  8
1-2_扉･枠
  6
想像線
 62
     4
 48
0.25
370
    18
100
AcDbLine
 10
2746.778235171788
 20
8508.307191063899
 30
0.0
 11
2860.929862665832
 21
8508.307191063899
 31
0.0
  0
MTEXT
  5
2EA58
330
1E
100
AcDbEntity
  8
1-C_文字
  6
Continuous
 62
     3
 48
0.5
370
    18
100
AcDbMText
 10
2849.736406023091
 20
8519.54447672133
 30
0.0
 40
3.0
 41
11.64582881225464
 46
0.0
 71
     1
 72
     1
  1
補強板
  7
明朝
 73
     1
 44
1.0
  0
LEADER
  5
2EA59
330
1E
100
AcDbEntity
  8
1-C_文字
  6
Continuous
 62
     3
 48
0.5
370
    18
100
AcDbLeader
  3
ISO-25
 76
     3
 10
2841.508350066717
 20
8506.672535518845
 30
0.0
 10
2847.727371332595
 20
8517.555822734131
 30
0.0
 10
2849.115199037209
 20
8517.555822734131
 30
0.0
211
0.999862615292127
221
-0.0165756007791102
231
0.0
210
0.0
220
0.0
230
-1.0
213
0.0497268023373306
223
2.999587845876379
233
0.0
1001
ACAD
1000
DSTYLE
1002
{
1070
    41
1040
3.0
1070
   147
1040
0.625
1070
    77
1070
     0
1002
}
  0
MTEXT
  5
2EA5A
330
1E
100
AcDbEntity
  8
1-C_文字
  6
Continuous
 62
     3
 48
0.5
370
    18
100
AcDbMText
 10
2513.708180747881
 20
8696.570780718682
 30
0.0
 40
3.0
 41
15.654
 46
0.0
 71
     1
 72
     1
  1
調整ネジ
  7
明朝
 73
     1
 44
1.0
  0
LEADER
  5
2EA5B
330
1E
100
AcDbEntity
  8
1-C_文字
  6
Continuous
 62
     3
 48
0.5
370
    18
100
AcDbLeader
  3
ISO-25
 76
     3
 10
2542.651271717959
 20
8674.678149505544
 30
0.0
 10
2531.146085147249
 20
8694.828275076394
 30
0.0
 10
2529.758257442635
 20
8694.828275076394
 30
0.0
211
-0.999862615292127
221
-0.0165756007791102
231
0.0
213
-0.0497268023373306
223
2.999587845876379
233
0.0
1001
ACAD
1000
DSTYLE
1002
{
1070
    41
1040
3.0
1070
   147
1040
0.625
1070
    77
1070
     0
1002
}
  0
MTEXT
  5
2ECE1
330
1E
100
AcDbEntity
  8
1-C_文字
  6
Continuous
 62
     3
 48
0.5
370
    18
100
AcDbMText
 10
2515.337881019956
 20
8721.516617351381
 30
0.0
 40
3.0
 41
16.5600744226653
 46
0.0
 71
     1
 72
     1
  1
{\fMS Gothic|b0|i0|c128|p49;キャップ}
 73
     1
 44
1.0
  0
LEADER
  5
2ECE3
330
1E
100
AcDbEntity
  8
1-C_文字
  6
Continuous
 62
     3
 48
0.5
370
    18
100
AcDbLeader
  3
ISO-25
 76
     3
 10
2539.613233831242
 20
8706.681953709914
 30
0.0
 10
2532.413417350818
 20
8719.291675879651
 30
0.0
 10
2531.025589646203
 20
8719.291675879651
 30
0.0
211
-0.999862615292127
221
-0.0165756007791102
231
0.0
213
-0.0497268023373306
223
2.999587845876379
233
0.0
1001
ACAD
1000
DSTYLE
1002
{
1070
    41
1040
3.0
1070
   147
1040
0.625
1070
    77
1070
     0
1002
}
  0
MTEXT
  5
2ECE5
330
1E
100
AcDbEntity
  8
1-C_文字
  6
Continuous
 62
     3
 48
0.5
370
    18
100
AcDbMText
 10
2770.633662109047
 20
8612.358086880117
 30
0.0
 40
3.0
 41
45.63136143836524
 46
0.0
 71
     1
 72
     1
  1
調整ライナー＊受注生産＊\P　(アルミ ｔ＝１.０)
  7
明朝
 73
     1
 44
1.0
  0
LINE
  5
2ECEB
330
1E
100
AcDbEntity
  8
図枠
  6
想像線
 62
     4
 48
0.25
370
    18
100
AcDbLine
 10
2743.918455594372
 20
8602.701648276299
 30
0.0
 11
2743.918455594372
 21
8657.578275076394
 31
0.0
  0
LINE
  5
2ECEC
330
1E
100
AcDbEntity
  8
図枠
  6
想像線
 62
     4
 48
0.25
370
    18
100
AcDbLine
 10
2838.918455594372
 20
8602.701648276299
 30
0.0
 11
2838.918455594372
 21
8657.578275076394
 31
0.0
  0
LINE
  5
2ECED
330
1E
100
AcDbEntity
  8
図枠
  6
想像線
 62
     4
 48
0.25
370
    18
100
AcDbLine
 10
2743.918455594372
 20
8657.578275076394
 30
0.0
 11
2838.918455594372
 21
8657.578275076394
 31
0.0
  0
LINE
  5
2ECEE
330
1E
100
AcDbEntity
  8
1-0_本体
  6
Continuous
 62
     7
 48
0.5
370
    35
100
AcDbLine
 10
2816.145440594373
 20
8635.081648276301
 30
0.0
 11
2819.145440594373
 21
8635.081648276301
 31
0.0
  0
LINE
  5
2ECEF
330
1E
100
AcDbEntity
  8
1-0_本体
  6
Continuous
 62
     7
 48
0.5
370
    35
100
AcDbLine
 10
2781.191470594371
 20
8635.081648276297
 30
0.0
 11
2811.645440594373
 21
8635.081648276301
 31
0.0
  0
LINE
  5
2ECF0
330
1E
100
AcDbEntity
  8
1-0_本体
  6
Continuous
 62
     7
 48
0.5
370
    35
100
AcDbLine
 10
2773.69147059437
 20
8635.081648276297
 30
0.0
 11
2776.691470594371
 21
8635.081648276297
 31
0.0
  0
LINE
  5
2ECF1
330
1E
100
AcDbEntity
  8
1-0_本体
  6
Continuous
 62
     7
 48
0.5
370
    35
100
AcDbLine
 10
2766.191470594371
 20
8635.081648276297
 30
0.0
 11
2769.191470594371
 21
8635.081648276297
 31
0.0
  0
LINE
  5
2ECF2
330
1E
100
AcDbEntity
  8
1-0_本体
  6
Continuous
 62
     7
 48
0.5
370
    35
100
AcDbLine
 10
2758.918455594372
 20
8635.081648276297
 30
0.0
 11
2761.691470594371
 21
8635.081648276297
 31
0.0
  0
LINE
  5
2ECF3
330
1E
100
AcDbEntity
  8
1-0_本体
  6
Continuous
 62
     7
 48
0.5
370
    35
100
AcDbLine
 10
2761.691470594371
 20
8630.0816482763
 30
0.0
 11
2761.691470594371
 21
8635.081648276301
 31
0.0
  0
LINE
  5
2ECF4
330
1E
100
AcDbEntity
  8
1-0_本体
  6
Continuous
 62
     7
 48
0.5
370
    35
100
AcDbLine
 10
2766.191470594371
 20
8630.0816482763
 30
0.0
 11
2766.191470594371
 21
8635.081648276301
 31
0.0
  0
ARC
  5
2ECF5
330
1E
100
AcDbEntity
  8
1-0_本体
  6
Continuous
 62
     7
 48
0.5
370
    35
100
AcDbCircle
 10
2763.94147059437
 20
8630.081648276298
 30
0.0
 40
2.25
100
AcDbArc
 50
180.0
 51
0.0
  0
ARC
  5
2ECF6
330
1E
100
AcDbEntity
  8
1-0_本体
  6
Continuous
 62
     7
 48
0.5
370
    35
100
AcDbCircle
 10
2778.94147059437
 20
8630.081648276298
 30
0.0
 40
2.25
100
AcDbArc
 50
180.0
 51
0.0
  0
LINE
  5
2ECF7
330
1E
100
AcDbEntity
  8
1-0_本体
  6
Continuous
 62
     7
 48
0.5
370
    35
100
AcDbLine
 10
2781.191470594371
 20
8630.0816482763
 30
0.0
 11
2781.191470594371
 21
8635.081648276301
 31
0.0
  0
LINE
  5
2ECF8
330
1E
100
AcDbEntity
  8
1-0_本体
  6
Continuous
 62
     7
 48
0.5
370
    35
100
AcDbLine
 10
2776.691470594371
 20
8630.0816482763
 30
0.0
 11
2776.691470594371
 21
8635.081648276301
 31
0.0
  0
LINE
  5
2ECF9
330
1E
100
AcDbEntity
  8
1-0_本体
  6
Continuous
 62
     7
 48
0.5
370
    35
100
AcDbLine
 10
2773.69147059437
 20
8620.0816482763
 30
0.0
 11
2773.69147059437
 21
8635.081648276301
 31
0.0
  0
LINE
  5
2ECFA
330
1E
100
AcDbEntity
  8
1-0_本体
  6
Continuous
 62
     7
 48
0.5
370
    35
100
AcDbLine
 10
2769.191470594371
 20
8620.0816482763
 30
0.0
 11
2769.191470594371
 21
8635.081648276301
 31
0.0
  0
ARC
  5
2ECFB
330
1E
100
AcDbEntity
  8
1-0_本体
  6
Continuous
 62
     7
 48
0.5
370
    35
100
AcDbCircle
 10
2771.44147059437
 20
8620.081648276299
 30
0.0
 40
2.25
100
AcDbArc
 50
180.0
 51
0.0
  0
LINE
  5
2ECFC
330
1E
100
AcDbEntity
  8
1-0_本体
  6
Continuous
 62
     7
 48
0.5
370
    35
100
AcDbLine
 10
2811.645440594373
 20
8620.0816482763
 30
0.0
 11
2811.645440594373
 21
8635.081648276301
 31
0.0
  0
LINE
  5
2ECFD
330
1E
100
AcDbEntity
  8
1-0_本体
  6
Continuous
 62
     7
 48
0.5
370
    35
100
AcDbLine
 10
2816.145440594373
 20
8620.0816482763
 30
0.0
 11
2816.145440594373
 21
8635.081648276301
 31
0.0
  0
ARC
  5
2ECFE
330
1E
100
AcDbEntity
  8
1-0_本体
  6
Continuous
 62
     7
 48
0.5
370
    35
100
AcDbCircle
 10
2813.895440594373
 20
8620.081648276299
 30
0.0
 40
2.25
100
AcDbArc
 50
180.0
 51
0.0
  0
LINE
  5
2ECFF
330
1E
100
AcDbEntity
  8
1-0_本体
  6
Continuous
 62
     7
 48
0.5
370
    35
100
AcDbLine
 10
2831.145440594371
 20
8635.081648276301
 30
0.0
 11
2833.918455594372
 21
8635.081648276301
 31
0.0
  0
LINE
  5
2ED00
330
1E
100
AcDbEntity
  8
1-0_本体
  6
Continuous
 62
     7
 48
0.5
370
    35
100
AcDbLine
 10
2831.145440594371
 20
8620.0816482763
 30
0.0
 11
2831.145440594371
 21
8635.081648276301
 31
0.0
  0
LINE
  5
2ED01
330
1E
100
AcDbEntity
  8
1-0_本体
  6
Continuous
 62
     7
 48
0.5
370
    35
100
AcDbLine
 10
2826.645440594371
 20
8620.0816482763
 30
0.0
 11
2826.645440594371
 21
8635.081648276301
 31
0.0
  0
LINE
  5
2ED02
330
1E
100
AcDbEntity
  8
1-0_本体
  6
Continuous
 62
     7
 48
0.5
370
    35
100
AcDbLine
 10
2823.645440594373
 20
8635.081648276301
 30
0.0
 11
2826.645440594371
 21
8635.081648276301
 31
0.0
  0
ARC
  5
2ED03
330
1E
100
AcDbEntity
  8
1-0_本体
  6
Continuous
 62
     7
 48
0.5
370
    35
100
AcDbCircle
 10
2828.895440594371
 20
8620.081648276299
 30
0.0
 40
2.25
100
AcDbArc
 50
180.0
 51
0.0
  0
LINE
  5
2ED04
330
1E
100
AcDbEntity
  8
1-0_本体
  6
Continuous
 62
     7
 48
0.5
370
    35
100
AcDbLine
 10
2823.645440594373
 20
8630.0816482763
 30
0.0
 11
2823.645440594373
 21
8635.081648276301
 31
0.0
  0
LINE
  5
2ED05
330
1E
100
AcDbEntity
  8
1-0_本体
  6
Continuous
 62
     7
 48
0.5
370
    35
100
AcDbLine
 10
2819.145440594373
 20
8630.0816482763
 30
0.0
 11
2819.145440594373
 21
8635.081648276301
 31
0.0
  0
ARC
  5
2ED06
330
1E
100
AcDbEntity
  8
1-0_本体
  6
Continuous
 62
     7
 48
0.5
370
    35
100
AcDbCircle
 10
2821.395440594372
 20
8630.081648276298
 30
0.0
 40
2.25
100
AcDbArc
 50
180.0
 51
0.0
  0
LINE
  5
2ED07
330
1E
100
AcDbEntity
  8
1-0_本体
  6
Continuous
 62
     7
 48
0.5
370
    35
100
AcDbLine
 10
2833.918455594372
 20
8635.081648276301
 30
0.0
 11
2833.918455594372
 21
8615.0816482763
 31
0.0
  0
LINE
  5
2ED08
330
1E
100
AcDbEntity
  8
1-0_本体
  6
Continuous
 62
     7
 48
0.5
370
    35
100
AcDbLine
 10
2758.918455594372
 20
8635.081648276297
 30
0.0
 11
2758.918455594372
 21
8615.0816482763
 31
0.0
  0
LINE
  5
2ED09
330
1E
100
AcDbEntity
  8
1-0_本体
  6
Continuous
 62
     7
 48
0.5
370
    35
100
AcDbLine
 10
2758.918455594372
 20
8615.0816482763
 30
0.0
 11
2833.918455594372
 21
8615.0816482763
 31
0.0
  0
LINE
  5
2ED0A
330
1E
100
AcDbEntity
  8
1-A_中心
  6
中心線
 62
     6
 48
0.25
370
    18
100
AcDbLine
 10
2759.441470594371
 20
8630.0816482763
 30
0.0
 11
2768.441470594371
 21
8630.0816482763
 31
0.0
  0
LINE
  5
2ED0B
330
1E
100
AcDbEntity
  8
1-A_中心
  6
中心線
 62
     6
 48
0.25
370
    18
100
AcDbLine
 10
2763.941470594371
 20
8633.581570776298
 30
0.0
 11
2763.941470594371
 21
8626.581725776299
 31
0.0
  0
LINE
  5
2ED0C
330
1E
100
AcDbEntity
  8
1-A_中心
  6
中心線
 62
     6
 48
0.25
370
    18
100
AcDbLine
 10
2771.441470594371
 20
8623.5815707763
 30
0.0
 11
2771.441470594371
 21
8616.581725776299
 31
0.0
  0
LINE
  5
2ED0D
330
1E
100
AcDbEntity
  8
1-A_中心
  6
中心線
 62
     6
 48
0.25
370
    18
100
AcDbLine
 10
2766.941470594371
 20
8620.0816482763
 30
0.0
 11
2775.941470594371
 21
8620.0816482763
 31
0.0
  0
LINE
  5
2ED0E
330
1E
100
AcDbEntity
  8
1-A_中心
  6
中心線
 62
     6
 48
0.25
370
    18
100
AcDbLine
 10
2778.941470594371
 20
8633.581570776298
 30
0.0
 11
2778.941470594371
 21
8626.581725776299
 31
0.0
  0
LINE
  5
2ED0F
330
1E
100
AcDbEntity
  8
1-A_中心
  6
中心線
 62
     6
 48
0.25
370
    18
100
AcDbLine
 10
2774.44147059437
 20
8630.0816482763
 30
0.0
 11
2783.44147059437
 21
8630.0816482763
 31
0.0
  0
LINE
  5
2ED10
330
1E
100
AcDbEntity
  8
1-A_中心
  6
中心線
 62
     6
 48
0.25
370
    18
100
AcDbLine
 10
2818.208170282807
 20
8620.0816482763
 30
0.0
 11
2809.602145817312
 21
8620.0816482763
 31
0.0
  0
LINE
  5
2ED11
330
1E
100
AcDbEntity
  8
1-A_中心
  6
中心線
 62
     6
 48
0.25
370
    18
100
AcDbLine
 10
2813.895440594373
 20
8615.956121455168
 30
0.0
 11
2813.895440594373
 21
8624.207175097431
 31
0.0
  0
LINE
  5
2ED12
330
1E
100
AcDbEntity
  8
1-A_中心
  6
中心線
 62
     6
 48
0.25
370
    18
100
AcDbLine
 10
2821.395440594373
 20
8626.581725776299
 30
0.0
 11
2821.395440594373
 21
8633.581570776298
 31
0.0
  0
LINE
  5
2ED13
330
1E
100
AcDbEntity
  8
1-A_中心
  6
中心線
 62
     6
 48
0.25
370
    18
100
AcDbLine
 10
2817.175746839035
 20
8630.0816482763
 30
0.0
 11
2825.615134349709
 21
8630.0816482763
 31
0.0
  0
LINE
  5
2ED14
330
1E
100
AcDbEntity
  8
1-A_中心
  6
中心線
 62
     6
 48
0.25
370
    18
100
AcDbLine
 10
2828.895440594373
 20
8616.581725776299
 30
0.0
 11
2828.895440594373
 21
8623.5815707763
 31
0.0
  0
LINE
  5
2ED15
330
1E
100
AcDbEntity
  8
1-A_中心
  6
中心線
 62
     6
 48
0.25
370
    18
100
AcDbLine
 10
2825.425746839035
 20
8620.0816482763
 30
0.0
 11
2832.365134349709
 21
8620.0816482763
 31
0.0
  0
DIMENSION
  5
2ED16
330
1E
100
AcDbEntity
  8
1-B_寸法
  6
Continuous
 62
     3
 48
0.5
370
    18
100
AcDbDimension
280
     0
  2
*D34
 10
2778.918455594372
 20
8642.581648276296
 30
0.0
 11
2775.168455594372
 21
8642.581648276296
 31
0.0
 70
   160
 71
     5
 42
15.0
 73
     0
 74
     0
 75
     0
  3
ISO-25
100
AcDbAlignedDimension
 13
2771.418455594372
 23
8635.081648276301
 33
0.0
 14
2778.918455594372
 24
8635.081648276301
 34
0.0
100
AcDbRotatedDimension
1001
ACAD
1000
DSTYLE
1002
{
1070
   144
1040
2.0
1002
}
  0
DIMENSION
  5
2ED17
330
1E
100
AcDbEntity
  8
1-B_寸法
  6
Continuous
 62
     3
 48
0.5
370
    18
100
AcDbDimension
280
     0
  2
*D33
 10
2763.918455594372
 20
8642.581648276296
 30
0.0
 11
2767.668455594372
 21
8642.581648276296
 31
0.0
 70
   160
 71
     5
 42
15.0
 73
     0
 74
     0
 75
     0
  3
ISO-25
100
AcDbAlignedDimension
 13
2771.418455594372
 23
8635.081648276301
 33
0.0
 14
2763.918455594372
 24
8635.081648276301
 34
0.0
 50
180.0
100
AcDbRotatedDimension
1001
ACAD
1000
DSTYLE
1002
{
1070
   144
1040
2.0
1002
}
  0
DIMENSION
  5
2ED18
330
1E
100
AcDbEntity
  8
1-B_寸法
  6
Continuous
 62
     3
 48
0.5
370
    18
100
AcDbDimension
280
     0
  2
*D32
 10
2758.918455594372
 20
8642.581648276296
 30
0.0
 11
2761.418455594372
 21
8642.581648276296
 31
0.0
 70
   160
 71
     5
 42
10.0
 73
     0
 74
     0
 75
     0
  3
ISO-25
100
AcDbAlignedDimension
 13
2763.918455594372
 23
8635.081648276301
 33
0.0
 14
2758.918455594372
 24
8635.081648276297
 34
0.0
 50
180.0
100
AcDbRotatedDimension
1001
ACAD
1000
DSTYLE
1002
{
1070
   144
1040
2.0
1002
}
  0
DIMENSION
  5
2ED19
330
1E
100
AcDbEntity
  8
1-B_寸法
  6
Continuous
 62
     3
 48
0.5
370
    18
100
AcDbDimension
280
     0
  2
*D31
 10
2748.918455594373
 20
8635.081648276297
 30
0.0
 11
2748.918455594372
 21
8625.081648276299
 31
0.0
 70
   160
 71
     5
 42
39.99999999999636
 73
     0
 74
     0
 75
     0
  3
ISO-25
100
AcDbAlignedDimension
 13
2758.918455594372
 23
8615.0816482763
 33
0.0
 14
2758.918455594372
 24
8635.081648276297
 34
0.0
 50
270.0
100
AcDbRotatedDimension
1001
ACAD
1000
DSTYLE
1002
{
1070
   144
1040
2.0
1002
}
  0
DIMENSION
  5
2ED1A
330
1E
100
AcDbEntity
  8
1-B_寸法
  6
Continuous
 62
     3
 48
0.5
370
    18
100
AcDbDimension
280
     0
  2
*D30
 10
2753.918455594373
 20
8630.0816482763
 30
0.0
 11
2753.918455594372
 21
8625.081648276299
 31
0.0
 70
   160
 71
     5
 42
20.0
 73
     0
 74
     0
 75
     0
  3
ISO-25
100
AcDbAlignedDimension
 13
2758.918455594372
 23
8620.0816482763
 33
0.0
 14
2758.918455594372
 24
8630.0816482763
 34
0.0
 50
270.0
100
AcDbRotatedDimension
1001
ACAD
1000
DSTYLE
1002
{
1070
   144
1040
2.0
1002
}
  0
DIMENSION
  5
2ED1B
330
1E
100
AcDbEntity
  8
1-B_寸法
  6
Continuous
 62
     3
 48
0.5
370
    18
100
AcDbDimension
280
     0
  2
*D29
 10
2833.918455594372
 20
8642.581648276301
 30
0.0
 11
2831.418455594372
 21
8642.581648276301
 31
0.0
 70
   160
 71
     5
 42
10.0
 73
     0
 74
     0
 75
     0
  3
ISO-25
100
AcDbAlignedDimension
 13
2828.918455594372
 23
8635.071637491657
 33
0.0
 14
2833.918455594372
 24
8635.081648276301
 34
0.0
100
AcDbRotatedDimension
1001
ACAD
1000
DSTYLE
1002
{
1070
   144
1040
2.0
1002
}
  0
DIMENSION
  5
2ED1C
330
1E
100
AcDbEntity
  8
1-B_寸法
  6
Continuous
 62
     3
 48
0.5
370
    18
100
AcDbDimension
280
     0
  2
*D28
 10
2828.918455594372
 20
8642.581648276301
 30
0.0
 11
2825.168455594372
 21
8642.581648276301
 31
0.0
 70
   160
 71
     5
 42
15.0
 73
     0
 74
     0
 75
     0
  3
ISO-25
100
AcDbAlignedDimension
 13
2821.418455594372
 23
8635.17128063845
 33
0.0
 14
2828.918455594372
 24
8635.071637491657
 34
0.0
100
AcDbRotatedDimension
1001
ACAD
1000
DSTYLE
1002
{
1070
   144
1040
2.0
1002
}
  0
DIMENSION
  5
2ED1D
330
1E
100
AcDbEntity
  8
1-B_寸法
  6
Continuous
 62
     3
 48
0.5
370
    18
100
AcDbDimension
280
     0
  2
*D27
 10
2778.918455594372
 20
8642.581648276298
 30
0.0
 11
2796.418455594372
 21
8642.581648276298
 31
0.0
 70
   160
 71
     5
 42
70.0
 73
     0
 74
     0
 75
     0
  3
ISO-25
100
AcDbAlignedDimension
 13
2813.918455594372
 23
8635.145477729928
 33
0.0
 14
2778.918455594372
 24
8635.081648276301
 34
0.0
 50
180.0
100
AcDbRotatedDimension
1001
ACAD
1000
DSTYLE
1002
{
1070
   144
1040
2.0
1002
}
  0
DIMENSION
  5
2ED1E
330
1E
100
AcDbEntity
  8
1-B_寸法
  6
Continuous
 62
     3
 48
0.5
370
    18
100
AcDbDimension
280
     0
  2
*D26
 10
2813.918455594372
 20
8642.581648276301
 30
0.0
 11
2817.668455594372
 21
8642.581648276301
 31
0.0
 70
   160
 71
     5
 42
15.0
 73
     0
 74
     0
 75
     0
  3
ISO-25
100
AcDbAlignedDimension
 13
2821.418455594372
 23
8635.17128063845
 33
0.0
 14
2813.918455594372
 24
8635.145477729928
 34
0.0
 50
180.0
100
AcDbRotatedDimension
1001
ACAD
1000
DSTYLE
1002
{
1070
   144
1040
2.0
1002
}
  0
LINE
  5
2ED1F
330
1E
100
AcDbEntity
  8
図枠
  6
想像線
 62
     4
 48
0.25
370
    18
100
AcDbLine
 10
2838.918455594372
 20
8602.5816482763
 30
0.0
 11
2743.918455594372
 21
8602.5816482763
 31
0.0
  0
DIMENSION
  5
2ED20
330
1E
100
AcDbEntity
  8
1-B_寸法
  6
Continuous
 62
     3
 48
0.5
370
    18
100
AcDbDimension
280
     0
  2
*D25
 10
2758.918455594372
 20
8650.081648276298
 30
0.0
 11
2796.418455594372
 21
8650.081648276298
 31
0.0
 70
   160
 71
     5
 42
150.0
 73
     0
 74
     0
 75
     0
  3
ISO-25
100
AcDbAlignedDimension
 13
2833.918455594372
 23
8635.081648276301
 33
0.0
 14
2758.918455594372
 24
8635.081648276297
 34
0.0
100
AcDbRotatedDimension
1001
ACAD
1000
DSTYLE
1002
{
1070
   144
1040
2.0
1002
}
  0
LINE
  5
2F7D6
330
1E
100
AcDbEntity
  8
1-0_本体
  6
Continuous
 62
     7
 48
0.5
370
    35
100
AcDbLine
 10
2561.651271717959
 20
8597.828275076395
 30
0.0
 11
2561.651271717959
 21
8596.828275076395
 31
0.0
  0
LINE
  5
2F7D7
330
1E
100
AcDbEntity
  8
1-0_本体
  6
Continuous
 62
     7
 48
0.5
370
    35
100
AcDbLine
 10
2535.651271717958
 20
8597.828275076395
 30
0.0
 11
2535.651271717958
 21
8596.828275076395
 31
0.0
  0
LINE
  5
2F7D8
330
1E
100
AcDbEntity
  8
1-0_本体
  6
Continuous
 62
     7
 48
0.5
370
    35
100
AcDbLine
 10
2561.651271717959
 20
8596.828275076395
 30
0.0
 11
2535.651271717958
 21
8596.828275076395
 31
0.0
  0
LINE
  5
2F7D9
330
1E
100
AcDbEntity
  8
1-0_本体
  6
Continuous
 62
     7
 48
0.5
370
    35
100
AcDbLine
 10
2535.651271717958
 20
8707.828275076392
 30
0.0
 11
2535.651271717958
 21
8703.828275076395
 31
0.0
  0
LINE
  5
2F7DA
330
1E
100
AcDbEntity
  8
1-0_本体
  6
Continuous
 62
     7
 48
0.5
370
    35
100
AcDbLine
 10
2561.651271717959
 20
8704.828275076396
 30
0.0
 11
2535.651271717958
 21
8704.828275076396
 31
0.0
  0
LINE
  5
2F7DB
330
1E
100
AcDbEntity
  8
1-0_本体
  6
Continuous
 62
     7
 48
0.5
370
    35
100
AcDbLine
 10
2561.651271717959
 20
8707.828275076392
 30
0.0
 11
2535.651271717958
 21
8707.828275076392
 31
0.0
  0
LINE
  5
2F7DC
330
1E
100
AcDbEntity
  8
1-0_本体
  6
Continuous
 62
     7
 48
0.5
370
    35
100
AcDbLine
 10
2561.651271717959
 20
8707.828275076392
 30
0.0
 11
2561.651271717959
 21
8703.828275076395
 31
0.0
  0
ARC
  5
2F8CC
330
1E
100
AcDbEntity
  8
1-0_本体
  6
Continuous
 62
     7
 48
0.5
370
    35
100
AcDbCircle
 10
2708.591798513629
 20
8509.9071910639
 30
0.0
 40
10.0
100
AcDbArc
 50
214.0557977425714
 51
270.0
  0
ARC
  5
2F8CE
330
1E
100
AcDbEntity
  8
1-0_本体
  6
Continuous
 62
     7
 48
0.5
370
    35
100
AcDbCircle
 10
2708.59179851363
 20
8481.9071910639
 30
0.0
 40
10.0
100
AcDbArc
 50
90.0
 51
145.9442022574315
  0
MTEXT
  5
2FB0A
330
1E
100
AcDbEntity
  8
1-C_文字
  6
Continuous
 62
     3
 48
0.5
370
    18
100
AcDbMText
 10
2744.56926792864
 20
8714.469757757147
 30
0.0
 40
2.5
 41
114.3353
 46
0.0
 71
     1
 72
     1
  1
　　　 {\H1.2x;高さ調整方法\P} {\H1.2x; \H1.3333x; }\P\P  ① 上部のキャップをはずします。\P  ② 固定ネジを緩めます。\P  ③ バールなどで扉を上げます。\P　④ 調整ネジを六角レンチで右回転させると扉が上がります。(最大５ｍｍ)\P 　 　　　　　　　　　　　 左回転させると扉が下がります。(最大１ｍｍ)\P  ⑤ 調整後固定ネジをしっかり締めます。\P  ⑥ 上部のキャップを取付けて、完了です。\P  
  7
明朝
 73
     1
 44
1.0
  0
LINE
  5
2FB0B
330
1E
100
AcDbEntity
  8
1-3_付属
  6
想像線
 62
     4
 48
0.25
370
    18
100
AcDbLine
 10
2754.92453228147
 20
8712.12943058757
 30
0.0
 11
2743.904519176223
 21
8712.12943058757
 31
0.0
  0
LINE
  5
2FB0C
330
1E
100
AcDbEntity
  8
1-3_付属
  6
想像線
 62
     4
 48
0.25
370
    18
100
AcDbLine
 10
2743.904519176223
 20
8712.12943058757
 30
0.0
 11
2743.904519176223
 21
8665.770981443708
 31
0.0
  0
LINE
  5
2FB0D
330
1E
100
AcDbEntity
  8
1-3_付属
  6
想像線
 62
     4
 48
0.25
370
    18
100
AcDbLine
 10
2858.904519176224
 20
8665.770981443708
 30
0.0
 11
2743.904519176223
 21
8665.770981443708
 31
0.0
  0
LINE
  5
2FB0E
330
1E
100
AcDbEntity
  8
1-3_付属
  6
想像線
 62
     4
 48
0.25
370
    18
100
AcDbLine
 10
2858.904519176224
 20
8712.12943058757
 30
0.0
 11
2858.904519176224
 21
8665.770981443708
 31
0.0
  0
LINE
  5
2FB0F
330
1E
100
AcDbEntity
  8
1-3_付属
  6
想像線
 62
     4
 48
0.25
370
    18
100
AcDbLine
 10
2858.904519176224
 20
8712.12943058757
 30
0.0
 11
2777.901482330254
 21
8712.12943058757
 31
0.0
  0
TEXT
  5
2FB10
330
1E
100
AcDbEntity
  8
1-0_本体
  6
Continuous
 62
     7
 48
0.5
370
    35
100
AcDbText
 10
2745.265049814243
 20
8704.114296425585
 30
0.0
 40
3.0
  1
調整ネジ:６ｍｍ六角レンチ　　固定ネジ:２.５ｍｍ六角レンチ
  7
明朝
100
AcDbText
  0
DIMENSION
  5
2FB4F
330
1E
100
AcDbEntity
  8
1-0_本体
  6
Continuous
 62
     7
 48
0.5
370
    18
100
AcDbDimension
280
     0
  2
*D35
 10
2672.879483336421
 20
8471.850739166384
 30
0.0
 11
2687.879483336423
 21
8473.975739166384
 31
0.0
 70
    32
  1
Φ<>
 71
     5
 42
30.00000000000364
 73
     0
 74
     0
 75
     0
  3
ISO-25
100
AcDbAlignedDimension
 13
2702.879483336424
 23
8479.303950258394
 33
0.0
 14
2672.879483336421
 24
8479.303950258394
 34
0.0
100
AcDbRotatedDimension
  0
VIEWPORT
  5
26D
330
1A
100
AcDbEntity
 67
     1
  8
0
  6
Continuous
100
AcDbViewport
 10
218.6990602775886
 20
141.4047430878627
 30
0.0
 40
424.6158778149651
 41
266.2682017462981
 68
     1
 69
     1
 12
218.6990602775886
 22
141.4047430878627
 13
0.0
 23
0.0
 14
10.0
 24
10.0
 15
10.0
 25
10.0
 16
0.0
 26
0.0
 36
1.0
 17
0.0
 27
0.0
 37
0.0
 42
50.0
 43
0.0
 44
0.0
 45
266.2682017462981
 50
0.0
 51
0.0
 72
   100
 90
    32800
  1

281
     0
 71
     1
 74
     0
110
0.0
120
0.0
130
0.0
111
1.0
121
0.0
131
0.0
112
0.0
122
1.0
132
0.0
 79
     0
146
0.0
170
     0
 61
     5
348
2F805
292
     1
282
     1
141
0.0
142
0.0
 63
   250
421
  3355443
  0
VIEWPORT
  5
26F
330
1A
100
AcDbEntity
 67
     1
  8
0
  6
Continuous
100
AcDbViewport
 10
202.8316283051625
 20
141.2365345910331
 30
0.0
 40
372.3619793994
 41
263.985612338206
 68
     2
 69
     2
 12
2668.900409027701
 22
8597.500598746803
 13
0.0
 23
0.0
 14
1.0
 24
1.0
 15
0.0
 25
0.0
 16
0.0
 26
0.0
 36
1.0
 17
0.0
 27
0.0
 37
0.0
 42
50.0
 43
0.0
 44
0.0
 45
300.150801696458
 50
0.0
 51
0.0
 72
   100
 90
    32800
  1

281
     0
 71
     1
 74
     0
110
0.0
120
0.0
130
0.0
111
1.0
121
0.0
131
0.0
112
0.0
122
1.0
132
0.0
 79
     0
146
0.0
170
     0
 61
     5
348
2F805
292
     1
282
     1
141
0.0
142
0.0
 63
   250
421
  3355443
  0
ENDSEC
  0
SECTION
  2
OBJECTS
  0
DICTIONARY
  5
C
330
0
100
AcDbDictionary
281
     1
  3
ACAD_CIP_PREVIOUS_PRODUCT_INFO
350
2F839
  3
ACAD_COLOR
350
2F818
  3
ACAD_DETAILVIEWSTYLE
350
2F831
  3
ACAD_GROUP
350
D
  3
ACAD_LAYOUT
350
19
  3
ACAD_MATERIAL
350
2F7E6
  3
ACAD_MLEADERSTYLE
350
2F82D
  3
ACAD_MLINESTYLE
350
16
  3
ACAD_PLOTSETTINGS
350
18
  3
ACAD_PLOTSTYLENAME
350
E
  3
ACAD_SCALELIST
350
2F81B
  3
ACAD_SECTIONVIEWSTYLE
350
2F82F
  3
ACAD_TABLESTYLE
350
2F819
  3
ACAD_VISUALSTYLE
350
2F7FF
  3
AcadDim
350
C795
  3
ACDB_RECOMPOSE_DATA
350
2FC60
  3
AcDbVariableDictionary
350
15F3
  0
DICTIONARY
  5
27FCE
330
2
100
AcDbDictionary
280
     1
281
     1
  3
ACAD_LAYERSTATES
360
27FCF
  0
DICTIONARY
  5
2F842
330
10
100
AcDbDictionary
280
     1
281
     1
  3
ADSK_XREC_LAYER_RECONCILED
360
2F843
  0
DICTIONARY
  5
2F844
330
36
100
AcDbDictionary
280
     1
281
     1
  3
ADSK_XREC_LAYER_RECONCILED
360
2F845
  0
DICTIONARY
  5
2F846
330
1175
100
AcDbDictionary
280
     1
281
     1
  3
ADSK_XREC_LAYER_RECONCILED
360
2F847
  0
DICTIONARY
  5
2F848
330
1178
100
AcDbDictionary
280
     1
281
     1
  3
ADSK_XREC_LAYER_RECONCILED
360
2F849
  0
DICTIONARY
  5
2F84A
330
2A9F9
100
AcDbDictionary
280
     1
281
     1
  3
ADSK_XREC_LAYER_RECONCILED
360
2F84B
  0
DICTIONARY
  5
2F84C
330
2A9FA
100
AcDbDictionary
280
     1
281
     1
  3
ADSK_XREC_LAYER_RECONCILED
360
2F84D
  0
DICTIONARY
  5
2F84E
330
2A9FB
100
AcDbDictionary
280
     1
281
     1
  3
ADSK_XREC_LAYER_RECONCILED
360
2F84F
  0
DICTIONARY
  5
2F850
330
2A9FC
100
AcDbDictionary
280
     1
281
     1
  3
ADSK_XREC_LAYER_RECONCILED
360
2F851
  0
DICTIONARY
  5
2F852
330
2A9FD
100
AcDbDictionary
280
     1
281
     1
  3
ADSK_XREC_LAYER_RECONCILED
360
2F853
  0
DICTIONARY
  5
2F854
330
2A9FE
100
AcDbDictionary
280
     1
281
     1
  3
ADSK_XREC_LAYER_RECONCILED
360
2F855
  0
DICTIONARY
  5
2F856
330
2A9FF
100
AcDbDictionary
280
     1
281
     1
  3
ADSK_XREC_LAYER_RECONCILED
360
2F857
  0
DICTIONARY
  5
2F858
330
2AA00
100
AcDbDictionary
280
     1
281
     1
  3
ADSK_XREC_LAYER_RECONCILED
360
2F859
  0
DICTIONARY
  5
2F85A
330
2AA01
100
AcDbDictionary
280
     1
281
     1
  3
ADSK_XREC_LAYER_RECONCILED
360
2F85B
  0
DICTIONARY
  5
1198
330
1E
100
AcDbDictionary
280
     1
281
     1
  3
ACAD_LAYOUTSELFREF
360
11CF
  3
ACAD_SORTENTS
360
2F8CD
  0
DICTIONARY
  5
119A
330
1A
100
AcDbDictionary
280
     1
281
     1
  3
ACAD_LAYOUTSELFREF
360
11CE
  0
XRECORD
  5
2F839
102
{ACAD_REACTORS
330
C
102
}
330
C
100
AcDbXrecord
280
     1
300
ACDLT
300
2014
300
ACDLT_F_S
  0
DICTIONARY
  5
2F818
102
{ACAD_REACTORS
330
C
102
}
330
C
100
AcDbDictionary
281
     1
  0
DICTIONARY
  5
2F831
102
{ACAD_REACTORS
330
C
102
}
330
C
100
AcDbDictionary
281
     1
  3
Imperial24
350
2F832
  0
DICTIONARY
  5
D
102
{ACAD_REACTORS
330
C
102
}
330
C
100
AcDbDictionary
281
     1
  0
DICTIONARY
  5
19
102
{ACAD_REACTORS
330
C
102
}
330
C
100
AcDbDictionary
281
     1
  3
Model
350
21
  3
ﾚｲｱｳﾄ1
350
1D
  0
DICTIONARY
  5
2F7E6
102
{ACAD_REACTORS
330
C
102
}
330
C
100
AcDbDictionary
281
     1
  3
ByBlock
350
2F7EF
  3
ByLayer
350
2F7E7
  3
Global
350
2F7F7
  0
DICTIONARY
  5
2F82D
102
{ACAD_REACTORS
330
C
102
}
330
C
100
AcDbDictionary
281
     1
  3
Standard
350
2F82E
  0
DICTIONARY
  5
16
102
{ACAD_REACTORS
330
C
102
}
330
C
100
AcDbDictionary
281
     1
  3
Standard
350
17
  0
DICTIONARY
  5
18
102
{ACAD_REACTORS
330
C
102
}
330
C
100
AcDbDictionary
281
     1
  0
ACDBDICTIONARYWDFLT
  5
E
102
{ACAD_REACTORS
330
C
102
}
330
C
100
AcDbDictionary
281
     1
  3
Normal
350
F
100
AcDbDictionaryWithDefault
340
F
  0
DICTIONARY
  5
2F81B
102
{ACAD_REACTORS
330
C
102
}
330
C
100
AcDbDictionary
281
     1
  3
A0
350
2F81C
  3
A1
350
2F81D
  3
A2
350
2F81E
  3
A3
350
2F81F
  3
A4
350
2F820
  3
A5
350
2F821
  3
A6
350
2F822
  3
A7
350
2F823
  3
A8
350
2F824
  3
A9
350
2F825
  3
B0
350
2F826
  3
B1
350
2F827
  3
B2
350
2F828
  3
B3
350
2F829
  3
B4
350
2F82A
  3
B5
350
2F82B
  3
B6
350
2F82C
  0
DICTIONARY
  5
2F82F
102
{ACAD_REACTORS
330
C
102
}
330
C
100
AcDbDictionary
281
     1
  3
Imperial24
350
2F830
  0
DICTIONARY
  5
2F819
102
{ACAD_REACTORS
330
C
102
}
330
C
100
AcDbDictionary
281
     1
  3
Standard
350
2F81A
  0
DICTIONARY
  5
2F7FF
102
{ACAD_REACTORS
330
C
102
}
330
C
100
AcDbDictionary
281
     1
  3
2dWireframe
350
2F805
  3
Basic
350
2F804
  3
Brighten
350
2F80B
  3
ColorChange
350
2F80F
  3
Conceptual
350
2F808
  3
Dim
350
2F80A
  3
EdgeColorOff
350
2F817
  3
Facepattern
350
2F80E
  3
Flat
350
2F800
  3
FlatWithEdges
350
2F801
  3
Gouraud
350
2F802
  3
GouraudWithEdges
350
2F803
  3
Hidden
350
2F807
  3
JitterOff
350
2F815
  3
Linepattern
350
2F80D
  3
OverhangOff
350
2F816
  3
Realistic
350
2F809
  3
Shaded
350
2F814
  3
Shaded with edges
350
2F813
  3
Shades of Gray
350
2F810
  3
Sketchy
350
2F811
  3
Thicken
350
2F80C
  3
Wireframe
350
2F806
  3
X-Ray
350
2F812
  0
XRECORD
  5
C795
102
{ACAD_REACTORS
330
C
102
}
330
C
100
AcDbXrecord
280
     1
 90
   990106
  3

 60
     0
 61
     0
 62
     1
 63
     3
 64
     0
 65
     0
 66
     0
 67
     3
 68
     1
 69
     0
 70
     0
 71
     0
 72
     0
 40
3.504893568988336
170
     0
340
0
  0
XRECORD
  5
2FC60
102
{ACAD_REACTORS
330
C
102
}
330
C
100
AcDbXrecord
280
     1
 90
        1
330
2F81A
330
2F830
330
2F832
  0
DICTIONARY
  5
15F3
102
{ACAD_REACTORS
330
C
102
}
330
C
100
AcDbDictionary
281
     1
  3
CANNOSCALE
350
2F86D
  3
CMLEADERSTYLE
350
2F869
  3
CTABLESTYLE
350
2F868
  3
CVIEWDETAILSTYLE
350
2F86A
  3
CVIEWSECTIONSTYLE
350
2F86B
  3
LAYEREVAL
350
2F86F
  3
LAYERNOTIFY
350
2F870
  3
LIGHTINGUNITS
350
2F86E
  3
MSLTSCALE
350
2F86C
  3
SORTENTS
350
15F4
  0
DICTIONARY
  5
27FCF
102
{ACAD_REACTORS
330
27FCE
102
}
330
27FCE
100
AcDbDictionary
281
     1
  0
XRECORD
  5
2F843
102
{ACAD_REACTORS
330
2F842
102
}
330
2F842
100
AcDbXrecord
280
     1
290
     1
  0
XRECORD
  5
2F845
102
{ACAD_REACTORS
330
2F844
102
}
330
2F844
100
AcDbXrecord
280
     1
290
     1
  0
XRECORD
  5
2F847
102
{ACAD_REACTORS
330
2F846
102
}
330
2F846
100
AcDbXrecord
280
     1
290
     1
  0
XRECORD
  5
2F849
102
{ACAD_REACTORS
330
2F848
102
}
330
2F848
100
AcDbXrecord
280
     1
290
     1
  0
XRECORD
  5
2F84B
102
{ACAD_REACTORS
330
2F84A
102
}
330
2F84A
100
AcDbXrecord
280
     1
290
     1
  0
XRECORD
  5
2F84D
102
{ACAD_REACTORS
330
2F84C
102
}
330
2F84C
100
AcDbXrecord
280
     1
290
     1
  0
XRECORD
  5
2F84F
102
{ACAD_REACTORS
330
2F84E
102
}
330
2F84E
100
AcDbXrecord
280
     1
290
     1
  0
XRECORD
  5
2F851
102
{ACAD_REACTORS
330
2F850
102
}
330
2F850
100
AcDbXrecord
280
     1
290
     1
  0
XRECORD
  5
2F853
102
{ACAD_REACTORS
330
2F852
102
}
330
2F852
100
AcDbXrecord
280
     1
290
     1
  0
XRECORD
  5
2F855
102
{ACAD_REACTORS
330
2F854
102
}
330
2F854
100
AcDbXrecord
280
     1
290
     1
  0
XRECORD
  5
2F857
102
{ACAD_REACTORS
330
2F856
102
}
330
2F856
100
AcDbXrecord
280
     1
290
     1
  0
XRECORD
  5
2F859
102
{ACAD_REACTORS
330
2F858
102
}
330
2F858
100
AcDbXrecord
280
     1
290
     1
  0
XRECORD
  5
2F85B
102
{ACAD_REACTORS
330
2F85A
102
}
330
2F85A
100
AcDbXrecord
280
     1
290
     1
  0
XRECORD
  5
11CF
102
{ACAD_REACTORS
330
1198
102
}
330
1198
100
AcDbXrecord
280
     1
340
1E
  0
SORTENTSTABLE
  5
2F8CD
102
{ACAD_REACTORS
330
1198
102
}
330
1198
100
AcDbSortentsTable
330
1E
331
2ECEF
  5
2ECF1
331
2ECEB
  5
2ECED
331
2ED1E
  5
2ED20
331
2F7D9
  5
2F7DB
331
2ED1A
  5
2ED1C
331
2ECE3
  5
2ECE5
331
20EF6
  5
20EF6
331
2C69F
  5
2C6A1
331
2C8D6
  5
2C8D9
331
2C1D4
  5
2C1D6
331
2C664
  5
2C666
331
2C69B
  5
2C69D
331
2C20F
  5
2C219
331
2C697
  5
2C699
331
2C8C6
  5
2C8D6
331
2C1D0
  5
2C1D2
331
2C660
  5
2C662
331
2C20B
  5
2C20D
331
2C1CC
  5
2C1CE
331
2C65C
  5
2C65E
331
2C693
  5
2C695
331
2C1C8
  5
2C1CA
331
2C658
  5
2C65A
331
2C19E
  5
2C1A0
331
2C13F
  5
2C141
331
2C90D
  5
2C90F
331
2C13B
  5
2C13D
331
2C0CC
  5
2C0CE
331
2C19A
  5
2C19C
331
2C909
  5
2C90B
331
2545C
  5
25460
331
25225
  5
25369
331
2616B
  5
2616E
331
2C196
  5
2C198
331
2BB74
  5
2C0CB
331
26167
  5
26169
331
25458
  5
2545F
331
2A775
  5
2A777
331
2C133
  5
2C135
331
2C192
  5
2C194
331
25454
  5
25457
331
26163
  5
26166
331
2BB70
  5
2BB73
331
2F8CE
  5
22694
331
2ED16
  5
2ED18
331
22694
  5
226CC
331
2ED12
  5
2ED14
331
2C207
  5
2C209
331
2C203
  5
2C205
331
2C654
  5
2C656
331
2C1FF
  5
2C201
331
2C650
  5
2C652
331
2C68F
  5
2C691
331
2C901
  5
2C903
331
2C1FB
  5
2C1FD
331
2C64C
  5
2C64E
331
2C68B
  5
2C68D
331
2C648
  5
2C64A
331
2EA1C
  5
2EA1E
331
2EA18
  5
2EA1A
331
2C18E
  5
2C190
331
2DEFC
  5
2DEFE
331
2BB6C
  5
2BB6E
331
2DEF8
  5
2DEFA
331
2C1C5
  5
2C1C7
331
2615B
  5
2615D
331
2C12F
  5
2C131
331
2C162
  5
2C18B
331
2C1C1
  5
2C1C3
331
2BB64
  5
2BB69
331
2C12B
  5
2C12D
331
2BB60
  5
2BB62
331
25388
  5
25453
331
2ED0E
  5
2ED10
331
2ED0A
  5
2ED0C
331
2ED06
  5
2ED08
331
2ED02
  5
2ED04
331
2C1F7
  5
2C1F9
331
2C687
  5
2C689
331
2C832
  5
2C8C6
331
2C1F3
  5
2C1F7
331
2C683
  5
2C685
331
2C644
  5
2C646
331
2C8F1
  5
2C902
331
2C1EF
  5
2C1F1
331
2C67F
  5
2C681
331
2C640
  5
2C642
331
2C1EB
  5
2C1ED
331
2C67B
  5
2C67D
331
2C6B2
  5
2C832
331
2C1BD
  5
2C1BF
331
2C127
  5
2C12A
331
2C15E
  5
2C160
331
2EA5B
  5
2ECE3
331
2C1B9
  5
2C1BB
331
2C15A
  5
2C15C
331
2C123
  5
2C125
331
2614F
  5
26154
331
2BB5C
  5
2BB5F
331
2C998
  5
2C99A
331
2C11F
  5
2C121
331
2C156
  5
2C158
331
2C1B5
  5
2C1B7
331
226ED
  5
226EF
331
2614B
  5
2614D
331
2BB58
  5
2BB5B
331
226E9
  5
226EC
331
25370
  5
25388
331
2C11B
  5
2C11D
331
2C152
  5
2C154
331
2536C
  5
25370
331
2ECFE
  5
2ED00
331
2ECFA
  5
2ECFC
331
2ECF6
  5
2ECF8
331
21061
  5
21061
331
2ECF2
  5
2ECF4
331
2C8E5
  5
2C8E7
331
2C1E7
  5
2C1E9
331
2C677
  5
2C679
331
2C6AE
  5
2C6B0
331
2C6AA
  5
2C6AC
331
2C1E3
  5
2C1E5
331
2C673
  5
2C675
331
2C8E1
  5
2C8E5
331
2C1DF
  5
2C1E1
331
2C66F
  5
2C671
331
2C6A6
  5
2C6A8
331
2C21A
  5
2C63F
331
2C1DB
  5
2C1DD
331
2C66B
  5
2C66D
331
2C6A2
  5
2C6A4
331
2C8D9
  5
2C8DC
331
2EA53
  5
2EA55
331
2EA4F
  5
2EA51
331
2C0DF
  5
2C11B
331
2C14E
  5
2C150
331
2EA4B
  5
2EA4E
331
2C14A
  5
2C14F
331
2546F
  5
25476
331
2C0DB
  5
2C0DE
331
2C1A9
  5
2C1B4
331
2C928
  5
2C92B
331
2C0D7
  5
2C0DA
331
2C146
  5
2C148
331
2C1A5
  5
2C1A7
331
2C0D3
  5
2C0D6
331
2C1A1
  5
2C1A3
331
26172
  5
269F9
331
2ECEE
  5
2ECF0
331
2F7DC
  5
2F8CE
331
2ED1D
  5
2ED1F
331
2F7D8
  5
2F7DA
331
2ED19
  5
2ED1B
331
20EF5
  5
20EF5
331
2C1D7
  5
2C1D9
331
2C667
  5
2C669
331
2C69E
  5
2C6A0
331
2C69A
  5
2C69C
331
2C1D3
  5
2C1D5
331
2C663
  5
2C665
331
2C20E
  5
2C210
331
2C1CF
  5
2C1D1
331
2C65F
  5
2C661
331
2C696
  5
2C698
331
2C20A
  5
2C20C
331
2C1CB
  5
2C1CD
331
2C65B
  5
2C65D
331
2C692
  5
2C694
331
2EA2F
  5
2EA4A
331
2EA27
  5
2EA2D
331
2C19D
  5
2C19F
331
2C0CF
  5
2C0D1
331
2C13E
  5
2C140
331
2EA23
  5
2EA26
331
2C90C
  5
2C90E
331
2C13A
  5
2C13C
331
2C0CB
  5
2C0CD
331
2C199
  5
2C19B
331
2545F
  5
25469
331
2616E
  5
26172
331
2C195
  5
2C197
331
25224
  5
25363
331
2BB73
  5
2BB75
331
2A774
  5
2A776
331
2C132
  5
2C134
331
2C191
  5
2C193
331
25457
  5
2545C
331
26166
  5
26168
331
26162
  5
26165
331
25453
  5
25455
331
21118
  5
21118
331
2ED15
  5
2ED17
331
2ED11
  5
2ED13
331
21110
  5
21110
331
2C206
  5
2C208
331
2C657
  5
2C659
331
2C202
  5
2C204
331
2C653
  5
2C655
331
2C1FE
  5
2C200
331
2C64F
  5
2C651
331
2C68E
  5
2C690
331
2C1FA
  5
2C1FC
331
2C64B
  5
2C64D
331
2C68A
  5
2C68C
331
2EA1F
  5
2EA23
331
2EA1B
  5
2EA1D
331
2C18D
  5
2C18F
331
2BB6B
  5
2BB6D
331
2C1C4
  5
2C1C6
331
2C161
  5
2C163
331
2C1C0
  5
2C1C2
331
2C12A
  5
2C12C
331
26156
  5
2615B
331
26152
  5
26155
331
2538B
  5
25454
331
2ED0D
  5
2ED0F
331
2264B
  5
2264B
331
2ED09
  5
2ED0B
331
2ED05
  5
2ED07
331
21108
  5
21108
331
2ED01
  5
2ED03
331
2C686
  5
2C688
331
2C647
  5
2C649
331
2C831
  5
2C838
331
2C1F2
  5
2C1F4
331
2C682
  5
2C684
331
2C643
  5
2C645
331
2C1EE
  5
2C1F0
331
2C67E
  5
2C680
331
2C63F
  5
2C641
331
2C8E8
  5
2C8F1
331
2C1EA
  5
2C1EC
331
2C67A
  5
2C67C
331
2C6B1
  5
2C831
331
2D317
  5
2DEF9
331
2C15D
  5
2C15F
331
2BB5F
  5
2BB61
331
2C126
  5
2C129
331
2C1BC
  5
2C1BE
331
2C99B
  5
2D317
331
2EA5A
  5
2ECE1
331
2BB5B
  5
2BB5D
331
2C122
  5
2C124
331
2C159
  5
2C15B
331
2C1B8
  5
2C1BA
331
2614E
  5
26152
331
2BB57
  5
2BB59
331
2C11E
  5
2C120
331
2C155
  5
2C157
331
2C1B4
  5
2C1B6
331
226EC
  5
226EE
331
2C151
  5
2C153
331
25476
  5
2614C
331
269F9
  5
2A773
331
226D0
  5
226EA
331
2ECFD
  5
2ECFF
331
2ECF9
  5
2ECFB
331
2ECF5
  5
2ECF7
331
2257F
  5
2257F
331
2ECF1
  5
2ECF3
331
2C6AD
  5
2C6AF
331
2C1E6
  5
2C1E8
331
2C676
  5
2C678
331
2C6A9
  5
2C6AB
331
2C1E2
  5
2C1E4
331
2C672
  5
2C674
331
2C8E0
  5
2C8E3
331
2C1DE
  5
2C1E0
331
2C66E
  5
2C670
331
2C6A5
  5
2C6A7
331
2C8DC
  5
2C8E0
331
2C8D8
  5
2C8DA
331
2C219
  5
2C63E
331
2C1DA
  5
2C1DC
331
2C66A
  5
2C66C
331
2C6A1
  5
2C6A3
331
2EA56
  5
2EA59
331
2C997
  5
2C999
331
2EA52
  5
2EA54
331
2EA4E
  5
2EA50
331
2C0DE
  5
2C119
331
2EA4A
  5
2EA4C
331
2C92B
  5
2C996
331
2C0DA
  5
2C0DD
331
2C149
  5
2C14E
331
2C1A8
  5
2C1AA
331
2546E
  5
25471
331
2C0D6
  5
2C0D9
331
2C1A4
  5
2C1A6
331
226CC
  5
226E9
331
25363
  5
2536C
331
2546A
  5
2546E
331
2C0D2
  5
2C0D5
331
2C141
  5
2C147
331
2C1A0
  5
2C1A2
331
226B4
  5
226D0
331
26171
  5
269C4
331
2ECED
  5
2ECEF
331
2ED20
  5
2F7D7
331
20FAC
  5
20FAC
331
2F7DB
  5
2F8CC
331
2ED1C
  5
2ED1E
331
2ECE5
  5
2ECE7
331
2F7D7
  5
2F7D9
331
2ED18
  5
2ED1A
331
2ECE1
  5
2ECE4
331
20EF4
  5
20EF4
331
2C1D6
  5
2C1D8
331
2C666
  5
2C668
331
2C69D
  5
2C69F
331
2C699
  5
2C69B
331
2C1D2
  5
2C1D4
331
2C662
  5
2C664
331
2C20D
  5
2C20F
331
2C1CE
  5
2C1D0
331
2C65E
  5
2C660
331
2C695
  5
2C697
331
2C209
  5
2C20B
331
2C1CA
  5
2C1CC
331
2C65A
  5
2C65C
331
2C691
  5
2C693
331
2EA2E
  5
2EA48
331
2C927
  5
2C92A
331
2EA2A
  5
2EA2E
331
2EA26
  5
2EA2A
331
2C90F
  5
2C928
331
2C19C
  5
2C19E
331
2C0CE
  5
2C0D0
331
2C13D
  5
2C13F
331
2EA22
  5
2EA25
331
2C90B
  5
2C90D
331
2C139
  5
2C13B
331
2C198
  5
2C19A
331
2616D
  5
26171
331
2A777
  5
2BB58
331
2C135
  5
2C139
331
2C194
  5
2C196
331
25223
  5
25225
331
26169
  5
2616D
331
2A773
  5
2A775
331
2BB72
  5
2BB74
331
2C131
  5
2C133
331
2C190
  5
2C192
331
26165
  5
26167
331
26161
  5
26163
331
2F8CC
  5
226B4
331
21117
  5
21117
331
2ED14
  5
2ED16
331
2ED10
  5
2ED12
331
2C205
  5
2C207
331
2C656
  5
2C658
331
2C201
  5
2C203
331
2C652
  5
2C654
331
2C907
  5
2C90A
331
2C903
  5
2C909
331
2C1FD
  5
2C1FF
331
2C64E
  5
2C650
331
2C68D
  5
2C68F
331
2C838
  5
2C8C7
331
2C1F9
  5
2C1FB
331
2C64A
  5
2C64C
331
2C689
  5
2C68B
331
2EA1E
  5
2EA22
331
2EA1A
  5
2EA1C
331
2DEFE
  5
2EA19
331
2C18C
  5
2C18E
331
2BB6E
  5
2BB72
331
2DEFA
  5
2DEFD
331
2C1C7
  5
2C1C9
331
2BB6A
  5
2BB6C
331
2615D
  5
26162
331
2C1C3
  5
2C1C5
331
2BB66
  5
2BB6A
331
2C12D
  5
2C130
331
2C160
  5
2C162
331
2BB62
  5
2BB66
331
2C129
  5
2C12B
331
26155
  5
26158
331
2ED0C
  5
2ED0E
331
2ED08
  5
2ED0A
331
2ED04
  5
2ED06
331
21107
  5
21107
331
225EE
  5
225EE
331
2ED00
  5
2ED02
331
2C685
  5
2C687
331
2C646
  5
2C648
331
2C8EF
  5
2C901
331
2C1F1
  5
2C1F3
331
2C681
  5
2C683
331
2C642
  5
2C644
331
2C67D
  5
2C67F
331
2C63E
  5
2C640
331
2C1ED
  5
2C1EF
331
2C679
  5
2C67B
331
2C6B0
  5
2C6B2
331
2C1E9
  5
2C1EB
331
2D316
  5
2DEF8
331
2C1BF
  5
2C1C1
331
2C15C
  5
2C15E
331
2C125
  5
2C127
331
2C1BB
  5
2C1BD
331
2C99A
  5
2D316
331
2EA59
  5
2EA5B
331
2C1B7
  5
2C1B9
331
2C121
  5
2C123
331
2C158
  5
2C15A
331
226EF
  5
2273A
331
2614D
  5
2614F
331
2C11D
  5
2C11F
331
2C154
  5
2C156
331
2C119
  5
2C11C
331
2C150
  5
2C152
331
25471
  5
2614B
331
2ECFC
  5
2ECFE
331
21063
  5
21063
331
22582
  5
22582
331
2ECF8
  5
2ECFA
331
2ECF4
  5
2ECF6
331
2ECF0
  5
2ECF2
331
2C8E7
  5
2C8EF
331
2C6AC
  5
2C6AE
331
2C675
  5
2C677
331
2C8E3
  5
2C8E6
331
2C1E5
  5
2C1E7
331
2C8DF
  5
2C8E1
331
2C671
  5
2C673
331
2C6A8
  5
2C6AA
331
2C1E1
  5
2C1E3
331
2C66D
  5
2C66F
331
2C6A4
  5
2C6A6
331
2C1DD
  5
2C1DF
331
2C669
  5
2C66B
331
2C6A0
  5
2C6A2
331
2C1D9
  5
2C1DB
331
2EA55
  5
2EA58
331
2C996
  5
2C998
331
2EA51
  5
2EA53
331
2C0DD
  5
2C0DF
331
2C92A
  5
2C995
331
2C1A7
  5
2C1A9
331
2C0D9
  5
2C0DB
331
2C148
  5
2C14A
331
269C4
  5
2A772
331
2C0D5
  5
2C0D7
331
2C1A3
  5
2C1A5
331
25469
  5
2546C
331
2C0D1
  5
2C0D3
331
2C140
  5
2C146
331
2ECEC
  5
2ECEE
331
2F7DA
  5
2F7DC
331
2ED1F
  5
2F7D6
331
2F7D6
  5
2F7D8
331
2ED1B
  5
2ED1D
331
2C665
  5
2C667
331
2C69C
  5
2C69E
331
2C1D5
  5
2C1D7
331
2C8C7
  5
2C8D8
331
2C698
  5
2C69A
331
2C661
  5
2C663
331
2C1D1
  5
2C1D3
331
2C210
  5
2C21A
331
2C694
  5
2C696
331
2C65D
  5
2C65F
331
2C20C
  5
2C20E
331
2C1CD
  5
2C1CF
331
2C690
  5
2C692
331
2C659
  5
2C65B
331
2C1C9
  5
2C1CB
331
2C208
  5
2C20A
331
2EA2D
  5
2EA2F
331
2C19F
  5
2C1A1
331
2EA25
  5
2EA27
331
2C90E
  5
2C927
331
2C19B
  5
2C19D
331
2C0CD
  5
2C0CF
331
2C13C
  5
2C13E
331
2C90A
  5
2C90C
331
2C197
  5
2C199
331
2C138
  5
2C13A
331
2A776
  5
2BB57
331
2BB75
  5
2C0CC
331
2C134
  5
2C138
331
2C193
  5
2C195
331
25222
  5
25224
331
26168
  5
2616B
331
2A772
  5
2A774
331
2C130
  5
2C132
331
25455
  5
25458
331
2ED17
  5
2ED19
331
21116
  5
21116
331
2ED13
  5
2ED15
331
2C655
  5
2C657
331
2C204
  5
2C206
331
2C651
  5
2C653
331
2C200
  5
2C202
331
2C68C
  5
2C68E
331
2C902
  5
2C907
331
2C64D
  5
2C64F
331
2C1FC
  5
2C1FE
331
2C688
  5
2C68A
331
2C649
  5
2C64B
331
2C1F8
  5
2C1FA
331
2EA1D
  5
2EA1F
331
2EA19
  5
2EA1B
331
2C18F
  5
2C191
331
2DEFD
  5
2EA18
331
2C18B
  5
2C18D
331
2BB6D
  5
2BB70
331
2DEF9
  5
2DEFC
331
2C1C6
  5
2C1C8
331
2BB69
  5
2BB6B
331
2615C
  5
26161
331
2C163
  5
2C18C
331
2C1C2
  5
2C1C4
331
2C12C
  5
2C12F
331
2273A
  5
2521F
331
26158
  5
2615C
331
2BB61
  5
2BB64
331
26154
  5
26156
331
2ED0F
  5
2ED11
331
2ED0B
  5
2ED0D
331
2ED07
  5
2ED09
331
2ED03
  5
2ED05
331
2C684
  5
2C686
331
2C645
  5
2C647
331
2C1F4
  5
2C1F8
331
2C680
  5
2C682
331
2C641
  5
2C643
331
2C1F0
  5
2C1F2
331
2C1EC
  5
2C1EE
331
2C67C
  5
2C67E
331
2C1E8
  5
2C1EA
331
2C678
  5
2C67A
331
2C1BE
  5
2C1C0
331
2C15F
  5
2C161
331
2C15B
  5
2C15D
331
2BB5D
  5
2BB60
331
2C124
  5
2C126
331
2C1BA
  5
2C1BC
331
2C157
  5
2C159
331
2C1B6
  5
2C1B8
331
2BB59
  5
2BB5C
331
2C120
  5
2C122
331
226EE
  5
22709
331
2614C
  5
2614E
331
2C999
  5
2C99B
331
2EA58
  5
2EA5A
331
2C11C
  5
2C11E
331
2C153
  5
2C155
331
226EA
  5
226ED
331
25371
  5
2538B
331
2536D
  5
25371
331
25369
  5
2536D
331
2ECFF
  5
2ED01
331
2ECFB
  5
2ECFD
331
2ECF7
  5
2ECF9
331
2ECF3
  5
2ECF5
331
2102A
  5
2102A
331
2C6AF
  5
2C6B1
331
2C8E6
  5
2C8E8
331
2C1E4
  5
2C1E6
331
2C674
  5
2C676
331
2C6AB
  5
2C6AD
331
2C6A7
  5
2C6A9
331
2C1E0
  5
2C1E2
331
2C670
  5
2C672
331
2C1DC
  5
2C1DE
331
2C66C
  5
2C66E
331
2C6A3
  5
2C6A5
331
2C8DA
  5
2C8DF
331
2C1D8
  5
2C1DA
331
2C668
  5
2C66A
331
2EA54
  5
2EA56
331
2C995
  5
2C997
331
2C14F
  5
2C151
331
2EA50
  5
2EA52
331
2C1AA
  5
2C1B5
331
2EA4C
  5
2EA4F
331
2EA48
  5
2EA4B
331
2546C
  5
2546F
331
2C147
  5
2C149
331
2C1A6
  5
2C1A8
331
2C1A2
  5
2C1A4
331
2C0D0
  5
2C0D2
331
25460
  5
2546A
  0
XRECORD
  5
11CE
102
{ACAD_REACTORS
330
119A
102
}
330
119A
100
AcDbXrecord
280
     1
340
1A
  0
ACDBDETAILVIEWSTYLE
  5
2F832
102
{ACAD_XDICTIONARY
360
2F865
102
}
102
{ACAD_REACTORS
330
2F831
102
}
330
2F831
100
AcDbModelDocViewStyle
 70
     0
  3
Imperial24
290
     0
100
AcDbDetailViewStyle
 70
     0
 71
     0
 90
        3
 71
     1
340
11
 62
   256
 40
0.24
340
0
 62
   256
 40
0.24
300

 40
0.36
280
     3
 71
     2
340
15
 90
       25
 62
   256
 71
     3
340
11
 62
   256
 40
0.24
 90
        1
 40
0.75
 90
        1
300
%<\AcVar ViewType \f "%tc1">% %<\AcVar ViewDetailId>%\PSCALE %<\AcVar ViewScale \f "%sn">%
 71
     4
340
15
 90
       25
 62
   256
340
15
 90
       25
 62
   256
280
     0
  0
LAYOUT
  5
21
102
{ACAD_REACTORS
330
19
102
}
330
19
100
AcDbPlotSettings
  1

  2
RICOH imagio Neo C285 RPCS_3
  4
A4
  6

 40
5.873749732971191
 41
5.873747825622558
 42
5.873748779296875
 43
5.873748779296875
 44
209.9733276367187
 45
296.9259948730469
 46
0.0
 47
0.0
 48
2463.15127171796
 49
8461.749480896337
140
2872.15127171796
141
8740.749480896337
142
1.0
143
1.434189472501725
 70
 11952
 72
     1
 73
     1
 74
     4
  7
monochrome.ctb
 75
     0
147
0.6972579419758617
 76
     0
 77
     2
 78
   300
148
-2463.15127171796
149
-8461.749480896337
100
AcDbLayout
  1
Model
 70
     1
 71
     0
 10
0.0
 20
0.0
 11
12.0
 21
9.0
 12
0.0
 22
0.0
 32
0.0
 14
0.0
 24
0.0
 34
0.0
 15
0.0
 25
0.0
 35
0.0
146
0.0
 13
0.0
 23
0.0
 33
0.0
 16
1.0
 26
0.0
 36
0.0
 17
0.0
 27
1.0
 37
0.0
 76
     0
330
1E
331
2F7DE
  0
LAYOUT
  5
1D
102
{ACAD_REACTORS
330
19
102
}
330
19
100
AcDbPlotSettings
  1

  2
RICOH imagio MP C2200 RPCS
  4
A3
  6

 40
5.873749732971191
 41
5.873747825622558
 42
5.873748779296875
 43
5.873748779296875
 44
296.9259948730469
 45
419.9466552734374
 46
0.0
 47
0.0
 48
21.87321779041383
 49
16.63247260679629
140
381.5927815064729
141
263.7747695568667
142
1.0
143
0.8812354363723043
 70
   688
 72
     1
 73
     1
 74
     4
  7
monochrome.ctb
 75
     0
147
1.134770526383507
 76
     0
 77
     2
 78
   300
148
-21.87321779041383
149
-16.63247260679629
100
AcDbLayout
  1
ﾚｲｱｳﾄ1
 70
     0
 71
     1
 10
16.69706222174885
 20
11.45631619771972
 11
386.7689362347263
 21
273.1180248599498
 12
0.0
 22
0.0
 32
0.0
 14
16.65063860546252
 24
9.243728421930086
 34
0.0
 15
389.0126180048625
 25
273.2293407601361
 35
0.0
146
0.0
 13
0.0
 23
0.0
 33
0.0
 16
1.0
 26
0.0
 36
0.0
 17
0.0
 27
1.0
 37
0.0
 76
     0
330
1A
331
26D
  0
MATERIAL
  5
2F7EF
102
{ACAD_XDICTIONARY
360
2F7F0
102
}
102
{ACAD_REACTORS
330
2F7E6
102
}
330
2F7E6
100
AcDbMaterial
  1
ByBlock
 72
     0
 43
0.0208333333333333
 43
0.0
 43
0.0
 43
0.0
 43
0.0
 43
0.0208333333333333
 43
0.0
 43
0.0
 43
0.0
 43
0.0
 43
1.0
 43
0.0
 43
0.0
 43
0.0
 43
0.0
 43
1.0
 77
     0
 47
0.0208333333333333
 47
0.0
 47
0.0
 47
0.0
 47
0.0
 47
0.0208333333333333
 47
0.0
 47
0.0
 47
0.0
 47
0.0
 47
1.0
 47
0.0
 47
0.0
 47
0.0
 47
0.0
 47
1.0
171
     0
 49
0.0208333333333333
 49
0.0
 49
0.0
 49
0.0
 49
0.0
 49
0.0208333333333333
 49
0.0
 49
0.0
 49
0.0
 49
0.0
 49
1.0
 49
0.0
 49
0.0
 49
0.0
 49
0.0
 49
1.0
175
     0
142
0.0208333333333333
142
0.0
142
0.0
142
0.0
142
0.0
142
0.0208333333333333
142
0.0
142
0.0
142
0.0
142
0.0
142
1.0
142
0.0
142
0.0
142
0.0
142
0.0
142
1.0
179
     0
144
0.0208333333333333
144
0.0
144
0.0
144
0.0
144
0.0
144
0.0208333333333333
144
0.0
144
0.0
144
0.0
144
0.0
144
1.0
144
0.0
144
0.0
144
0.0
144
0.0
144
1.0
147
0.0208333333333333
147
0.0
147
0.0
147
0.0
147
0.0
147
0.0208333333333333
147
0.0
147
0.0
147
0.0
147
0.0
147
1.0
147
0.0
147
0.0
147
0.0
147
0.0
147
1.0
  0
MATERIAL
  5
2F7E7
102
{ACAD_XDICTIONARY
360
2F7E8
102
}
102
{ACAD_REACTORS
330
2F7E6
102
}
330
2F7E6
100
AcDbMaterial
  1
ByLayer
 72
     0
 43
0.0208333333333333
 43
0.0
 43
0.0
 43
0.0
 43
0.0
 43
0.0208333333333333
 43
0.0
 43
0.0
 43
0.0
 43
0.0
 43
1.0
 43
0.0
 43
0.0
 43
0.0
 43
0.0
 43
1.0
 77
     0
 47
0.0208333333333333
 47
0.0
 47
0.0
 47
0.0
 47
0.0
 47
0.0208333333333333
 47
0.0
 47
0.0
 47
0.0
 47
0.0
 47
1.0
 47
0.0
 47
0.0
 47
0.0
 47
0.0
 47
1.0
171
     0
 49
0.0208333333333333
 49
0.0
 49
0.0
 49
0.0
 49
0.0
 49
0.0208333333333333
 49
0.0
 49
0.0
 49
0.0
 49
0.0
 49
1.0
 49
0.0
 49
0.0
 49
0.0
 49
0.0
 49
1.0
175
     0
142
0.0208333333333333
142
0.0
142
0.0
142
0.0
142
0.0
142
0.0208333333333333
142
0.0
142
0.0
142
0.0
142
0.0
142
1.0
142
0.0
142
0.0
142
0.0
142
0.0
142
1.0
179
     0
144
0.0208333333333333
144
0.0
144
0.0
144
0.0
144
0.0
144
0.0208333333333333
144
0.0
144
0.0
144
0.0
144
0.0
144
1.0
144
0.0
144
0.0
144
0.0
144
0.0
144
1.0
147
0.0208333333333333
147
0.0
147
0.0
147
0.0
147
0.0
147
0.0208333333333333
147
0.0
147
0.0
147
0.0
147
0.0
147
1.0
147
0.0
147
0.0
147
0.0
147
0.0
147
1.0
  0
MATERIAL
  5
2F7F7
102
{ACAD_XDICTIONARY
360
2F7F8
102
}
102
{ACAD_REACTORS
330
2F7E6
102
}
330
2F7E6
100
AcDbMaterial
  1
Global
 72
     0
 43
0.0208333333333333
 43
0.0
 43
0.0
 43
0.0
 43
0.0
 43
0.0208333333333333
 43
0.0
 43
0.0
 43
0.0
 43
0.0
 43
1.0
 43
0.0
 43
0.0
 43
0.0
 43
0.0
 43
1.0
 77
     0
 47
0.0208333333333333
 47
0.0
 47
0.0
 47
0.0
 47
0.0
 47
0.0208333333333333
 47
0.0
 47
0.0
 47
0.0
 47
0.0
 47
1.0
 47
0.0
 47
0.0
 47
0.0
 47
0.0
 47
1.0
171
     0
 49
0.0208333333333333
 49
0.0
 49
0.0
 49
0.0
 49
0.0
 49
0.0208333333333333
 49
0.0
 49
0.0
 49
0.0
 49
0.0
 49
1.0
 49
0.0
 49
0.0
 49
0.0
 49
0.0
 49
1.0
175
     0
142
0.0208333333333333
142
0.0
142
0.0
142
0.0
142
0.0
142
0.0208333333333333
142
0.0
142
0.0
142
0.0
142
0.0
142
1.0
142
0.0
142
0.0
142
0.0
142
0.0
142
1.0
179
     0
144
0.0208333333333333
144
0.0
144
0.0
144
0.0
144
0.0
144
0.0208333333333333
144
0.0
144
0.0
144
0.0
144
0.0
144
1.0
144
0.0
144
0.0
144
0.0
144
0.0
144
1.0
147
0.0208333333333333
147
0.0
147
0.0
147
0.0
147
0.0
147
0.0208333333333333
147
0.0
147
0.0
147
0.0
147
0.0
147
1.0
147
0.0
147
0.0
147
0.0
147
0.0
147
1.0
  0
MLEADERSTYLE
  5
2F82E
102
{ACAD_REACTORS
330
2F82D
102
}
330
2F82D
100
AcDbMLeaderStyle
179
     2
170
     2
171
     1
172
     0
 90
        2
 40
0.0
 41
0.0
173
     1
 91
-1056964608
340
13
 92
       -2
290
     1
 42
0.09
291
     1
 43
0.36
  3
Standard
 44
0.18
300

342
11
174
     1
178
     6
175
     1
176
     0
 93
-1056964608
 45
0.18
292
     0
297
     0
 46
0.18
 94
-1056964608
 47
1.0
 49
1.0
140
1.0
293
     1
141
0.0
294
     1
177
     0
142
1.0
295
     1
296
     0
143
0.125
271
     0
272
     9
273
     9
298
     1
  0
MLINESTYLE
  5
17
102
{ACAD_REACTORS
330
16
102
}
330
16
100
AcDbMlineStyle
  2
STANDARD
 70
     0
  3

 62
   256
 51
90.0
 52
90.0
 71
     2
 49
0.5
 62
   256
  6
BYLAYER
 49
-0.5
 62
   256
  6
BYLAYER
  0
ACDBPLACEHOLDER
  5
F
102
{ACAD_REACTORS
330
E
102
}
330
E
  0
SCALE
  5
2F81C
102
{ACAD_REACTORS
330
2F81B
102
}
330
2F81B
100
AcDbScale
 70
     0
300
1:1
140
1.0
141
1.0
290
     1
  0
SCALE
  5
2F81D
102
{ACAD_REACTORS
330
2F81B
102
}
330
2F81B
100
AcDbScale
 70
     0
300
1/128" = 1'-0"
140
0.0078125
141
12.0
290
     0
  0
SCALE
  5
2F81E
102
{ACAD_REACTORS
330
2F81B
102
}
330
2F81B
100
AcDbScale
 70
     0
300
1/64" = 1'-0"
140
0.015625
141
12.0
290
     0
  0
SCALE
  5
2F81F
102
{ACAD_REACTORS
330
2F81B
102
}
330
2F81B
100
AcDbScale
 70
     0
300
1/32" = 1'-0"
140
0.03125
141
12.0
290
     0
  0
SCALE
  5
2F820
102
{ACAD_REACTORS
330
2F81B
102
}
330
2F81B
100
AcDbScale
 70
     0
300
1/16" = 1'-0"
140
0.0625
141
12.0
290
     0
  0
SCALE
  5
2F821
102
{ACAD_REACTORS
330
2F81B
102
}
330
2F81B
100
AcDbScale
 70
     0
300
3/32" = 1'-0"
140
0.09375
141
12.0
290
     0
  0
SCALE
  5
2F822
102
{ACAD_REACTORS
330
2F81B
102
}
330
2F81B
100
AcDbScale
 70
     0
300
1/8" = 1'-0"
140
0.125
141
12.0
290
     0
  0
SCALE
  5
2F823
102
{ACAD_REACTORS
330
2F81B
102
}
330
2F81B
100
AcDbScale
 70
     0
300
3/16" = 1'-0"
140
0.1875
141
12.0
290
     0
  0
SCALE
  5
2F824
102
{ACAD_REACTORS
330
2F81B
102
}
330
2F81B
100
AcDbScale
 70
     0
300
1/4" = 1'-0"
140
0.25
141
12.0
290
     0
  0
SCALE
  5
2F825
102
{ACAD_REACTORS
330
2F81B
102
}
330
2F81B
100
AcDbScale
 70
     0
300
3/8" = 1'-0"
140
0.375
141
12.0
290
     0
  0
SCALE
  5
2F826
102
{ACAD_REACTORS
330
2F81B
102
}
330
2F81B
100
AcDbScale
 70
     0
300
1/2" = 1'-0"
140
0.5
141
12.0
290
     0
  0
SCALE
  5
2F827
102
{ACAD_REACTORS
330
2F81B
102
}
330
2F81B
100
AcDbScale
 70
     0
300
3/4" = 1'-0"
140
0.75
141
12.0
290
     0
  0
SCALE
  5
2F828
102
{ACAD_REACTORS
330
2F81B
102
}
330
2F81B
100
AcDbScale
 70
     0
300
1" = 1'-0"
140
1.0
141
12.0
290
     0
  0
SCALE
  5
2F829
102
{ACAD_REACTORS
330
2F81B
102
}
330
2F81B
100
AcDbScale
 70
     0
300
1-1/2" = 1'-0"
140
1.5
141
12.0
290
     0
  0
SCALE
  5
2F82A
102
{ACAD_REACTORS
330
2F81B
102
}
330
2F81B
100
AcDbScale
 70
     0
300
3" = 1'-0"
140
3.0
141
12.0
290
     0
  0
SCALE
  5
2F82B
102
{ACAD_REACTORS
330
2F81B
102
}
330
2F81B
100
AcDbScale
 70
     0
300
6" = 1'-0"
140
6.0
141
12.0
290
     0
  0
SCALE
  5
2F82C
102
{ACAD_REACTORS
330
2F81B
102
}
330
2F81B
100
AcDbScale
 70
     0
300
1'-0" = 1'-0"
140
12.0
141
12.0
290
     0
  0
ACDBSECTIONVIEWSTYLE
  5
2F830
102
{ACAD_XDICTIONARY
360
2F863
102
}
102
{ACAD_REACTORS
330
2F82F
102
}
330
2F82F
100
AcDbModelDocViewStyle
 70
     0
  3
Imperial24
290
     0
100
AcDbSectionViewStyle
 70
     0
 71
     0
 90
       78
 71
     1
340
11
 62
   256
 40
0.24
340
0
340
0
 62
   256
 40
0.24
300
I, O, Q, S, X, Z
 40
0.48
 90
        3
 40
0.18
 90
        1
 71
     2
340
15
 90
       25
 62
   256
340
15
 90
       50
 62
   256
 40
0.24
 40
0.0
 40
0.24
 71
     3
340
11
 62
   256
 40
0.24
 90
        1
 40
0.75
 90
        1
300
%<\AcVar ViewType \f "%tc1">% %<\AcVar ViewSectionStartId>%-%<\AcVar ViewSectionEndId>%\PSCALE %<\AcVar ViewScale \f "%sn">%
 71
     4
 62
   256
 62
   257
300
ANSI31
 40
1.0
 90
        0
290
     0
290
     0
 90
        6
 40
0.0
 40
1.570796326794896
 40
0.2617993877991494
 40
1.308996938995747
 40
-0.2617993877991494
 40
1.832595714594046
  0
TABLESTYLE
  5
2F81A
102
{ACAD_XDICTIONARY
360
2FC5C
102
}
102
{ACAD_REACTORS
330
2F819
102
}
330
2F819
100
AcDbTableStyle
280
     0
  3
Standard
 70
     0
 71
     0
 40
0.06
 41
0.06
280
     0
281
     0
  7
STANDARD
140
0.18
170
     2
 62
     0
 63
     7
283
     0
 90
      512
 91
        0
  1

274
    -2
284
     1
 64
     0
275
    -2
285
     1
 65
     0
276
    -2
286
     1
 66
     0
277
    -2
287
     1
 67
     0
278
    -2
288
     1
 68
     0
279
    -2
289
     1
 69
     0
  7
STANDARD
140
0.25
170
     5
 62
     0
 63
     7
283
     0
 90
      512
 91
        0
  1

274
    -2
284
     1
 64
     0
275
    -2
285
     1
 65
     0
276
    -2
286
     1
 66
     0
277
    -2
287
     1
 67
     0
278
    -2
288
     1
 68
     0
279
    -2
289
     1
 69
     0
  7
STANDARD
140
0.18
170
     5
 62
     0
 63
     7
283
     0
 90
      512
 91
        0
  1

274
    -2
284
     1
 64
     0
275
    -2
285
     1
 65
     0
276
    -2
286
     1
 66
     0
277
    -2
287
     1
 67
     0
278
    -2
288
     1
 68
     0
279
    -2
289
     1
 69
     0
  0
VISUALSTYLE
  5
2F805
102
{ACAD_REACTORS
330
2F7FF
102
}
330
2F7FF
100
AcDbVisualStyle
  2
2dWireframe
 70
     4
177
     3
291
     0
 70
    58
 90
        0
176
     1
 90
        2
176
     1
 90
        0
176
     1
 90
        0
176
     1
 40
0.6
176
     1
 40
30.0
176
     1
 62
     7
420
 16777215
176
     1
 90
        1
176
     1
 90
        4
176
     1
 62
     7
176
     1
 62
   257
176
     1
 90
        1
176
     1
 90
        1
176
     1
 40
1.0
176
     1
 90
        0
176
     1
 62
   257
176
     1
 40
1.0
176
     1
 90
        1
176
     1
 90
        6
176
     1
 90
        2
176
     1
 62
     7
176
     1
 90
        5
176
     1
 90
        0
176
     1
 90
        0
176
     1
290
     0
176
     1
 90
        1
176
     1
 40
0.0
176
     1
 90
        0
176
     1
290
     1
176
     1
290
     1
176
     1
290
     0
176
     1
290
     0
176
     1
290
     0
176
     1
290
     0
176
     1
290
     0
176
     1
290
     0
176
     1
290
     0
176
     1
 90
       50
176
     1
 40
0.0
176
     1
 40
1.0
176
     1
 90
        0
176
     1
 62
    18
420
        0
176
     1
 90
       50
176
     1
 90
        3
176
     1
 62
     5
420
      255
176
     1
290
     0
176
     1
 90
       50
176
     1
 90
       50
176
     1
 90
       50
176
     1
290
     0
176
     1
 90
       50
176
     1
 62
   256
176
     0
 40
1.0
176
     0
 90
        2
176
     1
  1
strokes_ogs.tif
176
     1
290
     0
176
     1
 40
1.0
176
     1
 40
1.0
176
     1
  0
VISUALSTYLE
  5
2F804
102
{ACAD_REACTORS
330
2F7FF
102
}
330
2F7FF
100
AcDbVisualStyle
  2
Basic
 70
     7
177
     3
291
     1
 70
    58
 90
        1
176
     1
 90
        0
176
     1
 90
        1
176
     1
 90
        0
176
     1
 40
0.6
176
     1
 40
30.0
176
     1
 62
     7
420
 16777215
176
     1
 90
        0
176
     1
 90
        4
176
     1
 62
     7
176
     1
 62
   257
176
     1
 90
        1
176
     1
 90
        1
176
     1
 40
1.0
176
     1
 90
        8
176
     1
 62
     7
176
     1
 40
1.0
176
     1
 90
        1
176
     1
 90
        6
176
     1
 90
        2
176
     1
 62
     7
176
     1
 90
        5
176
     1
 90
        0
176
     1
 90
        0
176
     1
290
     0
176
     1
 90
        1
176
     1
 40
0.0
176
     1
 90
        0
176
     1
290
     0
176
     1
290
     1
176
     1
290
     1
176
     1
290
     0
176
     1
290
     0
176
     1
290
     0
176
     1
290
     0
176
     1
290
     0
176
     1
290
     0
176
     1
 90
       50
176
     1
 40
0.0
176
     1
 40
1.0
176
     1
 90
        0
176
     1
 62
    18
420
        0
176
     1
 90
       50
176
     1
 90
        3
176
     1
 62
     5
420
      255
176
     1
290
     0
176
     1
 90
       50
176
     1
 90
       50
176
     1
 90
       50
176
     1
290
     0
176
     1
 90
       50
176
     1
 62
   256
176
     0
 40
1.0
176
     0
 90
        2
176
     1
  1
strokes_ogs.tif
176
     1
290
     0
176
     1
 40
1.0
176
     1
 40
1.0
176
     1
  0
VISUALSTYLE
  5
2F80B
102
{ACAD_REACTORS
330
2F7FF
102
}
330
2F7FF
100
AcDbVisualStyle
  2
Brighten
 70
    12
177
     3
291
     1
 70
    58
 90
        2
176
     1
 90
        2
176
     1
 90
        0
176
     1
 90
        0
176
     1
 40
0.6
176
     1
 40
30.0
176
     1
 62
     7
420
 16777215
176
     1
 90
        1
176
     1
 90
        4
176
     1
 62
     7
176
     1
 62
   257
176
     1
 90
        1
176
     1
 90
        1
176
     1
 40
1.0
176
     1
 90
        8
176
     1
 62
     7
176
     1
 40
1.0
176
     1
 90
        1
176
     1
 90
        6
176
     1
 90
        2
176
     1
 62
     7
176
     1
 90
        5
176
     1
 90
        0
176
     1
 90
        0
176
     1
290
     0
176
     1
 90
        1
176
     1
 40
50.0
176
     1
 90
        0
176
     1
290
     0
176
     1
290
     1
176
     1
290
     1
176
     1
290
     0
176
     1
290
     0
176
     1
290
     0
176
     1
290
     0
176
     1
290
     0
176
     1
290
     0
176
     1
 90
       50
176
     1
 40
0.0
176
     1
 40
1.0
176
     1
 90
        0
176
     1
 62
    18
420
        0
176
     1
 90
       50
176
     1
 90
        3
176
     1
 62
     5
420
      255
176
     1
290
     0
176
     1
 90
       50
176
     1
 90
       50
176
     1
 90
       50
176
     1
290
     0
176
     1
 90
       50
176
     1
 62
   256
176
     0
 40
1.0
176
     0
 90
        2
176
     1
  1
strokes_ogs.tif
176
     1
290
     0
176
     1
 40
1.0
176
     1
 40
1.0
176
     1
  0
VISUALSTYLE
  5
2F80F
102
{ACAD_REACTORS
330
2F7FF
102
}
330
2F7FF
100
AcDbVisualStyle
  2
ColorChange
 70
    16
177
     3
291
     1
 70
    58
 90
        2
176
     1
 90
        2
176
     1
 90
        3
176
     1
 90
        0
176
     1
 40
0.6
176
     1
 40
30.0
176
     1
 62
     8
420
  8421504
176
     1
 90
        1
176
     1
 90
        4
176
     1
 62
     7
176
     1
 62
   257
176
     1
 90
        1
176
     1
 90
        1
176
     1
 40
1.0
176
     1
 90
        8
176
     1
 62
     8
420
  8421504
176
     1
 40
1.0
176
     1
 90
        1
176
     1
 90
        6
176
     1
 90
        2
176
     1
 62
     7
176
     1
 90
        5
176
     1
 90
        0
176
     1
 90
        0
176
     1
290
     0
176
     1
 90
        1
176
     1
 40
0.0
176
     1
 90
        0
176
     1
290
     0
176
     1
290
     1
176
     1
290
     1
176
     1
290
     0
176
     1
290
     0
176
     1
290
     0
176
     1
290
     0
176
     1
290
     0
176
     1
290
     0
176
     1
 90
       50
176
     1
 40
0.0
176
     1
 40
1.0
176
     1
 90
        0
176
     1
 62
    18
420
        0
176
     1
 90
       50
176
     1
 90
        3
176
     1
 62
     5
420
      255
176
     1
290
     0
176
     1
 90
       50
176
     1
 90
       50
176
     1
 90
       50
176
     1
290
     0
176
     1
 90
       50
176
     1
 62
   256
176
     0
 40
1.0
176
     0
 90
        2
176
     1
  1
strokes_ogs.tif
176
     1
290
     0
176
     1
 40
1.0
176
     1
 40
1.0
176
     1
  0
VISUALSTYLE
  5
2F808
102
{ACAD_REACTORS
330
2F7FF
102
}
330
2F7FF
100
AcDbVisualStyle
  2
Conceptual
 70
     9
177
     3
291
     0
 70
    58
 90
        3
176
     1
 90
        2
176
     1
 90
        0
176
     1
 90
        0
176
     1
 40
0.6
176
     1
 40
30.0
176
     1
 62
     7
420
 16777215
176
     1
 90
        2
176
     1
 90
        2
176
     1
 62
     7
176
     1
 62
   257
176
     1
 90
        1
176
     1
 90
        1
176
     1
 40
179.0
176
     1
 90
        8
176
     1
 62
     7
176
     1
 40
1.0
176
     1
 90
        1
176
     1
 90
        6
176
     1
 90
        2
176
     1
 62
     7
176
     1
 90
        3
176
     1
 90
        0
176
     1
 90
        0
176
     1
290
     0
176
     1
 90
        1
176
     1
 40
0.0
176
     1
 90
        0
176
     1
290
     0
176
     1
290
     1
176
     1
290
     1
176
     1
290
     0
176
     1
290
     0
176
     1
290
     0
176
     1
290
     0
176
     1
290
     0
176
     1
290
     0
176
     1
 90
       50
176
     1
 40
0.0
176
     1
 40
1.0
176
     1
 90
        0
176
     1
 62
    18
420
        0
176
     1
 90
       50
176
     1
 90
        3
176
     1
 62
     5
420
      255
176
     1
290
     0
176
     1
 90
       50
176
     1
 90
       50
176
     1
 90
       50
176
     1
290
     0
176
     1
 90
       50
176
     1
 62
   256
176
     0
 40
1.0
176
     0
 90
        2
176
     1
  1
strokes_ogs.tif
176
     1
290
     0
176
     1
 40
1.0
176
     1
 40
1.0
176
     1
  0
VISUALSTYLE
  5
2F80A
102
{ACAD_REACTORS
330
2F7FF
102
}
330
2F7FF
100
AcDbVisualStyle
  2
Dim
 70
    11
177
     3
291
     1
 70
    58
 90
        2
176
     1
 90
        2
176
     1
 90
        0
176
     1
 90
        0
176
     1
 40
0.6
176
     1
 40
30.0
176
     1
 62
     7
420
 16777215
176
     1
 90
        1
176
     1
 90
        4
176
     1
 62
     7
176
     1
 62
   257
176
     1
 90
        1
176
     1
 90
        1
176
     1
 40
1.0
176
     1
 90
        8
176
     1
 62
     7
176
     1
 40
1.0
176
     1
 90
        1
176
     1
 90
        6
176
     1
 90
        2
176
     1
 62
     7
176
     1
 90
        5
176
     1
 90
        0
176
     1
 90
        0
176
     1
290
     0
176
     1
 90
        1
176
     1
 40
-50.0
176
     1
 90
        0
176
     1
290
     0
176
     1
290
     1
176
     1
290
     1
176
     1
290
     0
176
     1
290
     0
176
     1
290
     0
176
     1
290
     0
176
     1
290
     0
176
     1
290
     0
176
     1
 90
       50
176
     1
 40
0.0
176
     1
 40
1.0
176
     1
 90
        0
176
     1
 62
    18
420
        0
176
     1
 90
       50
176
     1
 90
        3
176
     1
 62
     5
420
      255
176
     1
290
     0
176
     1
 90
       50
176
     1
 90
       50
176
     1
 90
       50
176
     1
290
     0
176
     1
 90
       50
176
     1
 62
   256
176
     0
 40
1.0
176
     0
 90
        2
176
     1
  1
strokes_ogs.tif
176
     1
290
     0
176
     1
 40
1.0
176
     1
 40
1.0
176
     1
  0
VISUALSTYLE
  5
2F817
102
{ACAD_REACTORS
330
2F7FF
102
}
330
2F7FF
100
AcDbVisualStyle
  2
EdgeColorOff
 70
    22
177
     3
291
     1
 70
    58
 90
        2
176
     0
 90
        2
176
     0
 90
        0
176
     0
 90
        0
176
     0
 40
0.6
176
     0
 40
30.0
176
     0
 62
     7
420
 16777215
176
     0
 90
        1
176
     0
 90
        4
176
     0
 62
     7
176
     0
 62
   257
176
     0
 90
        1
176
     0
 90
        1
176
     0
 40
1.0
176
     0
 90
        8
176
     2
 62
     7
176
     0
 40
1.0
176
     0
 90
        1
176
     0
 90
        6
176
     0
 90
        2
176
     0
 62
     7
176
     0
 90
        5
176
     0
 90
        0
176
     0
 90
        0
176
     0
290
     0
176
     0
 90
        1
176
     0
 40
0.0
176
     0
 90
        0
176
     0
290
     0
176
     0
290
     1
176
     0
290
     1
176
     0
290
     0
176
     0
290
     0
176
     0
290
     0
176
     0
290
     0
176
     0
290
     0
176
     0
290
     0
176
     0
 90
       50
176
     0
 40
0.0
176
     0
 40
1.0
176
     0
 90
        0
176
     0
 62
    18
420
        0
176
     0
 90
       50
176
     0
 90
        3
176
     0
 62
     5
420
      255
176
     0
290
     0
176
     0
 90
       50
176
     0
 90
       50
176
     0
 90
       50
176
     0
290
     0
176
     0
 90
       50
176
     0
 62
   256
176
     0
 40
1.0
176
     0
 90
        2
176
     0
  1
strokes_ogs.tif
176
     0
290
     0
176
     0
 40
1.0
176
     0
 40
1.0
176
     0
  0
VISUALSTYLE
  5
2F80E
102
{ACAD_REACTORS
330
2F7FF
102
}
330
2F7FF
100
AcDbVisualStyle
  2
Facepattern
 70
    15
177
     3
291
     1
 70
    58
 90
        2
176
     1
 90
        2
176
     1
 90
        0
176
     1
 90
        0
176
     1
 40
0.6
176
     1
 40
30.0
176
     1
 62
     7
420
 16777215
176
     1
 90
        1
176
     1
 90
        4
176
     1
 62
     7
176
     1
 62
   257
176
     1
 90
        1
176
     1
 90
        1
176
     1
 40
1.0
176
     1
 90
        8
176
     1
 62
     7
176
     1
 40
1.0
176
     1
 90
        1
176
     1
 90
        6
176
     1
 90
        2
176
     1
 62
     7
176
     1
 90
        5
176
     1
 90
        0
176
     1
 90
        0
176
     1
290
     0
176
     1
 90
        1
176
     1
 40
0.0
176
     1
 90
        0
176
     1
290
     0
176
     1
290
     1
176
     1
290
     1
176
     1
290
     0
176
     1
290
     0
176
     1
290
     0
176
     1
290
     0
176
     1
290
     0
176
     1
290
     0
176
     1
 90
       50
176
     1
 40
0.0
176
     1
 40
1.0
176
     1
 90
        0
176
     1
 62
    18
420
        0
176
     1
 90
       50
176
     1
 90
        3
176
     1
 62
     5
420
      255
176
     1
290
     0
176
     1
 90
       50
176
     1
 90
       50
176
     1
 90
       50
176
     1
290
     0
176
     1
 90
       50
176
     1
 62
   256
176
     0
 40
1.0
176
     0
 90
        2
176
     1
  1
strokes_ogs.tif
176
     1
290
     0
176
     1
 40
1.0
176
     1
 40
1.0
176
     1
  0
VISUALSTYLE
  5
2F800
102
{ACAD_REACTORS
330
2F7FF
102
}
330
2F7FF
100
AcDbVisualStyle
  2
Flat
 70
     0
177
     3
291
     1
 70
    58
 90
        2
176
     1
 90
        1
176
     1
 90
        1
176
     1
 90
        2
176
     1
 40
0.6
176
     1
 40
30.0
176
     1
 62
     7
420
 16777215
176
     1
 90
        0
176
     1
 90
        0
176
     1
 62
     7
176
     1
 62
   257
176
     1
 90
        1
176
     1
 90
        1
176
     1
 40
1.0
176
     1
 90
        8
176
     1
 62
     7
176
     1
 40
1.0
176
     1
 90
        1
176
     1
 90
        6
176
     1
 90
        2
176
     1
 62
     7
176
     1
 90
        5
176
     1
 90
        0
176
     1
 90
        0
176
     1
290
     0
176
     1
 90
       13
176
     1
 40
0.0
176
     1
 90
        0
176
     1
290
     0
176
     1
290
     1
176
     1
290
     1
176
     1
290
     0
176
     1
290
     0
176
     1
290
     0
176
     1
290
     0
176
     1
290
     0
176
     1
290
     0
176
     1
 90
       50
176
     1
 40
0.0
176
     1
 40
1.0
176
     1
 90
        0
176
     1
 62
    18
420
        0
176
     1
 90
       50
176
     1
 90
        3
176
     1
 62
     5
420
      255
176
     1
290
     0
176
     1
 90
       50
176
     1
 90
       50
176
     1
 90
       50
176
     1
290
     0
176
     1
 90
       50
176
     1
 62
   256
176
     0
 40
1.0
176
     0
 90
        2
176
     1
  1
strokes_ogs.tif
176
     1
290
     0
176
     1
 40
1.0
176
     1
 40
1.0
176
     1
  0
VISUALSTYLE
  5
2F801
102
{ACAD_REACTORS
330
2F7FF
102
}
330
2F7FF
100
AcDbVisualStyle
  2
FlatWithEdges
 70
     1
177
     3
291
     1
 70
    58
 90
        2
176
     1
 90
        1
176
     1
 90
        1
176
     1
 90
        2
176
     1
 40
0.6
176
     1
 40
30.0
176
     1
 62
     7
420
 16777215
176
     1
 90
        1
176
     1
 90
        0
176
     1
 62
     7
176
     1
 62
   257
176
     1
 90
        1
176
     1
 90
        1
176
     1
 40
1.0
176
     1
 90
        0
176
     1
 62
   257
176
     1
 40
1.0
176
     1
 90
        1
176
     1
 90
        6
176
     1
 90
        2
176
     1
 62
     7
176
     1
 90
        5
176
     1
 90
        0
176
     1
 90
        0
176
     1
290
     0
176
     1
 90
       13
176
     1
 40
0.0
176
     1
 90
        0
176
     1
290
     0
176
     1
290
     1
176
     1
290
     1
176
     1
290
     0
176
     1
290
     0
176
     1
290
     0
176
     1
290
     0
176
     1
290
     0
176
     1
290
     0
176
     1
 90
       50
176
     1
 40
0.0
176
     1
 40
1.0
176
     1
 90
        0
176
     1
 62
    18
420
        0
176
     1
 90
       50
176
     1
 90
        3
176
     1
 62
     5
420
      255
176
     1
290
     0
176
     1
 90
       50
176
     1
 90
       50
176
     1
 90
       50
176
     1
290
     0
176
     1
 90
       50
176
     1
 62
   256
176
     0
 40
1.0
176
     0
 90
        2
176
     1
  1
strokes_ogs.tif
176
     1
290
     0
176
     1
 40
1.0
176
     1
 40
1.0
176
     1
  0
VISUALSTYLE
  5
2F802
102
{ACAD_REACTORS
330
2F7FF
102
}
330
2F7FF
100
AcDbVisualStyle
  2
Gouraud
 70
     2
177
     3
291
     1
 70
    58
 90
        2
176
     1
 90
        2
176
     1
 90
        1
176
     1
 90
        2
176
     1
 40
0.6
176
     1
 40
30.0
176
     1
 62
     7
420
 16777215
176
     1
 90
        0
176
     1
 90
        0
176
     1
 62
     7
176
     1
 62
   257
176
     1
 90
        1
176
     1
 90
        1
176
     1
 40
1.0
176
     1
 90
        0
176
     1
 62
     7
176
     1
 40
1.0
176
     1
 90
        1
176
     1
 90
        6
176
     1
 90
        2
176
     1
 62
     7
176
     1
 90
        5
176
     1
 90
        0
176
     1
 90
        0
176
     1
290
     0
176
     1
 90
       13
176
     1
 40
0.0
176
     1
 90
        0
176
     1
290
     0
176
     1
290
     1
176
     1
290
     1
176
     1
290
     0
176
     1
290
     0
176
     1
290
     0
176
     1
290
     0
176
     1
290
     0
176
     1
290
     0
176
     1
 90
       50
176
     1
 40
0.0
176
     1
 40
1.0
176
     1
 90
        0
176
     1
 62
    18
420
        0
176
     1
 90
       50
176
     1
 90
        3
176
     1
 62
     5
420
      255
176
     1
290
     0
176
     1
 90
       50
176
     1
 90
       50
176
     1
 90
       50
176
     1
290
     0
176
     1
 90
       50
176
     1
 62
   256
176
     0
 40
1.0
176
     0
 90
        2
176
     1
  1
strokes_ogs.tif
176
     1
290
     0
176
     1
 40
1.0
176
     1
 40
1.0
176
     1
  0
VISUALSTYLE
  5
2F803
102
{ACAD_REACTORS
330
2F7FF
102
}
330
2F7FF
100
AcDbVisualStyle
  2
GouraudWithEdges
 70
     3
177
     3
291
     1
 70
    58
 90
        2
176
     1
 90
        2
176
     1
 90
        1
176
     1
 90
        2
176
     1
 40
0.6
176
     1
 40
30.0
176
     1
 62
     7
420
 16777215
176
     1
 90
        1
176
     1
 90
        0
176
     1
 62
     7
176
     1
 62
   257
176
     1
 90
        1
176
     1
 90
        1
176
     1
 40
1.0
176
     1
 90
        0
176
     1
 62
   257
176
     1
 40
1.0
176
     1
 90
        1
176
     1
 90
        6
176
     1
 90
        2
176
     1
 62
     7
176
     1
 90
        5
176
     1
 90
        0
176
     1
 90
        0
176
     1
290
     0
176
     1
 90
       13
176
     1
 40
0.0
176
     1
 90
        0
176
     1
290
     0
176
     1
290
     1
176
     1
290
     1
176
     1
290
     0
176
     1
290
     0
176
     1
290
     0
176
     1
290
     0
176
     1
290
     0
176
     1
290
     0
176
     1
 90
       50
176
     1
 40
0.0
176
     1
 40
1.0
176
     1
 90
        0
176
     1
 62
    18
420
        0
176
     1
 90
       50
176
     1
 90
        3
176
     1
 62
     5
420
      255
176
     1
290
     0
176
     1
 90
       50
176
     1
 90
       50
176
     1
 90
       50
176
     1
290
     0
176
     1
 90
       50
176
     1
 62
   256
176
     0
 40
1.0
176
     0
 90
        2
176
     1
  1
strokes_ogs.tif
176
     1
290
     0
176
     1
 40
1.0
176
     1
 40
1.0
176
     1
  0
VISUALSTYLE
  5
2F807
102
{ACAD_REACTORS
330
2F7FF
102
}
330
2F7FF
100
AcDbVisualStyle
  2
Hidden
 70
     6
177
     3
291
     0
 70
    58
 90
        1
176
     1
 90
        2
176
     1
 90
        2
176
     1
 90
        0
176
     1
 40
0.6
176
     1
 40
30.0
176
     1
 62
     7
420
 16777215
176
     1
 90
        2
176
     1
 90
        2
176
     1
 62
     7
176
     1
 62
   257
176
     1
 90
        2
176
     1
 90
        1
176
     1
 40
40.0
176
     1
 90
        0
176
     1
 62
   257
176
     1
 40
1.0
176
     1
 90
        1
176
     1
 90
        6
176
     1
 90
        2
176
     1
 62
     7
176
     1
 90
        3
176
     1
 90
        0
176
     1
 90
        0
176
     1
290
     0
176
     1
 90
        1
176
     1
 40
0.0
176
     1
 90
        0
176
     1
290
     0
176
     1
290
     1
176
     1
290
     1
176
     1
290
     0
176
     1
290
     0
176
     1
290
     0
176
     1
290
     0
176
     1
290
     0
176
     1
290
     0
176
     1
 90
       50
176
     1
 40
0.0
176
     1
 40
1.0
176
     1
 90
        0
176
     1
 62
    18
420
        0
176
     1
 90
       50
176
     1
 90
        3
176
     1
 62
     5
420
      255
176
     1
290
     0
176
     1
 90
       50
176
     1
 90
       50
176
     1
 90
       50
176
     1
290
     0
176
     1
 90
       50
176
     1
 62
   256
176
     0
 40
1.0
176
     0
 90
        2
176
     1
  1
strokes_ogs.tif
176
     1
290
     0
176
     1
 40
1.0
176
     1
 40
1.0
176
     1
  0
VISUALSTYLE
  5
2F815
102
{ACAD_REACTORS
330
2F7FF
102
}
330
2F7FF
100
AcDbVisualStyle
  2
JitterOff
 70
    20
177
     3
291
     1
 70
    58
 90
        2
176
     0
 90
        2
176
     0
 90
        0
176
     0
 90
        0
176
     0
 40
0.6
176
     0
 40
30.0
176
     0
 62
     7
420
 16777215
176
     0
 90
        1
176
     0
 90
        4
176
     0
 62
     7
176
     0
 62
   257
176
     0
 90
        1
176
     0
 90
        1
176
     0
 40
1.0
176
     0
 90
       10
176
     2
 62
     7
176
     0
 40
1.0
176
     0
 90
        1
176
     0
 90
        6
176
     0
 90
        2
176
     0
 62
     7
176
     0
 90
        5
176
     0
 90
        0
176
     0
 90
        0
176
     0
290
     0
176
     0
 90
        1
176
     0
 40
0.0
176
     0
 90
        0
176
     0
290
     0
176
     0
290
     1
176
     0
290
     1
176
     0
290
     0
176
     0
290
     0
176
     0
290
     0
176
     0
290
     0
176
     0
290
     0
176
     0
290
     0
176
     0
 90
       50
176
     0
 40
0.0
176
     0
 40
1.0
176
     0
 90
        0
176
     0
 62
    18
420
        0
176
     0
 90
       50
176
     0
 90
        3
176
     0
 62
     5
420
      255
176
     0
290
     0
176
     0
 90
       50
176
     0
 90
       50
176
     0
 90
       50
176
     0
290
     0
176
     0
 90
       50
176
     0
 62
   256
176
     0
 40
1.0
176
     0
 90
        2
176
     0
  1
strokes_ogs.tif
176
     0
290
     0
176
     0
 40
1.0
176
     0
 40
1.0
176
     0
  0
VISUALSTYLE
  5
2F80D
102
{ACAD_REACTORS
330
2F7FF
102
}
330
2F7FF
100
AcDbVisualStyle
  2
Linepattern
 70
    14
177
     3
291
     1
 70
    58
 90
        2
176
     1
 90
        2
176
     1
 90
        0
176
     1
 90
        0
176
     1
 40
0.6
176
     1
 40
30.0
176
     1
 62
     7
420
 16777215
176
     1
 90
        1
176
     1
 90
        4
176
     1
 62
     7
176
     1
 62
   257
176
     1
 90
        7
176
     1
 90
        7
176
     1
 40
1.0
176
     1
 90
        8
176
     1
 62
     7
176
     1
 40
1.0
176
     1
 90
        1
176
     1
 90
        6
176
     1
 90
        2
176
     1
 62
     7
176
     1
 90
        5
176
     1
 90
        0
176
     1
 90
        0
176
     1
290
     0
176
     1
 90
        1
176
     1
 40
0.0
176
     1
 90
        0
176
     1
290
     0
176
     1
290
     1
176
     1
290
     1
176
     1
290
     0
176
     1
290
     0
176
     1
290
     0
176
     1
290
     0
176
     1
290
     0
176
     1
290
     0
176
     1
 90
       50
176
     1
 40
0.0
176
     1
 40
1.0
176
     1
 90
        0
176
     1
 62
    18
420
        0
176
     1
 90
       50
176
     1
 90
        3
176
     1
 62
     5
420
      255
176
     1
290
     0
176
     1
 90
       50
176
     1
 90
       50
176
     1
 90
       50
176
     1
290
     0
176
     1
 90
       50
176
     1
 62
   256
176
     0
 40
1.0
176
     0
 90
        2
176
     1
  1
strokes_ogs.tif
176
     1
290
     0
176
     1
 40
1.0
176
     1
 40
1.0
176
     1
  0
VISUALSTYLE
  5
2F816
102
{ACAD_REACTORS
330
2F7FF
102
}
330
2F7FF
100
AcDbVisualStyle
  2
OverhangOff
 70
    21
177
     3
291
     1
 70
    58
 90
        2
176
     0
 90
        2
176
     0
 90
        0
176
     0
 90
        0
176
     0
 40
0.6
176
     0
 40
30.0
176
     0
 62
     7
420
 16777215
176
     0
 90
        1
176
     0
 90
        4
176
     0
 62
     7
176
     0
 62
   257
176
     0
 90
        1
176
     0
 90
        1
176
     0
 40
1.0
176
     0
 90
        9
176
     2
 62
     7
176
     0
 40
1.0
176
     0
 90
        1
176
     0
 90
        6
176
     0
 90
        2
176
     0
 62
     7
176
     0
 90
        5
176
     0
 90
        0
176
     0
 90
        0
176
     0
290
     0
176
     0
 90
        1
176
     0
 40
0.0
176
     0
 90
        0
176
     0
290
     0
176
     0
290
     1
176
     0
290
     1
176
     0
290
     0
176
     0
290
     0
176
     0
290
     0
176
     0
290
     0
176
     0
290
     0
176
     0
290
     0
176
     0
 90
       50
176
     0
 40
0.0
176
     0
 40
1.0
176
     0
 90
        0
176
     0
 62
    18
420
        0
176
     0
 90
       50
176
     0
 90
        3
176
     0
 62
     5
420
      255
176
     0
290
     0
176
     0
 90
       50
176
     0
 90
       50
176
     0
 90
       50
176
     0
290
     0
176
     0
 90
       50
176
     0
 62
   256
176
     0
 40
1.0
176
     0
 90
        2
176
     0
  1
strokes_ogs.tif
176
     0
290
     0
176
     0
 40
1.0
176
     0
 40
1.0
176
     0
  0
VISUALSTYLE
  5
2F809
102
{ACAD_REACTORS
330
2F7FF
102
}
330
2F7FF
100
AcDbVisualStyle
  2
Realistic
 70
     8
177
     3
291
     0
 70
    58
 90
        2
176
     1
 90
        3
176
     1
 90
        0
176
     1
 90
        2
176
     1
 40
0.6
176
     1
 40
30.0
176
     1
 62
     7
420
 16777215
176
     1
 90
        0
176
     1
 90
        0
176
     1
 62
     7
176
     1
 62
   257
176
     1
 90
        1
176
     1
 90
        1
176
     1
 40
1.0
176
     1
 90
        8
176
     1
 62
   257
176
     1
 40
1.0
176
     1
 90
        1
176
     1
 90
        6
176
     1
 90
        2
176
     1
 62
     7
176
     1
 90
        3
176
     1
 90
        0
176
     1
 90
        0
176
     1
290
     0
176
     1
 90
       13
176
     1
 40
0.0
176
     1
 90
        0
176
     1
290
     0
176
     1
290
     1
176
     1
290
     1
176
     1
290
     0
176
     1
290
     0
176
     1
290
     0
176
     1
290
     0
176
     1
290
     0
176
     1
290
     0
176
     1
 90
       50
176
     1
 40
0.0
176
     1
 40
1.0
176
     1
 90
        0
176
     1
 62
    18
420
        0
176
     1
 90
       50
176
     1
 90
        3
176
     1
 62
     5
420
      255
176
     1
290
     0
176
     1
 90
       50
176
     1
 90
       50
176
     1
 90
       50
176
     1
290
     0
176
     1
 90
       50
176
     1
 62
   256
176
     0
 40
1.0
176
     0
 90
        2
176
     1
  1
strokes_ogs.tif
176
     1
290
     0
176
     1
 40
1.0
176
     1
 40
1.0
176
     1
  0
VISUALSTYLE
  5
2F814
102
{ACAD_REACTORS
330
2F7FF
102
}
330
2F7FF
100
AcDbVisualStyle
  2
Shaded
 70
    27
177
     3
291
     0
 70
    58
 90
        2
176
     1
 90
        2
176
     1
 90
        1
176
     1
 90
        2
176
     1
 40
0.6
176
     1
 40
30.0
176
     1
 62
     7
420
 16777215
176
     1
 90
        0
176
     1
 90
        4
176
     1
 62
     7
176
     1
 62
   257
176
     1
 90
        1
176
     1
 90
        1
176
     1
 40
1.0
176
     1
 90
        8
176
     1
 62
   257
176
     1
 40
1.0
176
     1
 90
        1
176
     1
 90
        6
176
     1
 90
        2
176
     1
 62
     8
420
  7895160
176
     1
 90
        3
176
     1
 90
        0
176
     1
 90
        0
176
     1
290
     0
176
     1
 90
        5
176
     1
 40
0.0
176
     1
 90
        0
176
     1
290
     0
176
     1
290
     1
176
     1
290
     1
176
     1
290
     0
176
     1
290
     0
176
     1
290
     0
176
     1
290
     0
176
     1
290
     0
176
     1
290
     0
176
     1
 90
       50
176
     1
 40
0.0
176
     1
 40
1.0
176
     1
 90
        0
176
     1
 62
    18
420
        0
176
     1
 90
       50
176
     1
 90
        3
176
     1
 62
     5
420
      255
176
     1
290
     0
176
     1
 90
       50
176
     1
 90
       50
176
     1
 90
       50
176
     1
290
     0
176
     1
 90
       50
176
     1
 62
   256
176
     0
 40
1.0
176
     0
 90
        2
176
     1
  1
strokes_ogs.tif
176
     1
290
     0
176
     1
 40
1.0
176
     1
 40
1.0
176
     1
  0
VISUALSTYLE
  5
2F813
102
{ACAD_REACTORS
330
2F7FF
102
}
330
2F7FF
100
AcDbVisualStyle
  2
Shaded with edges
 70
    26
177
     3
291
     0
 70
    58
 90
        2
176
     1
 90
        2
176
     1
 90
        1
176
     1
 90
        2
176
     1
 40
0.6
176
     1
 40
30.0
176
     1
 62
     7
420
 16777215
176
     1
 90
        1
176
     1
 90
       10
176
     1
 62
     7
176
     1
 62
   257
176
     1
 90
        2
176
     1
 90
        1
176
     1
 40
1.0
176
     1
 90
        8
176
     1
 62
   257
176
     1
 40
1.0
176
     1
 90
        1
176
     1
 90
        6
176
     1
 90
        2
176
     1
 62
     7
176
     1
 90
        3
176
     1
 90
        0
176
     1
 90
        0
176
     1
290
     0
176
     1
 90
        5
176
     1
 40
0.0
176
     1
 90
        0
176
     1
290
     0
176
     1
290
     1
176
     1
290
     1
176
     1
290
     0
176
     1
290
     0
176
     1
290
     0
176
     1
290
     0
176
     1
290
     0
176
     1
290
     0
176
     1
 90
       50
176
     1
 40
0.0
176
     1
 40
1.0
176
     1
 90
        0
176
     1
 62
    18
420
        0
176
     1
 90
       50
176
     1
 90
        3
176
     1
 62
     5
420
      255
176
     1
290
     0
176
     1
 90
       50
176
     1
 90
       50
176
     1
 90
       50
176
     1
290
     0
176
     1
 90
       50
176
     1
 62
   256
176
     0
 40
1.0
176
     0
 90
        2
176
     1
  1
strokes_ogs.tif
176
     1
290
     0
176
     1
 40
1.0
176
     1
 40
1.0
176
     1
  0
VISUALSTYLE
  5
2F810
102
{ACAD_REACTORS
330
2F7FF
102
}
330
2F7FF
100
AcDbVisualStyle
  2
Shades of Gray
 70
    23
177
     3
291
     0
 70
    58
 90
        2
176
     1
 90
        2
176
     1
 90
        3
176
     1
 90
        0
176
     1
 40
0.6
176
     1
 40
30.0
176
     1
 62
     7
420
 16777215
176
     1
 90
        2
176
     1
 90
        2
176
     1
 62
     7
176
     1
 62
     7
176
     1
 90
        1
176
     1
 90
        1
176
     1
 40
40.0
176
     1
 90
        8
176
     1
 62
     7
176
     1
 40
1.0
176
     1
 90
        1
176
     1
 90
        6
176
     1
 90
        2
176
     1
 62
     7
176
     1
 90
        3
176
     1
 90
        0
176
     1
 90
        0
176
     1
290
     0
176
     1
 90
        1
176
     1
 40
0.0
176
     1
 90
        0
176
     1
290
     0
176
     1
290
     1
176
     1
290
     1
176
     1
290
     0
176
     1
290
     0
176
     1
290
     0
176
     1
290
     0
176
     1
290
     0
176
     1
290
     0
176
     1
 90
       50
176
     1
 40
0.0
176
     1
 40
1.0
176
     1
 90
        0
176
     1
 62
    18
420
        0
176
     1
 90
       50
176
     1
 90
        3
176
     1
 62
     5
420
      255
176
     1
290
     0
176
     1
 90
       50
176
     1
 90
       50
176
     1
 90
       50
176
     1
290
     0
176
     1
 90
       50
176
     1
 62
   256
176
     0
 40
1.0
176
     0
 90
        2
176
     1
  1
strokes_ogs.tif
176
     1
290
     0
176
     1
 40
1.0
176
     1
 40
1.0
176
     1
  0
VISUALSTYLE
  5
2F811
102
{ACAD_REACTORS
330
2F7FF
102
}
330
2F7FF
100
AcDbVisualStyle
  2
Sketchy
 70
    24
177
     3
291
     0
 70
    58
 90
        1
176
     1
 90
        2
176
     1
 90
        2
176
     1
 90
        0
176
     1
 40
0.6
176
     1
 40
30.0
176
     1
 62
     7
420
 16777215
176
     1
 90
        2
176
     1
 90
        2
176
     1
 62
     7
176
     1
 62
     7
176
     1
 90
        1
176
     1
 90
        1
176
     1
 40
40.0
176
     1
 90
       11
176
     1
 62
     7
176
     1
 40
1.0
176
     1
 90
        1
176
     1
 90
        6
176
     1
 90
        2
176
     1
 62
     7
176
     1
 90
        6
176
     1
 90
        0
176
     1
 90
        0
176
     1
290
     0
176
     1
 90
        1
176
     1
 40
0.0
176
     1
 90
        0
176
     1
290
     0
176
     1
290
     1
176
     1
290
     1
176
     1
290
     0
176
     1
290
     0
176
     1
290
     0
176
     1
290
     0
176
     1
290
     0
176
     1
290
     0
176
     1
 90
       50
176
     1
 40
0.0
176
     1
 40
1.0
176
     1
 90
        0
176
     1
 62
    18
420
        0
176
     1
 90
       50
176
     1
 90
        3
176
     1
 62
     5
420
      255
176
     1
290
     0
176
     1
 90
       50
176
     1
 90
       50
176
     1
 90
       50
176
     1
290
     0
176
     1
 90
       50
176
     1
 62
   256
176
     0
 40
1.0
176
     0
 90
        2
176
     1
  1
strokes_ogs.tif
176
     1
290
     0
176
     1
 40
1.0
176
     1
 40
1.0
176
     1
  0
VISUALSTYLE
  5
2F80C
102
{ACAD_REACTORS
330
2F7FF
102
}
330
2F7FF
100
AcDbVisualStyle
  2
Thicken
 70
    13
177
     3
291
     1
 70
    58
 90
        2
176
     1
 90
        2
176
     1
 90
        0
176
     1
 90
        0
176
     1
 40
0.6
176
     1
 40
30.0
176
     1
 62
     7
420
 16777215
176
     1
 90
        1
176
     1
 90
        4
176
     1
 62
     7
176
     1
 62
   257
176
     1
 90
        1
176
     1
 90
        1
176
     1
 40
1.0
176
     1
 90
       12
176
     1
 62
     7
176
     1
 40
1.0
176
     1
 90
        1
176
     1
 90
        6
176
     1
 90
        2
176
     1
 62
     7
176
     1
 90
        5
176
     1
 90
        0
176
     1
 90
        0
176
     1
290
     0
176
     1
 90
        1
176
     1
 40
0.0
176
     1
 90
        0
176
     1
290
     0
176
     1
290
     1
176
     1
290
     1
176
     1
290
     0
176
     1
290
     0
176
     1
290
     0
176
     1
290
     0
176
     1
290
     0
176
     1
290
     0
176
     1
 90
       50
176
     1
 40
0.0
176
     1
 40
1.0
176
     1
 90
        0
176
     1
 62
    18
420
        0
176
     1
 90
       50
176
     1
 90
        3
176
     1
 62
     5
420
      255
176
     1
290
     0
176
     1
 90
       50
176
     1
 90
       50
176
     1
 90
       50
176
     1
290
     0
176
     1
 90
       50
176
     1
 62
   256
176
     0
 40
1.0
176
     0
 90
        2
176
     1
  1
strokes_ogs.tif
176
     1
290
     0
176
     1
 40
1.0
176
     1
 40
1.0
176
     1
  0
VISUALSTYLE
  5
2F806
102
{ACAD_REACTORS
330
2F7FF
102
}
330
2F7FF
100
AcDbVisualStyle
  2
Wireframe
 70
     5
177
     3
291
     0
 70
    58
 90
        0
176
     1
 90
        2
176
     1
 90
        0
176
     1
 90
        0
176
     1
 40
0.6
176
     1
 40
30.0
176
     1
 62
     7
420
 16777215
176
     1
 90
        1
176
     1
 90
        4
176
     1
 62
     7
176
     1
 62
   257
176
     1
 90
        1
176
     1
 90
        1
176
     1
 40
1.0
176
     1
 90
        0
176
     1
 62
   257
176
     1
 40
1.0
176
     1
 90
        1
176
     1
 90
        6
176
     1
 90
        2
176
     1
 62
     7
176
     1
 90
        3
176
     1
 90
        0
176
     1
 90
        0
176
     1
290
     0
176
     1
 90
        1
176
     1
 40
0.0
176
     1
 90
        0
176
     1
290
     0
176
     1
290
     1
176
     1
290
     1
176
     1
290
     0
176
     1
290
     0
176
     1
290
     0
176
     1
290
     0
176
     1
290
     0
176
     1
290
     0
176
     1
 90
       50
176
     1
 40
0.0
176
     1
 40
1.0
176
     1
 90
        0
176
     1
 62
    18
420
        0
176
     1
 90
       50
176
     1
 90
        3
176
     1
 62
     5
420
      255
176
     1
290
     0
176
     1
 90
       50
176
     1
 90
       50
176
     1
 90
       50
176
     1
290
     0
176
     1
 90
       50
176
     1
 62
   256
176
     0
 40
1.0
176
     0
 90
        2
176
     1
  1
strokes_ogs.tif
176
     1
290
     0
176
     1
 40
1.0
176
     1
 40
1.0
176
     1
  0
VISUALSTYLE
  5
2F812
102
{ACAD_REACTORS
330
2F7FF
102
}
330
2F7FF
100
AcDbVisualStyle
  2
X-Ray
 70
    25
177
     3
291
     0
 70
    58
 90
        2
176
     1
 90
        2
176
     1
 90
        1
176
     1
 90
        1
176
     1
 40
0.5
176
     1
 40
30.0
176
     1
 62
     7
420
 16777215
176
     1
 90
        1
176
     1
 90
        0
176
     1
 62
     7
176
     1
 62
   257
176
     1
 90
        1
176
     1
 90
        1
176
     1
 40
1.0
176
     1
 90
        8
176
     1
 62
     7
176
     1
 40
1.0
176
     1
 90
        1
176
     1
 90
        6
176
     1
 90
        2
176
     1
 62
     7
176
     1
 90
        3
176
     1
 90
        0
176
     1
 90
        0
176
     1
290
     0
176
     1
 90
       13
176
     1
 40
0.0
176
     1
 90
        0
176
     1
290
     0
176
     1
290
     1
176
     1
290
     1
176
     1
290
     0
176
     1
290
     0
176
     1
290
     0
176
     1
290
     0
176
     1
290
     0
176
     1
290
     0
176
     1
 90
       50
176
     1
 40
0.0
176
     1
 40
1.0
176
     1
 90
        0
176
     1
 62
    18
420
        0
176
     1
 90
       50
176
     1
 90
        3
176
     1
 62
     5
420
      255
176
     1
290
     0
176
     1
 90
       50
176
     1
 90
       50
176
     1
 90
       50
176
     1
290
     0
176
     1
 90
       50
176
     1
 62
   256
176
     0
 40
1.0
176
     0
 90
        2
176
     1
  1
strokes_ogs.tif
176
     1
290
     0
176
     1
 40
1.0
176
     1
 40
1.0
176
     1
  0
DICTIONARYVAR
  5
2F86D
102
{ACAD_REACTORS
330
15F3
102
}
330
15F3
100
DictionaryVariables
280
     0
  1
1:1
  0
DICTIONARYVAR
  5
2F869
102
{ACAD_REACTORS
330
15F3
102
}
330
15F3
100
DictionaryVariables
280
     0
  1
STANDARD
  0
DICTIONARYVAR
  5
2F868
102
{ACAD_REACTORS
330
15F3
102
}
330
15F3
100
DictionaryVariables
280
     0
  1
STANDARD
  0
DICTIONARYVAR
  5
2F86A
102
{ACAD_REACTORS
330
15F3
102
}
330
15F3
100
DictionaryVariables
280
     0
  1
Imperial24
  0
DICTIONARYVAR
  5
2F86B
102
{ACAD_REACTORS
330
15F3
102
}
330
15F3
100
DictionaryVariables
280
     0
  1
Imperial24
  0
DICTIONARYVAR
  5
2F86F
102
{ACAD_REACTORS
330
15F3
102
}
330
15F3
100
DictionaryVariables
280
     0
  1
1
  0
DICTIONARYVAR
  5
2F870
102
{ACAD_REACTORS
330
15F3
102
}
330
15F3
100
DictionaryVariables
280
     0
  1
15
  0
DICTIONARYVAR
  5
2F86E
102
{ACAD_REACTORS
330
15F3
102
}
330
15F3
100
DictionaryVariables
280
     0
  1
0
  0
DICTIONARYVAR
  5
2F86C
102
{ACAD_REACTORS
330
15F3
102
}
330
15F3
100
DictionaryVariables
280
     0
  1
0
  0
DICTIONARYVAR
  5
15F4
102
{ACAD_REACTORS
330
15F3
102
}
330
15F3
100
DictionaryVariables
280
     0
  1
96
  0
DICTIONARY
  5
2F865
330
2F832
100
AcDbDictionary
280
     1
281
     1
  3
ACAD_XREC_ROUNDTRIP
360
2FC5F
  0
DICTIONARY
  5
2F7F0
330
2F7EF
100
AcDbDictionary
280
     1
281
     1
  3
BUMPTILE
360
2F7F2
  3
DIFFUSETILE
360
2F7F1
  3
OPACITYTILE
360
2F7F5
  3
REFLECTIONTILE
360
2F7F4
  3
REFRACTIONTILE
360
2F7F6
  3
SPECULARTILE
360
2F7F3
  0
DICTIONARY
  5
2F7E8
330
2F7E7
100
AcDbDictionary
280
     1
281
     1
  3
BUMPTILE
360
2F7EA
  3
DIFFUSETILE
360
2F7E9
  3
OPACITYTILE
360
2F7ED
  3
REFLECTIONTILE
360
2F7EC
  3
REFRACTIONTILE
360
2F7EE
  3
SPECULARTILE
360
2F7EB
  0
DICTIONARY
  5
2F7F8
330
2F7F7
100
AcDbDictionary
280
     1
281
     1
  3
BUMPTILE
360
2F7FA
  3
DIFFUSETILE
360
2F7F9
  3
OPACITYTILE
360
2F7FD
  3
REFLECTIONTILE
360
2F7FC
  3
REFRACTIONTILE
360
2F7FE
  3
SPECULARTILE
360
2F7FB
  0
DICTIONARY
  5
2F863
330
2F830
100
AcDbDictionary
280
     1
281
     1
  3
ACAD_XREC_ROUNDTRIP
360
2FC5E
  0
DICTIONARY
  5
2FC5C
330
2F81A
100
AcDbDictionary
280
     1
281
     1
  3
ACAD_ROUNDTRIP_2008_TABLESTYLE_CELLSTYLEMAP
360
2FC5D
  0
XRECORD
  5
2FC5F
102
{ACAD_REACTORS
330
2F865
102
}
330
2F865
100
AcDbXrecord
280
     1
102
DISPLAYNAME
  1
Imperial24
102
FLAGS
 90
        0
  0
XRECORD
  5
2F7F2
102
{ACAD_REACTORS
330
2F7F0
102
}
330
2F7F0
100
AcDbXrecord
280
     1
270
     1
271
     1
  0
XRECORD
  5
2F7F1
102
{ACAD_REACTORS
330
2F7F0
102
}
330
2F7F0
100
AcDbXrecord
280
     1
270
     1
271
     1
  0
XRECORD
  5
2F7F5
102
{ACAD_REACTORS
330
2F7F0
102
}
330
2F7F0
100
AcDbXrecord
280
     1
270
     1
271
     1
  0
XRECORD
  5
2F7F4
102
{ACAD_REACTORS
330
2F7F0
102
}
330
2F7F0
100
AcDbXrecord
280
     1
270
     1
271
     1
  0
XRECORD
  5
2F7F6
102
{ACAD_REACTORS
330
2F7F0
102
}
330
2F7F0
100
AcDbXrecord
280
     1
270
     1
271
     1
  0
XRECORD
  5
2F7F3
102
{ACAD_REACTORS
330
2F7F0
102
}
330
2F7F0
100
AcDbXrecord
280
     1
270
     1
271
     1
  0
XRECORD
  5
2F7EA
102
{ACAD_REACTORS
330
2F7E8
102
}
330
2F7E8
100
AcDbXrecord
280
     1
270
     1
271
     1
  0
XRECORD
  5
2F7E9
102
{ACAD_REACTORS
330
2F7E8
102
}
330
2F7E8
100
AcDbXrecord
280
     1
270
     1
271
     1
  0
XRECORD
  5
2F7ED
102
{ACAD_REACTORS
330
2F7E8
102
}
330
2F7E8
100
AcDbXrecord
280
     1
270
     1
271
     1
  0
XRECORD
  5
2F7EC
102
{ACAD_REACTORS
330
2F7E8
102
}
330
2F7E8
100
AcDbXrecord
280
     1
270
     1
271
     1
  0
XRECORD
  5
2F7EE
102
{ACAD_REACTORS
330
2F7E8
102
}
330
2F7E8
100
AcDbXrecord
280
     1
270
     1
271
     1
  0
XRECORD
  5
2F7EB
102
{ACAD_REACTORS
330
2F7E8
102
}
330
2F7E8
100
AcDbXrecord
280
     1
270
     1
271
     1
  0
XRECORD
  5
2F7FA
102
{ACAD_REACTORS
330
2F7F8
102
}
330
2F7F8
100
AcDbXrecord
280
     1
270
     1
271
     1
  0
XRECORD
  5
2F7F9
102
{ACAD_REACTORS
330
2F7F8
102
}
330
2F7F8
100
AcDbXrecord
280
     1
270
     1
271
     1
  0
XRECORD
  5
2F7FD
102
{ACAD_REACTORS
330
2F7F8
102
}
330
2F7F8
100
AcDbXrecord
280
     1
270
     1
271
     1
  0
XRECORD
  5
2F7FC
102
{ACAD_REACTORS
330
2F7F8
102
}
330
2F7F8
100
AcDbXrecord
280
     1
270
     1
271
     1
  0
XRECORD
  5
2F7FE
102
{ACAD_REACTORS
330
2F7F8
102
}
330
2F7F8
100
AcDbXrecord
280
     1
270
     1
271
     1
  0
XRECORD
  5
2F7FB
102
{ACAD_REACTORS
330
2F7F8
102
}
330
2F7F8
100
AcDbXrecord
280
     1
270
     1
271
     1
  0
XRECORD
  5
2FC5E
102
{ACAD_REACTORS
330
2F863
102
}
330
2F863
100
AcDbXrecord
280
     1
102
DISPLAYNAME
  1
Imperial24
102
FLAGS
 90
        0
  0
CELLSTYLEMAP
  5
2FC5D
102
{ACAD_REACTORS
330
2FC5C
102
}
330
2FC5C
100
AcDbCellStyleMap
 90
        3
300
CELLSTYLE
  1
TABLEFORMAT_BEGIN
 90
        5
170
     1
 91
        0
 92
    32768
 62
   257
 93
        1
300
CONTENTFORMAT
  1
CONTENTFORMAT_BEGIN
 90
        0
 91
        0
 92
      512
 93
        0
300

 40
0.0
140
1.0
 94
        5
 62
     0
340
11
144
0.25
309
CONTENTFORMAT_END
171
     0
 94
        0
309
TABLEFORMAT_END
  1
CELLSTYLE_BEGIN
 90
        1
 91
        1
300
_TITLE
309
CELLSTYLE_END
300
CELLSTYLE
  1
TABLEFORMAT_BEGIN
 90
        5
170
     1
 91
        0
 92
        0
 62
   257
 93
        1
300
CONTENTFORMAT
  1
CONTENTFORMAT_BEGIN
 90
        0
 91
        0
 92
      512
 93
        0
300

 40
0.0
140
1.0
 94
        5
 62
     0
340
11
144
0.18
309
CONTENTFORMAT_END
171
     0
 94
        0
309
TABLEFORMAT_END
  1
CELLSTYLE_BEGIN
 90
        2
 91
        1
300
_HEADER
309
CELLSTYLE_END
300
CELLSTYLE
  1
TABLEFORMAT_BEGIN
 90
        5
170
     1
 91
        0
 92
        0
 62
   257
 93
        1
300
CONTENTFORMAT
  1
CONTENTFORMAT_BEGIN
 90
        0
 91
        0
 92
      512
 93
        0
300

 40
0.0
140
1.0
 94
        2
 62
     0
340
11
144
0.18
309
CONTENTFORMAT_END
171
     0
 94
        0
309
TABLEFORMAT_END
  1
CELLSTYLE_BEGIN
 90
        3
 91
        2
300
_DATA
309
CELLSTYLE_END
  0
ENDSEC
  0
SECTION
  2
ACDSDATA
 70
     2
 71
     6
  0
ACDSSCHEMA
 90
        0
  1
AcDb_Thumbnail_Schema
  2
AcDbDs::ID
280
    10
 91
        8
  2
Thumbnail_Data
280
    15
 91
        0
101
ACDSRECORD
 95
        0
 90
        1
  2
AcDbDs::TreatedAsObjectData
280
     1
291
     1
101
ACDSRECORD
 95
        0
 90
        2
  2
AcDbDs::Legacy
280
     1
291
     1
101
ACDSRECORD
  1
AcDbDs::ID
 90
        3
  2
AcDs:Indexable
280
     1
291
     1
101
ACDSRECORD
  1
AcDbDs::ID
 90
        4
  2
AcDbDs::HandleAttribute
280
     7
282
     1
  0
ACDSSCHEMA
 90
        1
  1
AcDbDs::TreatedAsObjectDataSchema
  2
AcDbDs::TreatedAsObjectData
280
     1
 91
        0
  0
ACDSSCHEMA
 90
        2
  1
AcDbDs::LegacySchema
  2
AcDbDs::Legacy
280
     1
 91
        0
  0
ACDSSCHEMA
 90
        3
  1
AcDbDs::IndexedPropertySchema
  2
AcDs:Indexable
280
     1
 91
        0
  0
ACDSSCHEMA
 90
        4
  1
AcDbDs::HandleAttributeSchema
  2
AcDbDs::HandleAttribute
280
     7
 91
        1
284
     1
  0
ACDSRECORD
 90
        0
  2
AcDbDs::ID
280
    10
320
21
  2
Thumbnail_Data
280
    15
 94
     3043
310
89504E470D0A1A0A0000000D49484452000000ED000001000803000000683E015500000300504C5445212830000000C8C8C80000000000000000000000000000000000000000000000000000330000660000990000CC0000FF0033000033330033660033990033CC0033FF0066000066330066660066990066CC0066FF0099
310
000099330099660099990099CC0099FF00CC0000CC3300CC6600CC9900CCCC00CCFF00FF0000FF3300FF6600FF9900FFCC00FFFF3300003300333300663300993300CC3300FF3333003333333333663333993333CC3333FF3366003366333366663366993366CC3366FF3399003399333399663399993399CC3399FF33CC00
310
33CC3333CC6633CC9933CCCC33CCFF33FF0033FF3333FF6633FF9933FFCC33FFFF6600006600336600666600996600CC6600FF6633006633336633666633996633CC6633FF6666006666336666666666996666CC6666FF6699006699336699666699996699CC6699FF66CC0066CC3366CC6666CC9966CCCC66CCFF66FF0066
310
FF3366FF6666FF9966FFCC66FFFF9900009900339900669900999900CC9900FF9933009933339933669933999933CC9933FF9966009966339966669966999966CC9966FF9999009999339999669999999999CC9999FF99CC0099CC3399CC6699CC9999CCCC99CCFF99FF0099FF3399FF6699FF9999FFCC99FFFFCC0000CC00
310
33CC0066CC0099CC00CCCC00FFCC3300CC3333CC3366CC3399CC33CCCC33FFCC6600CC6633CC6666CC6699CC66CCCC66FFCC9900CC9933CC9966CC9999CC99CCCC99FFCCCC00CCCC33CCCC66CCCC99CCCCCCCCCCFFCCFF00CCFF33CCFF66CCFF99CCFFCCCCFFFFFF0000FF0033FF0066FF0099FF00CCFF00FFFF3300FF3333
310
FF3366FF3399FF33CCFF33FFFF6600FF6633FF6666FF6699FF66CCFF66FFFF9900FF9933FF9966FF9999FF99CCFF99FFFFCC00FFCC33FFCC66FFCC99FFCCCCFFCCFFFFFF00FFFF33FFFF66FFFF99FFFFCCFFFFFF0000000D0D0D1A1A1A2828283535354343435050505D5D5D6B6B6B787878868686939393A1A1A1AEAEAEBB
310
BBBBC9C9C9D6D6D6E4E4E4F1F1F1FFFFFF000000000000000000000000000000000000000000000000000000000000B21171F6000007FF4944415478DAED9DDB75C3200C40350E3FEC3F8027C910FC378D6DCC1B61F310589CB6A95399722390002300A89B9452FBCBFF8FDFD7F1EE75C18913274E9C3871E2F44DE29798F6
310
419EA33006A557B50E605AA665DA5E16EDB10CD316BB8A167879128C4C182C516069A420ABBC9560A0674DD10ED16D2DA1625AB256936999B68C56B548447D5D2B5A352E51A315982CC46D19B713B1B46E1DED8AD156AA69625AA665DAC568979BD323458BE905A07A0A311942B4984E8F2A1622DA6E317D3C7543A8B66E2B
310
C2026CE7EF5121F80945718D8C3C1952B4B0835C17312B93124A6544855617EB5C0E1422B165C242CA5C50E4CA5069B75721F7754F295A4736985158A6AE4D7EEC099551CA98D0F7E7272E94CC8816AD61470324E5328A2EEDB65D6EE3F77B4AE68390F965E4D19A251DD86EED7E524C6F3FD0AC8C3575E0EB3648DBF1E938
310
A696DA281899584D1640811669A53EEAA1952240DBD1030922FEB64FEF62346DDF9EE3E89A7C1A966F2113E31B8C504A860C2D6AC40795467CE36913530ED5E72E86B7DB48DFEEB650D2CCD5D72DE55938A67D19EDB2B3E76D6C32D3322DB75BA665DA6AB46D12515A78956E999669999669999610EDBBFCAD7C976E999669
310
8F7BC92FFD3369BDC2AE497B1432432BDE453B7FE47A4DDDCE65A5DE459BB1C94CBB30AD6EDDC655480222B78988045D5AB1D38AF32A472B0CCCE96857F04005EDD65E3227103D8EC0CBACB4F9DE2414DEC0B44CCBB43C9A2FA3BDCCA8BD3AD45C249A8C64F656A712A6BDBCE41E882EACA07401C8E87530EE23AD5B53B5FB
310
3AFD2BF67D0364903C6CA185EF33D2A633675ADAB447BBDDCEF42BB5BEDA32B49B7D1F7DDDFE1B664FB7705C65750BCE7DE469CD9A0C362D606961325A08D0028216A6A0B5C6A4479CAF3221B67CE6674C83823C6DB7B8792CAD0381A645DCD7316EBE15ED86A6ED19375F48BBDDA4DD32D1209DE2E67156AA312DC0C0E8A7
310
9EB4E323DBDCBED4711BA213E508DA9749DA71518B5E5FEABA09A75B28D2ADD9303371F39888D44F6144AA372AD0BF7EB0B41F9F36E5F77BC5CD17D10256B7E0EB36D1C4F171F302155B5F16371F1AF1296B70904F9B7F19D72D2E6EFE5B470536B6BE206E3E3453D36A4FC5C2B879F12C6E1EB235B9DAC684C9FE3AC24AC1
310
6F422C67A53E578605B4FD4627451E4840ED9D5B7AD31AC773C5FB49878C8809296B2657D5A06DF004B3B49F2C6AEF2FD595169C70F7D4F0E65F4864848219D1A12D1DDF8ACAFBC2757F0E543477211ECC5DB4D0ED939923849028CF881A6D4112CF3FCB89686FE032ED454B3C8A4254A57592FCE2D37A5E2F66A715ABD156
310
DCB3BD7414FA51B6F9599B36B183FF105A211AE286B162D6B40E6D4DC725E2D961B38811496A560ACE25C10F6865C2D1AE49AB7579BCD145B7B77A604F3B6D3EADAC5A93A31FFE90C5DAF250A6F12D65459B5C99F66187FD87240F63A56BF101DD92F65E57BF06AD517DAF178256AA926EBDB62B89D2D66FB750B3DDD2A4D5
310
2FBD3CD0285ABBCD425D0F445BB7978E5FD26E2FB7BB24AD06B3DAEEB2B46E9B05B2FEB68A6EDD360BEFF1B78BB75B1918F175D9548792BF8DF75397F2B732410B4BD09ADFF14E72E5F8F051FE36307FB12C2D20696B976E94BF35BDCFF5E68AB432382FD50176102D3289DACF6F07B55B0CB4107225DAC0DFEC8EC52A6320
310
046D8BA9EE81B490AE872D4A3694B6F7FF665AA6655AA6655AA6655AA665DA5EB4A102164D1B49A69D8156C75D1AB482006D72F5C703DA1BEBE1A6A50DDD499AB6F811CB2B68B5DC0CB4790AD4C715B1C985CE7612DA7FC5BD9876D59AAC59740155F08CEAEC3E5453F52EC4450B7B30B5457BC4572F432B987655DA2FEE9B
310
68E5BB688169EFD14AD62DD38EA47D1CD6FE22DDC2BB68A57C534DA64D6B1FE722CD40ED2DB92B5D7C95C8B5FA8D1AAD33A328E497E35F3FFF3FB6FDE54CFF7FD8F697EF4FA1A448AF77A2AC5B6F149BD3AD3A6E927664A27E25D9BB08D062AC94412BA55EA12AADEF25692D636EC45113A5B5E6736ED25A713FDA464D439B
310
9997F2741B8C919F84566F0F6D6C157BBE05CA69B760AD43D6DF93D864B037CC3660AFB734ADA143C7264FE681F23BD4C0A946A7CD12A7D5BD8B3BB412FC5D3CA6E8391628174E5A6968F8DADBC2A5DD1045DD9AD2461E2504B7190A6D3E2420BCD3836B939F9C76E10935A04D7BA0206DC2DF62C68A7ACBD8246D1BDDA6B3
310
D4FB7F1B9D627BFF0309921C6DE4CF1EED16F8FB45EB938263A548D382BF91AEBF8DB0A9DB60E4E98CB4A16DD17CDA8CBF9D8436BC0D9CFE255693E58C3539B6ED9D431B68B38EBF9D813675B425C43C90E36F5BECC39A5CAA7697D600B44E802CA26DA1DB16B4862A7FB497B2BD767BD4E478CF913CAD7D24ABF2CE56B169
310
4F2B6CEE0E301FEDEF1F1CBA55315A3D6F61F7959BB5DB06564A37D1EB9002E5CDDF9C1E2857B256BA0D28F83EED9EFDAF142EAEC2D136B6C975680D759E2755EC55DA764BBFFD6C65C50D7E51C70635A23D01CF51C1D974F5113B62C75D43B7715AA8BA6573A96E6B5BA9042D62FA206A81BAF41C45255AADDCC1B40F76D6
310
749F68EE74D7C1679B91BE356D3FD06CDBC8EAF64E22ADDB3EB487476A68A5D4732B559156DB64A596A3BD7023BD0BDC7906F977E8D09AEDC9EC5C146594296F990C34C40D8F0A546146E619682A2E84916967A7CE27B9E753DB3B9FEFD3B3A20303B356B4E1D1FCBDACD2F7E265A02DEEE56FEFFF3BD48D38999675D918F1
310
356D39C3532F07401817564E2F426DEFD6A902AF0D685D6D3DC65D9C383548E2C1BCDECCB481C92DA665DA6960D5B89369071C8B3BD04A65699B9C683EAC5E31EDB2B4B9F40787061389168ED1F20000000049454E44AE4260827E751D005D2610556D4AC8E4E18F0250285DB10D0400F046003D8FFF7E0880B79BC0DDDB07
310
A01940C7438F3F009F09CC6FA52767920640E763919705F0675B3F80BF8B5A0780BF67B4BB02F82D0C8B7BCE0390BF7FBFE846CAB244B19E7EEF54CF636FE72091C07C10DA88311E803D5DB1B7FC13CBCB7A177CADDF11099006B40378950F7845235F43ED3F4EFA5F2E38761B090000000049454E44AE426082
  0
ACDSRECORD
 90
        0
  2
AcDbDs::ID
280
    10
320
1D
  2
Thumbnail_Data
280
    15
 94
     3047
310
89504E470D0A1A0A0000000D4948445200000100000000B5080300000087DCD12600000300504C5445FFFFFF000000C8C8C80000000000000000000000000000000000000000000000000000330000660000990000CC0000FF0033000033330033660033990033CC0033FF0066000066330066660066990066CC0066FF0099
310
000099330099660099990099CC0099FF00CC0000CC3300CC6600CC9900CCCC00CCFF00FF0000FF3300FF6600FF9900FFCC00FFFF3300003300333300663300993300CC3300FF3333003333333333663333993333CC3333FF3366003366333366663366993366CC3366FF3399003399333399663399993399CC3399FF33CC00
310
33CC3333CC6633CC9933CCCC33CCFF33FF0033FF3333FF6633FF9933FFCC33FFFF6600006600336600666600996600CC6600FF6633006633336633666633996633CC6633FF6666006666336666666666996666CC6666FF6699006699336699666699996699CC6699FF66CC0066CC3366CC6666CC9966CCCC66CCFF66FF0066
310
FF3366FF6666FF9966FFCC66FFFF9900009900339900669900999900CC9900FF9933009933339933669933999933CC9933FF9966009966339966669966999966CC9966FF9999009999339999669999999999CC9999FF99CC0099CC3399CC6699CC9999CCCC99CCFF99FF0099FF3399FF6699FF9999FFCC99FFFFCC0000CC00
310
33CC0066CC0099CC00CCCC00FFCC3300CC3333CC3366CC3399CC33CCCC33FFCC6600CC6633CC6666CC6699CC66CCCC66FFCC9900CC9933CC9966CC9999CC99CCCC99FFCCCC00CCCC33CCCC66CCCC99CCCCCCCCCCFFCCFF00CCFF33CCFF66CCFF99CCFFCCCCFFFFFF0000FF0033FF0066FF0099FF00CCFF00FFFF3300FF3333
310
FF3366FF3399FF33CCFF33FFFF6600FF6633FF6666FF6699FF66CCFF66FFFF9900FF9933FF9966FF9999FF99CCFF99FFFFCC00FFCC33FFCC66FFCC99FFCCCCFFCCFFFFFF00FFFF33FFFF66FFFF99FFFFCCFFFFFF0000000D0D0D1A1A1A2828283535354343435050505D5D5D6B6B6B787878868686939393A1A1A1AEAEAEBB
310
BBBBC9C9C9D6D6D6E4E4E4F1F1F1FFFFFF000000000000000000000000000000000000000000000000000000000000B0E2D235000008A24944415478DAED9D09B2A4200C40394EEA5779FF0370939CE4B7B2855536054566E68F834EB73C93104240866CF1F201F8007C003E00CB03F85BB418002B3C69BFF57300C060F900
310
4C050000160770FC7EA155480000B7AC0E60AF590A4044131656819F002C0FA091C07C86A4D80F8013441714E70E3659AC2BB6E2520BC02270CBE3F400408FEEA90680704F008CAB320640974FAD0780603C350CAAF99915085D91788E191250210FF52A408100E6028030000802B03F621E00BEAFBE2BC4E5762F1BC0E52A
310
E08751303B960425D5C06607503E70EB09609811746388C8B83EBAB16C1D2C401900EF2BB0BC4049B55D0BCC6EDB00000101109D20378717064B9CFBB85F05A200545770AD0E7800BAF4327D00F0D5017C12C08EA14106005E52CD6704406322EAE9EF2A101F14786E43517502C018234863226E2F006900281F2AE656DBB5
310
551270692FE001609005C0696AB8DAAF9D0FC05EF16BB55401C1024E8CD821D35E4B85A463FAE209FD00704603FB07C4A18B96069B8A1E17034057571BC10B1D21E90DEF2A608C60E49B39F29FA0F0FD2F4E4D1BE7E68C7F319A8B51050B2602C0C007002CF2CDC743E66109E09912005402FA940B005C6803E0B2106CAD23
310
049E0DB8B4179813C071A73900D49579D56E6D1840BBF037BAC200160038770573ABDDDA0880E60EB0752C6003B8782CF07C008DA3C15200A95EB017006A036020002802002F04503B10EE0800D86C12906ACB1512F00118AB02CC4F60F2FE21FF7405901D11BA12407934AC0F00E2C8011B2C014C8F1583A69F9EED67041D
310
4F76AC0DD067E3538D602EFD00BC0CC020575801808100A4554311A002440CCEDB1E23579007F02A00F2F43E3F237EF1C08DA0B804E54157002A26BC2A00BC0B80F4750200F65A7E143CC2ACBF1202A0CE3C55021200D4E3156DE3C86E5681FB7A810400399586E1F80AEA285B1300E24B1203CB2F5EE192B2016A748BEA2A
310
8CFE7724A2502D01DA9B40CF0FE0E45BC601E051001CCDC11500AE1E0FA57A815B014825B401E03009D0BDC011460DF700FA8C3EEA0A80A83FE21800EC5C02CC19EC29018EB7890C07038805DEE91921AA2D3640AE1A3200B898E3E5F6CCEFDD638192D208804880408AB647F8E2D1A0D30B18006C980DF800D881AFDC5489
310
3E00382AABA2D3845E0F80F40232495638E1C31CA1BB55C0EA06396A2758B63E0DE0F2D9E1FC44A17615403502B5728553006EC80F1803802B9F380D400F4733ABEDDA4932448C23740C82497EDB2980A254590CA6CA4E9023641C21D446300FC04BB2C4422AC00A01043245E300A27982AE4A6FDBDC0064F227863245F770
310
7D2053548C326299A2E3011C1DA089C1219C4A80F21BD0AD3E72CDBC5ADBB1984602A81F6039423CBD68246503005871B6F81400882BBC9B4238ED057C006AA941CC36CE07203A18E2BB2AA700A43245212B53747600BB08A43D411EF60479601306F7E23480ED560034224462919CC35944281EB487B38BA702604B801C0A
310
7331FD5C7B0B67FECD4C006C15D0FE20B29654C1420067CE7D7700D2F8876C0001800DC9A2F05C00D227106B48EA1B0985008E9F72603B06805DB85CF49FCECF2BDF5C20BC7FC0AFBDFB2F26FE1A2301C12D34528FF16C091714A8CA0EC0C8C0366630149A70C086456C25D7CA361FEDBEC506040004827778B26AE6E41917
310
01D89C1FB30048B6A25F30C318C1370128501A6D048D0ECC0280DD05808D36823100CD763E5305B4046C9349C05D0066B5013702A03F3C557A3D00D272F7F92F03801AC1B66F7926806310A0C602EB018815808A69C2474A4084C2BA005ABE230F00E8D589F300E8F4711F800F400F1B00AB03389B195A00002C0E807D001A
310
01D006A5C633DBAC0010BA00380D09BD1F001584470160D005C0D97F792100F58E90C703A89D181149171F80BD4174056A6435EACC009A2646040092268DC144EAB901C43BB1D34825C0A300B8CBA6E5D2419614F333117810007BC98C918116008F5301CEDCF5FA6B0140CE74B67806801C4728378C391E80C80FEB0E204F
310
02D81400EC1523F74AC03614805E33E4ED895D07806CF186BF36E1C6B7E3801EEFA7B7CEC9813D54402B42930498852018530131CA70A6835F6303F201C8C408931631D411B2BB41DE0240F590181B0B2800D69CF0100066C508B3D70EF3C072901A0074C5A039361260CD098F05409E3DD9A4A85505120094F11FDA0D5A00
310
98016076B2AA0420FA96F8A6171A80F3A3BE90F15AD558800090E9F255009C2123866C80CC42DE4C5A18490EC4C4EAEBD4A26C9D7EDD050079E1562B007B70A1DF32A001B84610CD0BFFAC961EFB1B85ABBD9BA95A3364EE512D193A5D339409C00D33C8ADE464629049936F0200CDC3615F05008A25C0A3899EA852001B93
310
46901923381580621BE0AD86953B7E8965A98A815101F9F0A911AC0300AC0700B71BEC05C0AC4660DAB9002B31B4F93533509B23947684A01980DEF04F5A55ED5CB846706B3282D0C10F08B9C25D00A0BD7A1C0900DA0936DA806600E19018B403A0ED47A67767826E2F57EA9326A787C3781500AE5E42869302084784A08B
310
0AE84D54505AC463C9DD2C00544448EEA2E70228788138598C170190F166EF261B20ED61CF98201403A0EFF1DCF70F915B8D88FD098F7FF22901046D40EA95832512A04701574B40F160C8F402189918492C7C828CA9125F054E16648F02603B427D0190DD7A59CD3BCE93853B7186FD1E9A5DE1EAA06870E70833F168F659
310
8A3E7F6BCCEC8FAA735EEE57F1F679E62FF80643B460ED701C80D9A0E14C03E443CDA88D5567018817DE12966211024C878333F664C082DA60753900F06E1FB226BFB2A284687693BB70BBF66E00007A03A0DB33303635004FBD8B01B811211AD1BCABF9D3A940BB69B90B405183EEB4ADAF00C09E0200604900D56FBC7F9F
310
04ACA9022F2B1F806C00D0B051D207E003706F29B8CF7E00F25FFDFC0178900AFC99D20BC0DFE85206209F64C900F60F0BAFCEBFDEBFD8B9B36200592F2F8A5FC98A3FB6FC26EC8BDD537FCCBAEC8F441D3E001F800223F89A12B5018B96541C7D9DF201F800AC5DFE01A9B84B13CFB28AB20000000049454E44AE426082
  0
ENDSEC
  0
EOF
